osu file format v14

[General]
AudioFilename: audio.ogg
AudioLeadIn: 0
PreviewTime: 51656
Countdown: 0
SampleSet: Soft
StackLeniency: 0.7
Mode: 0
LetterboxInBreaks: 0
WidescreenStoryboard: 1

[Editor]
DistanceSpacing: 0.6
BeatDivisor: 4
GridSize: 16
TimelineZoom: 1

[Metadata]
Title:Props & Mayhem
TitleUnicode:Props & Mayhem
Artist:Pierce The Veil
ArtistUnicode:Pierce The Veil
Creator:dopaminos
Version:quantumvortex's Hyper
Source:
Tags:english rock collide with the sky midorijeon quantumvortex mineralwater1 post hardcore punk
BeatmapID:4260424
BeatmapSetID:2040338

[Difficulty]
HPDrainRate:5
CircleSize:4
OverallDifficulty:6.5
ApproachRate:7
SliderMultiplier:1.3
SliderTickRate:1

[Events]
//Background and Video events
0,0,"bg.jpg",0,0
//Break Periods
2,45714,48157
2,128863,142882
//Storyboard Layer 0 (Background)
//Storyboard Layer 1 (Fail)
//Storyboard Layer 2 (Pass)
//Storyboard Layer 3 (Foreground)
//Storyboard Layer 4 (Overlay)
//Storyboard Sound Samples

[TimingPoints]
160,472.44094488189,4,2,0,40,1,0
3939,-100,4,2,0,75,0,0
15278,-100,4,2,0,60,0,0
30396,-100,4,2,0,70,0,0
45514,-100,4,2,0,50,0,0
51183,-100,4,2,0,65,0,0
51656,-500,4,2,0,65,0,0
53073,-100,4,2,0,80,0,0
68191,-100,4,2,0,65,0,0
81419,-400,4,2,0,65,0,0
82837,-100,4,2,0,65,0,0
83309,-100,4,2,0,75,0,0
90868,-100,4,2,0,60,0,0
94648,-100,4,2,0,70,0,0
96537,-400,4,2,0,70,0,0
98427,-200,4,2,0,50,0,0
100789,-100,4,2,0,50,0,0
101262,-200,4,2,0,50,0,0
102207,-100,4,2,0,80,0,0
113545,-100,4,2,0,70,0,0
128663,-100,4,2,0,50,0,0
143782,-100,4,2,0,60,0,0
155120,-100,4,2,0,70,0,0
158900,-100,4,2,0,75,0,0
174018,-100,4,2,0,80,0,0
189136,-100,4,2,0,65,0,0
196695,-100,4,2,0,80,0,0

[Colours]
Combo1 : 211,228,92
Combo2 : 238,194,81
Combo3 : 149,231,67
Combo4 : 233,131,82

[HitObjects]
39,46,3939,5,6,1:2:0:0:
125,101,4175,1,2,1:2:0:0:
38,150,4411,2,0,P|38:201|42:228,1,65,10|0,2:2|1:1,0:0:0:0:
128,270,4884,5,2,1:2:0:0:
214,215,5120,1,2,1:2:0:0:
123,165,5356,2,0,P|123:114|127:85,1,65,10|0,2:2|1:1,0:0:0:0:
221,46,5829,6,0,P|260:53|294:64,1,65,2|2,1:2|1:2,0:0:0:0:
437,114,6301,2,0,P|398:121|368:133,1,65,10|0,2:2|1:1,0:0:0:0:
301,260,6774,1,2,1:2:0:0:
214,132,7010,1,2,1:2:0:0:
301,175,7246,1,10,2:2:0:0:
391,222,7482,1,0,1:1:0:0:
475,282,7719,6,0,P|480:328|481:354,1,65,6|2,1:2|1:2,0:0:0:0:
338,300,8191,1,10,2:2:0:0:
351,381,8427,1,8,2:2:0:0:
267,348,8663,2,0,P|224:351|187:358,1,65,2|2,1:2|1:2,0:0:0:0:
386,226,9136,2,0,P|429:223|470:217,1,65,10|0,2:2|1:1,0:0:0:0:
322,288,9608,6,0,P|307:239|303:217,1,65,2|2,1:2|1:2,0:0:0:0:
276,98,10081,1,10,2:2:0:0:
157,180,10317,1,8,2:2:0:0:
192,101,10553,2,0,P|187:65|177:23,1,65,2|2,1:2|1:2,0:0:0:0:
112,249,11026,2,0,P|117:285|126:324,1,65,10|0,2:2|1:1,0:0:0:0:
42,199,11498,5,6,1:2:0:0:
162,184,11734,2,0,P|212:178|243:176,1,65,2|0,1:2|0:0,0:0:0:0:
112,249,12207,1,2,1:2:0:0:
196,317,12443,2,0,P|201:264|200:247,1,65,10|2,2:2|1:2,0:0:0:0:
300,148,12915,2,0,P|301:177|306:216,1,65,0|2,0:0|1:2,0:0:0:0:
396,294,13388,5,10,2:2:0:0:
500,230,13624,1,2,1:2:0:0:
409,143,13860,2,0,P|400:201|397:222,1,65,10|0,2:2|1:1,0:0:0:0:
305,207,14333,5,10,1:2:0:0:
305,207,14569,1,8,1:2:0:0:
285,122,14805,1,10,1:2:0:0:
383,23,15041,1,8,1:2:0:0:
512,101,15278,6,0,P|436:113|375:113,2,130,6|8|0,1:2|2:2|1:1,0:0:0:0:
427,35,16459,1,2,2:2:0:0:
427,35,16695,1,10,2:2:0:0:
334,58,16931,1,2,2:2:0:0:
225,25,17167,1,0,1:1:0:0:
145,72,17404,2,0,P|100:77|77:79,2,65,2|10|2,1:2|2:2|2:2,0:0:0:0:
228,123,18112,2,0,P|227:209|231:265,1,130,2|10,1:2|2:2,0:0:0:0:
26,253,19057,6,0,P|27:167|22:108,1,130,2|10,1:2|2:2,0:0:0:0:
127,164,19766,2,0,P|127:211|126:239,1,65,2|0,2:2|1:1,0:0:0:0:
119,302,20238,2,0,P|119:349|121:375,1,65,2|8,2:2|2:2,0:0:0:0:
194,261,20711,1,2,2:2:0:0:
251,334,20947,5,0,1:1:0:0:
251,334,21183,1,0,1:1:0:0:
294,253,21419,1,10,2:2:0:0:
361,292,21656,2,0,P|364:343|365:367,1,65,2|0,2:2|1:1,0:0:0:0:
436,246,22128,2,0,P|433:195|433:172,2,65,2|8|0,2:2|2:2|0:0,0:0:0:0:
471,111,22837,6,0,P|413:110|383:115,1,65,6|0,1:2|1:1,0:0:0:0:
250,156,23309,1,10,2:2:0:0:
340,65,23545,2,0,P|332:112|322:201,1,130,10|2,2:2|1:2,0:0:0:0:
307,297,24254,1,8,2:2:0:0:
255,236,24490,1,2,1:2:0:0:
373,255,24726,5,4,1:2:0:0:
373,255,24963,1,2,1:2:0:0:
296,369,25199,1,8,2:2:0:0:
177,306,25435,2,0,P|121:317|96:324,1,65,10|0,2:2|0:0,0:0:0:0:
255,232,25908,1,2,1:2:0:0:
240,155,26144,2,0,P|234:112|239:67,1,65,10|0,2:2|1:1,0:0:0:0:
250,10,26616,5,6,1:2:0:0:
250,10,26852,2,0,P|156:16|113:24,1,130,2|2,1:2|1:2,0:0:0:0:
0,101,27561,5,10,2:2:0:0:
0,101,27797,2,0,P|94:107|140:116,1,130,2|2,1:2|1:2,0:0:0:0:
251,176,28506,5,10,1:2:0:0:
28,251,28978,1,10,1:2:0:0:
187,312,29451,5,10,2:2:0:0:
187,312,29569,1,8,2:2:0:0:
187,312,29687,2,0,L|195:264,1,32.5,0|0,1:1|1:1,0:0:0:0:
178,248,29923,2,0,L|170:201,3,32.5,8|8|4|4,2:3|2:3|2:3|2:3,0:0:0:0:
204,184,30396,6,0,P|251:192|286:201,1,65,6|2,1:2|1:2,0:0:0:0:
391,227,30868,1,10,2:2:0:0:
467,174,31104,2,0,P|475:136|476:89,1,65,2|0,1:2|1:1,0:0:0:0:
391,227,31577,1,2,1:2:0:0:
438,311,31813,1,8,2:2:0:0:
359,369,32049,1,2,1:2:0:0:
254,272,32285,6,0,P|263:223|271:200,1,65,2|0,1:2|1:1,0:0:0:0:
278,349,32758,1,10,2:2:0:0:
182,232,32994,2,0,P|146:222|106:218,1,65,2|0,1:2|1:1,0:0:0:0:
259,207,33467,1,2,1:2:0:0:
325,160,33703,2,0,P|361:150|400:145,1,65,8|0,2:2|1:1,0:0:0:0:
244,134,34175,6,0,P|237:66|238:4,1,130,2|10,1:2|2:2,0:0:0:0:
325,17,34884,2,0,P|321:57|317:91,1,65,2|0,1:2|1:1,0:0:0:0:
244,134,35356,1,2,1:2:0:0:
151,36,35593,1,8,2:2:0:0:
76,80,35829,1,2,1:2:0:0:
6,23,36065,6,0,P|-3:73|-1:106,1,65,2|0,1:2|1:1,0:0:0:0:
91,213,36537,1,10,2:2:0:0:
157,171,36774,2,0,P|166:121|161:90,1,65,2|0,1:2|1:1,0:0:0:0:
11,197,37246,1,10,2:2:0:0:
163,288,37482,1,12,2:2:0:0:
163,288,37719,1,0,1:1:0:0:
129,360,37955,5,6,1:2:0:0:
75,299,38191,2,0,P|34:309|7:319,1,65,0|2,1:1|2:2,0:0:0:0:
129,360,38663,1,0,1:1:0:0:
211,325,38900,1,10,2:2:0:0:
301,363,39136,2,0,P|287:275|287:227,1,130,0|0,1:1|1:1,0:0:0:0:
334,127,39845,5,2,1:2:0:0:
404,196,40081,2,0,P|395:246|389:274,1,65,0|0,1:1|0:0,0:0:0:0:
493,157,40553,1,0,1:1:0:0:
422,76,40789,1,10,2:2:0:0:
334,127,41026,2,0,P|266:115|208:98,1,130,0|0,1:1|1:1,0:0:0:0:
139,0,41734,5,6,1:2:0:0:
68,68,41971,2,0,P|26:81|4:81,2,65,2|0|2,1:2|0:0|1:2,0:0:0:0:
139,0,42679,6,0,P|145:60|145:93,1,65,10|2,2:2|1:2,0:0:0:0:
268,176,43152,2,0,P|262:116|260:86,1,65,0|2,0:0|1:2,0:0:0:0:
235,4,43624,5,14,2:2:0:0:
337,73,43861,1,2,1:2:0:0:
169,102,44097,1,14,2:2:0:0:
268,176,44333,1,0,1:1:0:0:
391,154,44569,5,10,2:2:0:0:
391,154,44687,1,8,2:2:0:0:
391,154,44805,2,0,P|422:147|435:148,1,32.5,2|0,1:2|1:1,0:0:0:0:
456,175,45041,2,0,P|470:174|488:168,3,32.5,6|4|0|0,2:3|2:3|1:1|1:1,0:0:0:0:
511,132,45514,1,6,1:2:0:0:
256,191,49057,5,0,1:1:0:0:
256,191,49293,1,2,1:2:0:0:
364,147,49766,1,0,1:1:0:0:
272,78,50238,1,2,1:2:0:0:
349,277,50711,2,0,P|362:221|366:196,1,65,0|0,1:1|0:0,0:0:0:0:
395,34,51183,1,10,2:2:0:0:
430,133,51656,6,0,P|447:136|457:136,2,26,2|2|2,2:2|2:2|2:2,0:0:0:0:
271,63,53073,5,6,1:2:0:0:
202,157,53309,1,0,1:1:0:0:
111,81,53545,2,0,P|101:35|102:5,1,65,8|0,2:2|1:1,0:0:0:0:
195,80,54018,1,2,1:2:0:0:
100,166,54254,1,0,1:1:0:0:
209,235,54490,2,0,P|214:284|216:321,1,65,8|0,2:2|1:1,0:0:0:0:
105,230,54963,6,0,P|100:181|100:144,1,65,2|0,1:2|1:1,0:0:0:0:
215,299,55435,2,0,P|111:317|76:315,2,130,10|2|10,2:2|1:2|2:2,0:0:0:0:
303,208,56616,1,0,1:1:0:0:
355,370,56852,5,6,1:2:0:0:
471,246,57089,1,0,1:1:0:0:
505,366,57325,2,0,P|470:359|436:343,1,65,8|0,2:2|1:1,0:0:0:0:
384,258,57797,2,0,P|380:212|385:183,1,65,2|0,1:2|1:1,0:0:0:0:
476,91,58270,2,0,P|480:137|476:162,1,65,8|0,2:2|1:1,0:0:0:0:
382,193,58742,1,2,1:2:0:0:
301,135,58978,1,0,1:1:0:0:
219,197,59215,6,0,P|219:239|222:330,2,130,10|2|10,2:2|1:2|2:2,0:0:0:0:
243,92,60396,1,0,1:1:0:0:
279,6,60632,6,0,P|321:17|351:28,1,65,6|0,1:2|1:1,0:0:0:0:
165,125,61104,1,10,2:2:0:0:
49,20,61341,1,8,2:2:0:0:
165,125,61577,2,0,P|155:162|151:203,1,65,2|0,1:2|1:1,0:0:0:0:
19,94,62049,2,0,P|43:181|51:238,1,130,10|0,2:2|1:1,0:0:0:0:
124,277,62758,1,0,1:1:0:0:
220,257,62994,5,10,2:2:0:0:
103,363,63230,1,8,2:2:0:0:
145,196,63467,2,0,P|154:152|159:118,1,65,2|0,1:2|1:1,0:0:0:0:
296,299,63939,2,0,P|284:348|280:374,1,65,8|0,2:2|1:1,0:0:0:0:
220,257,64411,5,6,1:2:0:0:
308,159,64648,1,0,1:1:0:0:
230,109,64884,2,0,P|232:156|236:191,1,65,10|0,2:2|1:1,0:0:0:0:
317,238,65356,1,2,1:2:0:0:
380,103,65593,1,0,1:1:0:0:
468,177,65829,2,0,P|471:206|471:245,1,65,10|0,2:2|1:1,0:0:0:0:
308,159,66301,5,0,1:1:0:0:
356,24,66537,1,0,1:1:0:0:
226,34,66774,2,0,P|174:41|151:50,1,65,10|0,2:2|1:1,0:0:0:0:
31,159,67246,6,0,P|155:138|230:118,1,195,2|4,1:2|2:3,0:0:0:0:
248,114,68073,1,4,2:3:0:0:
248,114,68191,1,6,1:2:0:0:
367,141,68427,6,0,P|360:187|350:219,1,65,2|10,3:2|1:2,0:0:0:0:
282,255,68900,1,2,3:2:0:0:
282,255,69018,2,0,L|203:267,1,65,8|0,2:2|3:3,0:0:0:0:
203,267,69372,1,2,1:2:0:0:
130,227,69608,2,0,L|88:220,2,32.5,10|8|2,2:2|2:2|3:2,0:0:0:0:
31,272,70081,6,0,P|29:318|36:361,1,65,2|0,1:2|1:1,0:0:0:0:
141,320,70553,2,0,P|143:274|133:230,1,65,10|2,2:2|3:2,0:0:0:0:
136,241,70908,1,8,2:2:0:0:
130,227,71026,1,0,3:3:0:0:
50,172,71262,1,2,1:2:0:0:
136,125,71498,2,0,P|172:131|203:140,1,65,10|0,2:2|3:3,0:0:0:0:
50,172,71971,6,0,P|42:93|49:25,1,130,2|10,1:2|2:2,0:0:0:0:
133,60,72679,2,0,P|135:110|135:140,1,65,2|0,3:2|3:3,0:0:0:0:
214,42,73152,1,2,1:2:0:0:
292,85,73388,1,8,2:2:0:0:
292,85,73506,1,8,2:2:0:0:
292,85,73624,1,2,3:2:0:0:
374,57,73860,6,0,P|423:53|456:57,1,65,2|0,1:2|1:1,0:0:0:0:
361,136,74333,1,10,2:2:0:0:
464,132,74569,1,2,3:2:0:0:
464,132,74687,2,0,P|450:203|444:245,1,97.5,8|2,2:2|1:2,0:0:0:0:
431,320,75278,2,0,P|426:344|424:364,2,32.5,8|8|0,2:2|2:2|3:3,0:0:0:0:
367,255,75750,5,6,1:2:0:0:
304,213,75986,1,2,1:2:0:0:
294,291,76222,1,10,2:2:0:0:
233,237,76459,1,2,3:2:0:0:
233,237,76577,2,0,P|166:239|128:250,1,97.5,8|2,2:2|1:2,0:0:0:0:
77,297,77167,1,10,2:2:0:0:
77,297,77285,1,8,2:2:0:0:
77,297,77404,1,2,3:2:0:0:
151,339,77640,6,0,P|188:336|233:339,1,65,2|2,1:2|1:2,0:0:0:0:
303,382,78112,2,0,P|300:277|301:241,1,130,10|2,2:2|3:2,0:0:0:0:
328,179,78821,1,0,1:1:0:0:
287,102,79057,1,10,2:2:0:0:
269,98,79175,1,8,2:2:0:0:
251,94,79293,1,0,3:3:0:0:
233,90,79411,1,0,3:3:0:0:
215,86,79530,5,6,1:2:0:0:
149,146,79766,2,0,P|152:196|153:237,1,65,2|8,1:2|2:2,0:0:0:0:
78,87,80238,2,0,P|75:37|76:6,1,65,2|0,1:2|1:1,0:0:0:0:
13,142,80711,1,2,1:2:0:0:
79,196,80947,1,10,2:2:0:0:
1,228,81183,1,2,1:2:0:0:
158,212,81419,6,0,P|186:218|194:221,2,32.5,10|2|2,2:2|2:2|2:2,0:0:0:0:
261,205,82837,6,0,P|328:201|371:194,1,97.5,10|0,2:1|0:0,0:0:0:0:
382,181,83309,5,6,1:1:0:0:
253,110,83545,2,0,P|250:65|251:33,1,65,2|0,1:1|0:0,0:0:0:0:
380,116,84018,2,0,P|382:166|381:195,1,65,0|8,0:0|2:1,0:0:0:0:
307,263,84490,1,2,2:2:0:0:
241,301,84726,1,2,2:2:0:0:
167,232,84963,1,2,2:2:0:0:
36,288,85199,5,2,1:1:0:0:
134,368,85435,2,0,P|172:363|202:364,1,65,2|0,1:1|0:0,0:0:0:0:
167,232,85908,1,2,1:1:0:0:
167,232,86026,1,0,1:1:0:0:
167,232,86144,6,0,L|68:213,2,97.5,14|14|14,2:1|2:1|2:1,0:0:0:0:
266,252,87089,5,6,1:1:0:0:
367,273,87325,2,0,P|375:329|376:353,1,65,2|0,1:1|0:0,0:0:0:0:
459,231,87797,2,0,P|465:184|465:151,1,65,0|8,0:0|2:1,0:0:0:0:
364,103,88270,1,2,2:2:0:0:
410,41,88506,1,2,2:2:0:0:
297,69,88742,1,2,1:1:0:0:
371,174,88978,5,2,1:1:0:0:
477,79,89215,2,0,P|484:41|485:1,1,65,2|0,1:1|0:0,0:0:0:0:
336,104,89687,1,2,1:2:0:0:
336,104,89805,1,0,1:1:0:0:
336,104,89923,6,0,P|265:117|216:118,1,97.5,14|0,2:2|3:3,0:0:0:0:
218,105,90396,1,10,2:2:0:0:
218,105,90514,1,8,2:3:0:0:
218,105,90632,2,0,P|215:75|212:61,1,32.5,4|4,2:3|2:3,0:0:0:0:
233,34,90868,6,0,P|326:29|376:18,1,130,6|10,1:2|1:2,0:0:0:0:
439,64,91577,1,2,3:2:0:0:
439,64,91695,2,0,P|426:142|424:169,1,97.5,8|2,2:2|1:2,0:0:0:0:
414,244,92285,1,8,2:2:0:0:
414,244,92404,1,8,2:2:0:0:
309,151,92758,6,0,P|262:153|223:162,1,65,8|2,1:2|1:2,0:0:0:0:
157,219,93230,2,0,P|151:160|153:129,1,65,8|2,1:2|3:2,0:0:0:0:
176,125,93585,2,0,P|172:57|168:28,1,97.5,8|0,2:2|1:1,0:0:0:0:
82,14,94175,1,8,2:2:0:0:
84,28,94293,1,8,2:2:0:0:
85,42,94411,1,10,2:2:0:0:
86,57,94530,1,8,2:2:0:0:
87,73,94648,6,0,P|44:80|15:82,1,65,6|0,1:2|1:1,0:0:0:0:
89,176,95120,2,0,P|132:183|158:185,1,65,8|0,2:2|1:1,0:0:0:0:
237,134,95593,1,2,1:2:0:0:
297,187,95829,1,0,1:1:0:0:
388,151,96065,1,8,2:2:0:0:
439,242,96301,1,0,1:1:0:0:
372,323,96537,6,0,P|316:306|275:297,1,97.5,10|10,2:2|2:2,0:0:0:0:
177,312,98427,6,0,P|160:305|146:302,3,32.5,6|0|8|0,1:2|1:1|2:2|1:1,0:0:0:0:
94,247,99372,2,0,P|79:241|60:238,3,32.5,2|0|8|0,1:2|1:1|2:2|1:1,0:0:0:0:
172,219,100317,2,0,P|186:222|206:232,1,32.5,2|0,1:2|1:1,0:0:0:0:
109,172,100789,2,0,P|101:127|100:97,1,65,10|0,2:2|1:1,0:0:0:0:
166,17,101262,6,0,P|169:38|172:59,3,32.5,10|0|2|0,2:2|0:0|2:2|0:0,0:0:0:0:
255,102,102207,5,6,1:2:0:0:
361,66,102443,1,0,1:1:0:0:
416,160,102679,2,0,P|446:171|477:180,1,65,8|0,2:2|1:1,0:0:0:0:
356,244,103152,1,2,1:2:0:0:
240,206,103388,1,0,1:1:0:0:
128,253,103624,2,0,P|91:263|62:262,1,65,8|0,2:2|1:1,0:0:0:0:
244,297,104097,6,0,P|243:344|242:376,1,65,2|0,1:2|1:1,0:0:0:0:
65,263,104569,2,0,P|62:165|67:124,2,130,10|2|10,2:2|1:2|2:2,0:0:0:0:
152,342,105750,1,0,1:1:0:0:
296,255,105986,6,0,P|296:199|290:165,1,65,6|0,1:2|1:1,0:0:0:0:
410,350,106459,1,10,2:2:0:0:
510,199,106695,1,8,2:2:0:0:
369,115,106931,2,0,P|373:169|371:197,1,65,2|0,1:2|1:1,0:0:0:0:
510,199,107404,2,0,P|501:92|501:62,1,130,10|0,2:2|1:1,0:0:0:0:
394,12,108112,1,0,1:1:0:0:
299,100,108348,5,10,2:2:0:0:
161,16,108585,1,8,2:2:0:0:
40,62,108821,2,0,P|76:74|111:79,1,65,2|0,1:2|1:1,0:0:0:0:
307,28,109293,2,0,P|271:16|237:11,1,65,8|0,2:2|1:1,0:0:0:0:
98,76,109766,5,6,1:2:0:0:
210,137,110002,1,0,1:1:0:0:
104,202,110238,2,0,P|97:244|93:277,1,65,10|0,2:2|1:1,0:0:0:0:
18,192,110711,1,2,1:2:0:0:
183,256,110947,1,0,1:1:0:0:
45,377,111183,2,0,P|38:335|34:301,1,65,10|0,2:2|1:1,0:0:0:0:
119,201,111656,5,0,1:1:0:0:
234,310,111892,1,0,1:1:0:0:
324,192,112128,2,0,P|321:146|316:115,1,65,10|0,2:2|1:1,0:0:0:0:
251,15,112600,6,0,P|254:61|259:91,1,65,2|0,1:2|3:3,0:0:0:0:
397,132,113073,1,8,2:2:0:0:
414,132,113191,1,8,2:2:0:0:
431,131,113309,1,8,2:2:0:0:
448,129,113427,1,8,2:2:0:0:
466,126,113545,6,0,P|463:70|461:46,1,65,6|2,1:2|1:2,0:0:0:0:
393,138,114018,2,0,P|396:194|398:215,1,65,2|0,2:2|1:1,0:0:0:0:
444,282,114490,2,0,P|490:282|513:277,1,65,10|0,2:2|1:1,0:0:0:0:
397,199,114963,1,2,2:2:0:0:
319,201,115199,2,0,P|277:200|252:205,2,65,0|0|0,1:1|1:1|1:1,0:0:0:0:
365,270,115908,1,2,2:2:0:0:
331,344,116144,1,0,1:1:0:0:
331,344,116262,1,0,1:1:0:0:
331,344,116380,2,0,P|283:347|248:354,1,65,10|0,2:2|1:1,0:0:0:0:
149,278,116852,2,0,P|197:275|232:268,1,65,2|0,2:2|1:1,0:0:0:0:
263,189,117325,6,0,P|270:131|271:113,1,65,6|0,1:2|1:1,0:0:0:0:
98,15,117797,2,0,P|91:73|90:95,1,65,2|0,2:2|1:1,0:0:0:0:
175,144,118270,1,10,2:2:0:0:
175,144,118506,1,0,1:1:0:0:
270,124,118742,2,0,P|277:66|277:47,1,65,2|0,2:2|1:1,0:0:0:0:
366,15,119215,5,2,1:2:0:0:
428,66,119451,1,0,1:1:0:0:
502,47,119687,1,0,0:0:0:0:
409,142,119923,1,0,1:1:0:0:
409,142,120041,1,0,1:1:0:0:
409,142,120160,2,0,P|397:190|392:222,1,65,10|0,2:2|1:1,0:0:0:0:
406,327,120632,1,8,2:2:0:0:
422,334,120750,1,8,2:2:0:0:
438,339,120868,1,2,1:2:0:0:
455,343,120986,1,0,1:1:0:0:
474,345,121104,6,0,P|481:302|492:198,1,130,14|8,2:2|2:2,0:0:0:0:
411,135,121813,1,2,1:2:0:0:
277,160,122049,6,0,P|270:203|259:303,1,130,14|8,2:2|2:2,0:0:0:0:
340,370,122758,1,0,1:1:0:0:
404,261,122994,6,0,P|341:243|319:241,1,65,14|0,2:2|1:1,0:0:0:0:
260,288,123467,1,8,2:2:0:0:
167,250,123703,1,2,1:2:0:0:
23,266,123939,6,0,P|86:284|112:284,1,65,14|0,2:2|1:1,0:0:0:0:
209,169,124411,1,8,2:2:0:0:
167,250,124648,1,2,1:2:0:0:
103,183,124884,6,0,P|94:127|94:108,1,65,6|0,1:2|1:1,0:0:0:0:
209,169,125356,1,10,2:2:0:0:
297,95,125593,1,0,1:1:0:0:
386,185,125829,2,0,P|382:214|372:253,1,65,2|0,1:2|1:1,0:0:0:0:
297,95,126301,2,0,P|301:66|311:27,1,65,10|0,2:2|1:1,0:0:0:0:
497,135,126774,5,14,2:2:0:0:
386,185,127010,1,0,1:1:0:0:
413,39,127246,1,12,2:2:0:0:
297,95,127482,1,0,1:1:0:0:
386,185,127719,1,8,2:2:0:0:
468,280,127955,1,8,2:3:0:0:
468,280,128073,1,8,2:3:0:0:
468,280,128191,2,0,P|465:308|461:326,3,32.5,8|8|4|4,2:3|2:3|2:3|2:3,0:0:0:0:
426,335,128663,1,6,1:2:0:0:
32,57,143782,6,0,P|117:86|170:96,1,130,6|2,1:2|2:3,0:0:0:0:
359,153,144726,2,0,P|300:165|235:192,1,130,10|2,2:2|2:3,0:0:0:0:
179,243,145435,1,0,0:0:0:0:
259,281,145671,2,0,P|263:329|264:364,1,65,2|0,2:3|0:0,0:0:0:0:
179,243,146144,2,0,P|172:162|175:94,1,130,2|8,1:2|2:2,0:0:0:0:
328,246,146852,2,0,P|335:165|332:100,1,130,2|0,2:2|0:0,0:0:0:0:
184,41,147561,6,0,P|106:30|50:35,1,130,2|2,1:2|2:3,0:0:0:0:
333,116,148506,2,0,P|411:127|468:121,1,130,10|2,2:2|2:3,0:0:0:0:
266,18,149451,6,0,P|253:102|250:160,1,130,2|2,2:2|2:3,0:0:0:0:
274,216,150160,1,0,0:0:0:0:
185,368,150396,2,0,P|198:284|201:228,1,130,14|2,2:2|2:3,0:0:0:0:
76,1,151341,6,0,P|63:85|63:141,1,130,6|2,1:2|2:3,0:0:0:0:
126,192,152049,1,2,2:2:0:0:
214,147,152285,2,0,P|268:157|343:177,1,130,10|2,2:2|2:3,0:0:0:0:
426,203,152994,2,0,P|467:197|499:194,1,65,0|2,0:0|2:3,0:0:0:0:
358,256,153467,1,0,0:0:0:0:
410,374,153703,2,0,P|414:331|421:303,1,65,2|0,1:2|0:0,0:0:0:0:
324,174,154175,1,8,2:2:0:0:
254,304,154411,2,0,P|187:320|124:325,1,130,2|2,1:2|3:2,0:0:0:0:
111,313,155002,1,8,2:2:0:0:
96,302,155120,5,2,1:2:0:0:
52,185,155356,1,2,1:2:0:0:
140,90,155593,2,0,P|149:46|154:17,1,65,10|0,2:2|1:1,0:0:0:0:
35,87,156065,1,2,1:2:0:0:
127,167,156301,1,2,1:2:0:0:
245,133,156537,2,0,P|300:146|331:153,1,65,10|0,2:2|1:1,0:0:0:0:
496,198,157010,5,2,1:2:0:0:
383,225,157246,1,8,2:2:0:0:
383,225,157364,1,8,2:2:0:0:
383,225,157482,2,0,P|389:194|391:180,3,32.5,10|8|8|8,2:2|2:2|2:2|2:2,0:0:0:0:
403,145,157955,1,10,2:2:0:0:
362,297,158427,1,2,2:3:0:0:
206,177,158900,5,6,1:2:0:0:
108,220,159136,1,2,1:2:0:0:
52,117,159372,1,8,2:2:0:0:
133,78,159608,6,0,P|138:129|139:153,2,65,2|2|0,1:2|1:2|1:1,0:0:0:0:
42,126,160317,5,10,2:2:0:0:
108,228,160553,1,2,1:2:0:0:
26,311,160789,1,0,1:2:0:0:
173,336,161026,6,0,P|214:332|241:324,1,65,2|10,1:2|2:2,0:0:0:0:
104,304,161498,1,0,1:1:0:0:
168,232,161734,6,0,P|182:192|193:154,1,65,2|2,1:2|1:2,0:0:0:0:
163,145,162089,1,2,2:2:0:0:
163,145,162207,2,0,P|128:132|91:126,1,65,10|2,2:2|1:2,0:0:0:0:
233,111,162679,5,6,1:2:0:0:
275,216,162915,1,2,1:2:0:0:
311,90,163152,1,8,2:2:0:0:
373,209,163388,6,0,P|375:176|373:144,2,65,2|2|0,1:2|1:2|1:1,0:0:0:0:
233,111,164097,5,10,2:2:0:0:
233,111,164333,1,2,1:2:0:0:
393,67,164569,5,0,1:1:0:0:
294,166,164805,1,2,1:2:0:0:
254,38,165041,2,0,P|204:30|173:20,1,65,10|0,2:2|1:1,0:0:0:0:
294,166,165514,5,2,1:2:0:0:
331,20,165750,1,10,2:2:0:0:
374,145,165986,1,10,2:2:0:0:
312,93,166222,1,2,1:2:0:0:
353,227,166459,6,0,P|395:240|425:242,1,65,6|0,1:2|1:1,0:0:0:0:
500,192,166931,1,8,2:2:0:0:
353,227,167167,6,0,P|302:237|265:250,1,65,2|0,1:2|1:1,0:0:0:0:
457,338,167640,1,0,1:1:0:0:
343,365,167876,2,0,P|261:352|205:330,1,130,10|0,2:2|1:1,0:0:0:0:
31,210,168585,2,0,P|113:223|169:246,1,130,2|0,1:2|1:1,0:0:0:0:
146,378,169293,2,0,P|142:327|144:294,1,65,2|0,1:2|1:1,0:0:0:0:
230,198,169766,2,0,P|235:250|234:277,1,65,10|0,2:2|1:1,0:0:0:0:
31,210,170238,6,0,P|26:121|29:70,1,130,6|8,1:2|2:2,0:0:0:0:
129,12,170947,1,2,1:2:0:0:
235,71,171183,2,0,P|324:66|348:57,2,97.5,2|2|2,1:2|2:2|1:2,0:0:0:0:
394,127,172128,6,0,P|443:140|466:143,1,65,6|0,1:2|1:1,0:0:0:0:
331,63,172600,1,10,2:2:0:0:
245,171,172837,1,0,1:1:0:0:
366,252,173073,2,0,P|414:250|463:242,1,97.5,2|8,1:2|2:2,0:0:0:0:
470,266,173545,1,10,2:2:0:0:
470,266,173663,1,8,2:2:0:0:
470,266,173782,2,0,P|472:296|476:318,1,32.5,8|8,2:2|2:2,0:0:0:0:
442,334,174018,6,0,P|407:340|361:335,1,65,6|0,1:2|1:1,0:0:0:0:
241,243,174490,1,10,2:2:0:0:
94,307,174726,2,0,P|90:355|86:382,1,65,0|2,1:1|1:2,0:0:0:0:
182,296,175199,1,0,1:1:0:0:
68,223,175435,2,0,P|19:230|1:235,1,65,10|0,2:2|1:1,0:0:0:0:
241,243,175908,6,0,P|246:198|251:169,1,65,2|0,1:2|1:1,0:0:0:0:
316,44,176380,1,10,2:2:0:0:
184,110,176616,1,0,1:1:0:0:
331,130,176852,2,0,P|370:138|404:146,1,65,2|0,1:2|1:1,0:0:0:0:
220,30,177325,2,0,P|181:22|145:15,1,65,10|0,2:2|1:1,0:0:0:0:
21,90,177797,6,0,P|23:187|28:235,1,130,6|10,1:2|2:2,0:0:0:0:
118,272,178506,1,0,1:1:0:0:
208,204,178742,1,2,1:2:0:0:
108,153,178978,1,0,1:1:0:0:
198,295,179215,2,0,P|244:288|276:280,1,65,10|0,2:2|1:1,0:0:0:0:
347,265,179687,5,2,1:2:0:0:
287,176,179923,1,0,1:1:0:0:
322,359,180160,1,8,2:2:0:0:
451,231,180396,1,2,1:2:0:0:
383,163,180632,5,2,1:2:0:0:
383,163,180868,1,8,2:2:0:0:
287,176,181104,2,0,P|281:146|276:108,1,65,10|0,2:2|1:1,0:0:0:0:
365,35,181577,6,0,P|419:26|453:24,1,65,6|0,1:2|1:1,0:0:0:0:
161,64,182049,2,0,P|131:67|97:73,1,65,10|0,2:2|1:1,0:0:0:0:
286,180,182522,1,2,1:2:0:0:
260,3,182758,1,0,1:1:0:0:
194,141,182994,2,0,P|198:194|202:220,1,65,10|0,2:2|1:1,0:0:0:0:
280,280,183467,1,0,1:1:0:0:
372,217,183703,1,0,1:1:0:0:
449,299,183939,6,0,P|496:294|516:288,1,65,10|0,2:2|1:1,0:0:0:0:
372,217,184411,2,0,P|369:324|376:354,1,130,2|10,1:2|2:2,0:0:0:0:
488,193,185120,1,0,1:1:0:0:
420,110,185356,6,0,P|375:113|352:120,1,65,6|0,1:2|1:1,0:0:0:0:
258,190,185829,1,8,2:2:0:0:
144,122,186065,1,0,1:1:0:0:
56,205,186301,2,0,P|55:248|58:282,1,65,6|0,1:2|1:1,0:0:0:0:
223,114,186774,1,8,2:2:0:0:
56,30,187010,1,0,1:1:0:0:
169,195,187246,6,0,P|173:252|172:280,1,65,14|4,2:2|1:3,0:0:0:0:
242,376,187719,2,0,P|242:343|245:311,1,65,4|4,1:3|1:3,0:0:0:0:
356,177,188191,5,10,2:2:0:0:
492,203,188427,1,0,1:1:0:0:
463,339,188663,1,8,2:2:0:0:
328,314,188900,1,0,1:1:0:0:
369,182,189136,6,0,P|369:159|373:136,3,32.5,10|8|0|0,2:2|2:3|1:1|1:1,0:0:0:0:
414,125,189608,1,4,2:3:0:0:
414,125,189726,1,4,2:3:0:0:
414,125,189845,2,0,P|416:94|415:76,1,32.5,0|0,1:1|1:1,0:0:0:0:
413,64,190081,6,0,P|353:66|281:61,1,130,14|2,2:2|2:3,0:0:0:0:
108,81,191026,2,0,P|111:173|107:214,1,130,2|2,2:3|2:3,0:0:0:0:
197,20,191971,1,14,2:2:0:0:
197,20,192443,1,2,2:3:0:0:
311,141,192915,6,0,P|422:173|508:181,1,195,6|0,1:2|0:0,0:0:0:0:
250,204,193860,2,0,P|168:223|117:224,1,130,14|2,2:2|2:3,0:0:0:0:
217,300,194569,5,0,0:0:0:0:
285,371,194805,1,2,2:3:0:0:
250,204,195041,1,0,0:0:0:0:
217,300,195278,1,2,2:3:0:0:
318,280,195514,1,0,1:1:0:0:
421,268,195750,6,0,P|434:227|439:193,1,65,14|8,2:2|2:3,0:0:0:0:
430,193,196104,1,8,2:3:0:0:
413,185,196222,1,8,2:3:0:0:
395,180,196341,1,8,2:3:0:0:
377,174,196459,2,0,P|352:167|321:165,1,32.5,4|4,2:3|2:3,0:0:0:0:
307,188,196695,6,0,P|265:198|220:199,1,65,6|0,1:2|1:1,0:0:0:0:
100,230,197167,1,10,2:2:0:0:
11,130,197404,1,0,1:1:0:0:
128,85,197640,2,0,P|116:131|113:160,1,65,2|0,1:2|1:1,0:0:0:0:
86,313,198112,1,10,2:2:0:0:
15,217,198348,1,0,1:1:0:0:
184,244,198585,6,0,P|265:263|320:286,1,130,2|8,1:2|2:2,0:0:0:0:
111,141,199293,1,0,1:1:0:0:
229,28,199530,2,0,P|195:38|164:42,1,65,2|0,1:2|1:1,0:0:0:0:
344,120,200002,2,0,P|378:130|411:135,1,65,10|0,2:2|1:1,0:0:0:0:
315,8,200474,5,2,1:2:0:0:
315,8,200711,1,2,1:2:0:0:
249,142,200947,2,0,P|255:184|257:222,1,65,10|0,2:2|1:1,0:0:0:0:
326,103,201419,1,2,1:2:0:0:
225,7,201656,1,0,1:1:0:0:
165,125,201892,1,10,2:2:0:0:
256,201,202128,1,0,1:1:0:0:
256,201,202246,1,0,1:1:0:0:
256,201,202364,6,0,P|288:211|313:214,2,43.3333333333333,10|8|8,2:2|2:2|2:2,0:0:0:0:
177,255,202837,2,0,P|145:265|115:271,2,43.3333333333333,8|8|8,2:2|2:2|2:2,0:0:0:0:
244,311,203309,2,0,P|246:351|247:373,2,43.3333333333333,8|8|8,2:3|2:3|2:3,0:0:0:0:
313,270,203782,2,0,P|315:230|315:207,2,43.3333333333333,4|4|4,2:3|2:3|2:3,0:0:0:0:
383,364,204254,6,0,P|405:214|431:109,1,260,10|0,2:2|0:0,0:0:0:0:
