osu file format v14

[General]
AudioFilename: audio.ogg
AudioLeadIn: 0
PreviewTime: 51656
Countdown: 0
SampleSet: Soft
StackLeniency: 0.7
Mode: 0
LetterboxInBreaks: 0
WidescreenStoryboard: 1

[Editor]
DistanceSpacing: 1
BeatDivisor: 4
GridSize: 16
TimelineZoom: 1

[Metadata]
Title:Props & Mayhem
TitleUnicode:Props & Mayhem
Artist:Pierce The Veil
ArtistUnicode:Pierce The Veil
Creator:dopaminos
Version:Easy
Source:
Tags:english rock collide with the sky midorijeon quantumvortex mineralwater1 post hardcore punk
BeatmapID:4258654
BeatmapSetID:2040338

[Difficulty]
HPDrainRate:2
CircleSize:2.5
OverallDifficulty:2
ApproachRate:3
SliderMultiplier:1.1
SliderTickRate:1

[Events]
//Background and Video events
0,0,"bg.jpg",0,0
//Break Periods
2,45714,51633
2,68391,81397
2,98627,100767
2,128863,142342
//Storyboard Layer 0 (Background)
//Storyboard Layer 1 (Fail)
//Storyboard Layer 2 (Pass)
//Storyboard Layer 3 (Foreground)
//Storyboard Layer 4 (Overlay)
//Storyboard Sound Samples

[TimingPoints]
160,472.44094488189,4,2,0,40,1,0
3939,-100,4,2,0,75,0,0
15278,-100,4,2,0,60,0,0
30396,-100,4,2,0,70,0,0
45514,-100,4,2,0,50,0,0
51183,-100,4,2,0,65,0,0
53073,-100,4,2,0,80,0,0
68191,-100,4,2,0,65,0,0
83309,-100,4,2,0,75,0,0
90868,-100,4,2,0,60,0,0
94648,-100,4,2,0,70,0,0
98427,-100,4,2,0,50,0,0
102207,-100,4,2,0,80,0,0
113545,-100,4,2,0,70,0,0
128663,-100,4,2,0,50,0,0
143782,-100,4,2,0,60,0,0
155120,-100,4,2,0,70,0,0
158900,-100,4,2,0,75,0,0
174018,-100,4,2,0,80,0,0
189136,-100,4,2,0,65,0,0
196695,-100,4,2,0,80,0,0

[Colours]
Combo1 : 211,228,92
Combo2 : 238,194,81
Combo3 : 149,231,67
Combo4 : 233,131,82

[HitObjects]
161,56,13860,5,10,2:2:0:0:
257,108,14333,1,10,1:2:0:0:
353,56,14805,1,10,1:2:0:0:
424,139,15278,2,0,P|419:250|428:362,1,220,6|0,1:2|1:1,0:0:0:0:
327,312,16695,5,10,2:2:0:0:
327,312,16931,1,2,2:2:0:0:
234,369,17404,1,2,1:2:0:0:
234,369,17640,1,10,2:2:0:0:
140,311,18112,2,0,P|90:320|30:308,1,110,2|10,1:2|2:2,0:0:0:0:
0,200,19057,6,0,L|32:28,1,165,2|2,1:2|2:2,0:0:0:0:
138,6,20238,1,2,2:2:0:0:
228,69,20711,2,0,P|291:55|397:69,1,165,2|10,2:2|2:2,0:0:0:0:
428,105,21656,1,2,2:2:0:0:
362,194,22128,1,2,2:2:0:0:
362,194,22364,1,8,2:2:0:0:
436,274,22837,5,6,1:2:0:0:
352,345,23309,1,10,2:2:0:0:
352,345,23545,1,10,2:2:0:0:
254,294,24018,1,2,1:2:0:0:
152,336,24490,1,2,1:2:0:0:
79,252,24963,1,2,1:2:0:0:
163,181,25435,2,0,P|157:126|160:71,1,110,10|2,2:2|1:2,0:0:0:0:
199,32,26144,1,10,2:2:0:0:
293,87,26616,6,0,B|286:178|286:178|274:200|274:200|264:303,1,220,6|10,1:2|2:2,0:0:0:0:
50,358,28506,1,10,1:2:0:0:
28,250,28978,1,10,1:2:0:0:
105,172,29451,1,10,2:2:0:0:
212,196,29923,1,8,2:3:0:0:
239,307,30396,5,6,1:2:0:0:
239,307,30632,1,2,1:2:0:0:
338,354,31104,1,2,1:2:0:0:
439,311,31577,1,2,1:2:0:0:
361,232,32049,2,0,P|356:149|363:67,1,165,2|10,1:2|2:2,0:0:0:0:
324,28,32994,1,2,1:2:0:0:
218,59,33467,1,2,1:2:0:0:
218,59,33703,1,8,2:2:0:0:
109,39,34175,6,0,P|104:93|109:150,1,110,2|10,1:2|2:2,0:0:0:0:
138,195,34884,1,2,1:2:0:0:
69,280,35356,1,2,1:2:0:0:
160,341,35829,2,0,P|202:330|319:370,1,165,2|10,1:2|2:2,0:0:0:0:
369,365,36774,1,2,1:2:0:0:
432,275,37246,1,10,2:2:0:0:
432,275,37482,1,12,2:2:0:0:
323,256,37955,6,0,B|217:283|217:283|106:256,1,220,6|10,1:2|2:2,0:0:0:0:
109,36,39845,2,0,B|214:9|214:9|325:35,1,220,2|10,1:2|2:2,0:0:0:0:
477,191,41734,5,6,1:2:0:0:
372,224,42207,1,0,0:0:0:0:
291,149,42679,2,0,P|248:153|179:146,1,110,10|0,2:2|0:0,0:0:0:0:
83,196,43624,1,14,2:2:0:0:
11,270,44097,1,14,2:2:0:0:
46,369,44569,1,10,2:2:0:0:
156,358,45041,1,6,2:3:0:0:
175,249,45514,5,6,1:2:0:0:
255,191,53073,6,0,P|200:199|145:192,1,110,6|8,1:2|2:2,0:0:0:0:
68,114,54018,1,2,1:2:0:0:
68,114,54254,1,0,1:1:0:0:
68,114,54490,1,8,2:2:0:0:
149,40,54963,1,2,1:2:0:0:
251,78,55435,1,10,2:2:0:0:
342,17,55908,2,0,P|408:30|458:31,1,110,2|10,1:2|2:2,0:0:0:0:
505,126,56852,6,0,P|510:189|510:252,1,110,6|8,1:2|2:2,0:0:0:0:
422,298,57797,1,2,1:2:0:0:
422,298,58034,1,0,1:1:0:0:
422,298,58270,1,8,2:2:0:0:
326,243,58742,2,0,P|268:248|215:239,1,110,2|10,1:2|2:2,0:0:0:0:
135,165,59687,1,2,1:2:0:0:
59,245,60160,1,10,2:2:0:0:
143,315,60632,6,0,P|207:325|258:324,1,110,6|10,1:2|2:2,0:0:0:0:
356,360,61577,1,2,1:2:0:0:
433,282,62049,2,0,P|427:224|438:44,1,220,10|10,2:2|2:2,0:0:0:0:
341,4,63467,1,2,1:2:0:0:
258,76,63939,1,8,2:2:0:0:
150,54,64411,6,0,P|150:111|157:169,1,110,6|10,1:2|2:2,0:0:0:0:
245,227,65356,1,2,1:2:0:0:
245,336,65829,2,0,P|143:374|43:337,1,220,10|10,2:2|2:2,0:0:0:0:
96,240,67246,2,0,P|92:180|96:119,1,110,2|8,1:2|2:3,0:0:0:0:
21,48,68191,5,6,1:2:0:0:
38,190,82837,5,10,2:1:0:0:
115,112,83309,2,0,B|220:143|220:143|326:110,1,220,6|8,1:1|2:1,0:0:0:0:
507,234,85199,1,2,1:1:0:0:
507,234,85435,1,2,1:1:0:0:
429,311,85908,1,2,1:1:0:0:
429,311,86144,2,0,P|361:331|264:273,1,165,14|14,2:1|2:1,0:0:0:0:
239,255,87089,6,0,L|0:292,1,220,6|8,1:1|2:1,0:0:0:0:
24,68,88978,1,2,1:1:0:0:
24,68,89215,1,2,1:1:0:0:
131,92,89687,1,2,1:2:0:0:
131,92,89923,1,14,2:2:0:0:
212,28,90396,1,10,2:2:0:0:
273,121,90868,6,0,P|339:125|442:114,2,165,6|2|8,1:2|3:2|2:2,0:0:0:0:
233,160,92522,1,2,3:2:0:0:
233,269,92994,1,2,1:2:0:0:
155,346,93467,1,2,3:2:0:0:
155,346,93703,2,0,P|100:352|45:349,1,110,2|8,3:2|2:2,0:0:0:0:
47,239,94648,6,0,L|47:128,1,110,6|8,1:2|2:2,0:0:0:0:
157,129,95593,2,0,L|157:240,1,110,2|8,1:2|2:2,0:0:0:0:
256,284,96537,2,0,P|338:286|481:280,1,220,10|2,2:2|2:2,0:0:0:0:
448,173,97955,1,10,2:2:0:0:
505,79,98427,5,6,1:2:0:0:
505,79,102207,6,0,P|466:79|376:69,1,110,6|8,1:2|2:2,0:0:0:0:
299,18,103152,1,2,1:2:0:0:
299,18,103388,1,0,1:1:0:0:
299,18,103624,1,8,2:2:0:0:
224,99,104097,2,0,P|228:164|223:214,1,110,2|10,1:2|2:2,0:0:0:0:
126,260,105041,1,2,1:2:0:0:
32,201,105514,1,10,2:2:0:0:
84,104,105986,6,0,P|147:106|199:102,1,110,6|10,1:2|2:2,0:0:0:0:
290,50,106931,1,2,1:2:0:0:
363,132,107404,2,0,P|359:213|373:374,1,220,10|10,2:2|2:2,0:0:0:0:
476,378,108821,1,2,1:2:0:0:
503,271,109293,1,8,2:2:0:0:
452,172,109766,6,0,P|450:117|457:62,1,110,6|10,1:2|2:2,0:0:0:0:
363,4,110711,1,2,1:2:0:0:
311,100,111183,2,0,P|223:129|112:75,1,220,10|10,2:2|2:2,0:0:0:0:
25,9,112600,1,2,1:2:0:0:
3,117,113073,1,8,2:2:0:0:
69,204,113545,6,0,P|71:266|68:318,1,110,6|2,1:2|2:2,0:0:0:0:
166,364,114490,1,10,2:2:0:0:
264,315,114963,2,0,P|259:222|262:80,1,220,2|2,2:2|2:2,0:0:0:0:
344,23,116380,1,10,2:2:0:0:
434,85,116852,1,2,2:2:0:0:
345,150,117325,6,0,P|350:232|341:385,1,220,6|10,1:2|2:2,0:0:0:0:
246,316,118742,1,2,2:2:0:0:
150,370,119215,2,0,P|92:377|36:369,1,110,2|0,1:2|0:0,0:0:0:0:
19,263,120160,1,10,2:2:0:0:
108,199,120632,1,8,2:2:0:0:
193,267,121104,5,14,2:2:0:0:
298,297,121577,1,8,2:2:0:0:
402,261,122049,2,0,P|398:206|401:151,1,110,14|8,2:2|2:2,0:0:0:0:
316,81,122994,1,14,2:2:0:0:
220,135,123467,1,8,2:2:0:0:
114,104,123939,2,0,P|116:158|113:213,1,110,14|8,2:2|2:2,0:0:0:0:
197,285,124884,5,6,1:2:0:0:
274,207,125356,1,10,2:2:0:0:
351,284,125829,1,2,1:2:0:0:
273,361,126301,1,10,2:2:0:0:
197,285,126774,2,0,P|139:291|84:279,1,110,14|12,2:2|2:2,0:0:0:0:
32,186,127719,1,8,2:2:0:0:
111,110,128191,1,8,2:3:0:0:
33,32,128663,5,6,1:2:0:0:
70,66,143782,6,0,P|150:77|297:52,1,220,6|10,1:2|2:2,0:0:0:0:
379,115,145199,2,0,P|382:171|388:224,1,110,2|2,2:3|2:3,0:0:0:0:
428,326,146144,2,0,P|355:329|302:337,1,110,2|8,1:2|2:2,0:0:0:0:
264,344,146852,1,2,2:2:0:0:
190,196,147561,6,0,P|106:264|-1:273,1,220,2|10,1:2|2:2,0:0:0:0:
2,163,148978,1,2,2:3:0:0:
62,71,149451,2,0,P|118:78|172:66,1,110,2|2,2:2|2:3,0:0:0:0:
269,113,150396,1,14,2:2:0:0:
271,333,151341,6,0,B|374:369|374:369|477:327,1,220,6|10,1:2|2:2,0:0:0:0:
504,220,152758,1,2,2:3:0:0:
426,142,153230,2,0,P|373:129|324:152,1,110,2|2,2:3|1:2,0:0:0:0:
217,179,154175,2,0,P|162:186|108:179,1,110,8|2,2:2|2:3,0:0:0:0:
105,69,155120,6,0,P|159:62|214:69,1,110,2|10,1:2|2:2,0:0:0:0:
314,22,156065,1,2,1:2:0:0:
395,95,156537,1,10,2:2:0:0:
361,200,157010,2,0,P|358:246|359:313,1,110,2|10,1:2|2:2,0:0:0:0:
256,350,157955,1,10,2:2:0:0:
256,350,158900,6,0,P|202:359|145:353,1,110,6|8,1:2|2:2,0:0:0:0:
76,268,159845,1,2,1:2:0:0:
138,177,160317,1,10,2:2:0:0:
67,93,160789,2,0,P|91:44|158:24,1,110,0|10,1:1|2:2,0:0:0:0:
245,53,161734,1,2,1:2:0:0:
245,53,161971,1,2,1:2:0:0:
245,53,162207,1,10,2:2:0:0:
350,23,162679,6,0,P|399:45|423:93,1,110,6|8,1:2|2:2,0:0:0:0:
356,181,163624,1,2,1:2:0:0:
420,270,164097,1,10,2:2:0:0:
335,340,164569,1,0,1:1:0:0:
335,340,164805,1,2,1:2:0:0:
335,340,165041,1,10,2:2:0:0:
256,263,165514,2,0,P|253:208|256:153,1,110,2|10,1:2|2:2,0:0:0:0:
174,79,166459,6,0,P|99:118|4:107,2,165,6|2|10,1:2|1:2|2:2,0:0:0:0:
252,1,168348,2,0,P|336:60|449:51,1,220,0|2,1:1|1:2,0:0:0:0:
491,152,169766,1,10,2:2:0:0:
418,235,170238,6,0,P|340:245|293:236,1,110,6|8,1:2|2:2,0:0:0:0:
220,175,171183,1,2,1:2:0:0:
154,263,171656,1,8,2:2:0:0:
240,330,172128,2,0,P|285:326|353:331,1,110,6|10,1:2|2:2,0:0:0:0:
453,366,173073,1,2,1:2:0:0:
481,259,173545,1,10,2:2:0:0:
405,179,174018,6,0,P|407:124|400:70,1,110,6|10,1:2|2:2,0:0:0:0:
301,19,174963,1,2,1:2:0:0:
212,84,175435,1,10,2:2:0:0:
102,74,175908,2,0,L|115:193,1,110,2|10,1:2|2:2,0:0:0:0:
197,254,176852,1,2,1:2:0:0:
298,211,177325,1,10,2:2:0:0:
398,255,177797,6,0,P|399:307|395:369,1,110,6|10,1:2|2:2,0:0:0:0:
289,333,178742,1,2,1:2:0:0:
184,367,179215,1,10,2:2:0:0:
85,318,179687,2,0,B|81:271|85:207,1,110,2|8,1:2|2:2,0:0:0:0:
9,127,180632,1,2,1:2:0:0:
93,56,181104,1,10,2:2:0:0:
166,137,181577,6,0,P|213:122|276:112,1,110,6|10,1:2|2:2,0:0:0:0:
357,42,182522,1,2,1:2:0:0:
431,122,182994,2,0,P|437:232|433:342,1,220,10|10,2:2|2:2,0:0:0:0:
325,368,184411,1,2,1:2:0:0:
238,299,184884,5,10,2:2:0:0:
238,299,185120,1,0,1:1:0:0:
238,299,185356,1,6,1:2:0:0:
312,217,185829,1,8,2:2:0:0:
235,138,186301,2,0,P|190:144|117:139,1,110,6|8,1:2|2:2,0:0:0:0:
55,55,187246,5,14,2:2:0:0:
55,55,187482,1,4,1:3:0:0:
157,14,187955,1,4,1:3:0:0:
263,42,188427,1,0,1:1:0:0:
263,42,188663,1,8,2:2:0:0:
263,152,189136,2,0,P|262:205|265:342,1,165,10|0,2:2|1:1,0:0:0:0:
292,364,190081,5,14,2:2:0:0:
98,260,191971,5,14,2:2:0:0:
292,364,192915,6,0,P|354:305|440:304,1,165,6|0,1:2|0:0,0:0:0:0:
478,326,193860,5,14,2:2:0:0:
478,326,195750,5,14,2:2:0:0:
434,225,196222,1,8,2:3:0:0:
489,129,196695,2,0,P|494:74|487:13,1,110,6|10,1:2|2:2,0:0:0:0:
380,40,197640,1,2,1:2:0:0:
275,7,198112,1,10,2:2:0:0:
201,89,198585,2,0,P|198:144|199:199,1,110,2|8,1:2|2:2,0:0:0:0:
283,269,199530,1,2,1:2:0:0:
188,324,200002,1,10,2:2:0:0:
90,273,200474,6,0,P|85:217|89:164,1,110,2|10,1:2|2:2,0:0:0:0:
175,94,201419,1,2,1:2:0:0:
283,112,201892,1,10,2:2:0:0:
390,135,202364,2,0,P|376:209|406:354,2,220,10|8|10,2:2|2:3|2:2,0:0:0:0:
