osu file format v14

[General]
AudioFilename: audio.ogg
AudioLeadIn: 0
PreviewTime: 51656
Countdown: 0
SampleSet: Soft
StackLeniency: 0.7
Mode: 0
LetterboxInBreaks: 0
WidescreenStoryboard: 1

[Editor]
DistanceSpacing: 1
BeatDivisor: 4
GridSize: 16
TimelineZoom: 1

[Metadata]
Title:Props & Mayhem
TitleUnicode:Props & Mayhem
Artist:Pierce The Veil
ArtistUnicode:Pierce The Veil
Creator:dopaminos
Version:Another
Source:
Tags:english rock collide with the sky midorijeon quantumvortex mineralwater1 post hardcore punk
BeatmapID:4258248
BeatmapSetID:2040338

[Difficulty]
HPDrainRate:6
CircleSize:4
OverallDifficulty:8
ApproachRate:8
SliderMultiplier:1.4
SliderTickRate:1

[Events]
//Background and Video events
0,0,"bg.jpg",0,0
//Break Periods
2,45714,48307
2,98627,100512
2,128863,141850
//Storyboard Layer 0 (Background)
//Storyboard Layer 1 (Fail)
//Storyboard Layer 2 (Pass)
//Storyboard Layer 3 (Foreground)
//Storyboard Layer 4 (Overlay)
//Storyboard Sound Samples

[TimingPoints]
160,472.44094488189,4,2,0,40,1,0
3939,-100,4,2,0,75,0,0
15278,-100,4,2,0,60,0,0
30396,-100,4,2,0,70,0,0
45514,-100,4,2,0,50,0,0
51183,-100,4,2,0,65,0,0
53073,-100,4,2,0,80,0,0
68191,-100,4,2,0,65,0,0
83309,-100,4,2,0,75,0,0
90868,-100,4,2,0,60,0,0
94648,-100,4,2,0,70,0,0
98427,-100,4,2,0,50,0,0
102207,-100,4,2,0,80,0,0
113545,-100,4,2,0,70,0,0
128663,-100,4,2,0,50,0,0
143782,-100,4,2,0,60,0,0
155120,-100,4,2,0,70,0,0
158900,-100,4,2,0,75,0,0
174018,-100,4,2,0,80,0,0
189136,-100,4,2,0,65,0,0
196695,-100,4,2,0,80,0,0

[Colours]
Combo1 : 211,228,92
Combo2 : 238,194,81
Combo3 : 149,231,67
Combo4 : 233,131,82

[HitObjects]
48,101,3939,5,6,1:2:0:0:
148,51,4175,1,2,1:2:0:0:
244,175,4411,2,0,P|240:209|243:244,1,70,10|0,2:2|1:1,0:0:0:0:
48,250,4884,1,2,1:2:0:0:
148,300,5120,1,2,1:2:0:0:
244,175,5356,2,0,P|240:140|243:105,1,70,10|0,2:2|1:1,0:0:0:0:
352,16,5829,5,2,1:2:0:0:
439,32,6065,1,2,1:2:0:0:
421,120,6301,1,10,2:2:0:0:
333,103,6537,1,0,1:1:0:0:
144,16,6774,5,2,1:2:0:0:
57,32,7010,1,2,1:2:0:0:
75,120,7246,1,10,2:2:0:0:
163,103,7482,1,0,1:1:0:0:
251,270,7719,6,0,P|246:235|249:200,1,70,6|2,1:2|1:2,0:0:0:0:
163,103,8191,1,10,2:2:0:0:
353,148,8427,1,8,2:2:0:0:
133,92,8663,2,0,P|97:96|63:94,1,70,2|2,1:2|1:2,0:0:0:0:
8,241,9136,1,10,2:2:0:0:
90,199,9372,1,0,1:1:0:0:
192,295,9608,6,0,P|227:298|264:294,1,70,2|2,1:2|1:2,0:0:0:0:
412,200,10081,1,10,2:2:0:0:
456,383,10317,1,8,2:2:0:0:
407,179,10553,1,2,1:2:0:0:
297,220,10789,1,2,1:2:0:0:
201,175,11026,2,0,P|159:178|127:175,1,70,10|0,2:2|1:1,0:0:0:0:
43,36,11498,5,6,1:2:0:0:
43,36,11734,2,0,P|41:107|43:184,1,140,2|2,1:2|1:2,0:0:0:0:
240,243,12443,5,10,2:2:0:0:
240,243,12679,2,0,P|242:172|240:95,1,140,2|2,1:2|1:2,0:0:0:0:
109,264,13388,5,10,2:2:0:0:
109,264,13624,1,2,1:2:0:0:
262,334,13860,5,10,2:2:0:0:
262,334,14097,1,0,1:1:0:0:
257,51,14333,5,10,1:2:0:0:
142,208,14569,1,8,1:2:0:0:
326,147,14805,1,10,1:2:0:0:
142,88,15041,1,8,1:2:0:0:
257,246,15278,2,0,P|306:245|403:260,1,140,6|8,1:2|2:2,0:0:0:0:
461,317,15986,1,0,0:0:0:0:
461,317,16222,1,0,1:1:0:0:
371,358,16459,5,2,2:2:0:0:
256,304,16695,1,10,2:2:0:0:
156,337,16931,2,0,P|162:259|155:190,1,140,2|2,2:2|1:2,0:0:0:0:
216,128,17640,1,10,2:2:0:0:
151,63,17876,1,2,2:2:0:0:
86,127,18112,2,0,P|43:131|9:127,1,70,2|0,1:2|0:0,0:0:0:0:
160,43,18585,2,0,P|203:47|237:43,1,70,10|0,2:2|0:0,0:0:0:0:
334,185,19057,6,0,P|327:115|333:45,1,140,2|10,1:2|2:2,0:0:0:0:
404,12,19766,1,2,2:2:0:0:
404,12,20002,1,0,1:1:0:0:
491,56,20238,2,0,P|488:90|492:130,1,70,2|8,2:2|2:2,0:0:0:0:
421,193,20711,1,2,2:2:0:0:
266,142,20947,5,0,1:1:0:0:
191,181,21183,1,0,1:1:0:0:
121,133,21419,1,10,2:2:0:0:
40,230,21656,2,0,P|37:264|39:299,1,70,2|0,2:2|1:1,0:0:0:0:
157,345,22128,2,0,P|159:310|156:275,1,70,2|8,2:2|2:2,0:0:0:0:
119,208,22600,1,0,0:0:0:0:
255,109,22837,5,6,1:2:0:0:
176,50,23073,1,0,1:1:0:0:
317,11,23309,1,10,2:2:0:0:
382,142,23545,2,0,P|380:213|386:285,1,140,10|2,2:2|1:2,0:0:0:0:
257,354,24254,2,0,P|254:319|257:284,1,70,8|2,2:2|1:2,0:0:0:0:
149,184,24726,5,4,1:2:0:0:
220,140,24962,1,2,1:2:0:0:
97,58,25198,1,8,2:2:0:0:
15,179,25434,2,0,P|17:250|11:322,1,140,10|2,2:2|1:2,0:0:0:0:
91,375,26143,2,0,P|125:372|160:375,1,70,10|0,2:2|1:1,0:0:0:0:
257,219,26616,5,6,1:2:0:0:
257,219,26852,2,0,P|249:290|258:362,1,140,2|2,1:2|1:2,0:0:0:0:
457,161,27561,1,10,2:2:0:0:
457,161,27797,2,0,B|395:183|395:183|324:163,1,140,2|2,1:2|1:2,0:0:0:0:
145,37,28506,1,10,1:2:0:0:
14,247,28978,1,10,1:2:0:0:
224,378,29451,5,10,2:2:0:0:
251,356,29569,1,8,2:2:0:0:
285,351,29687,1,0,1:1:0:0:
318,362,29805,1,0,1:1:0:0:
347,381,29923,2,0,P|367:380|382:381,1,35,8|8,2:3|2:3,0:0:0:0:
445,291,30160,2,0,P|428:293|410:291,1,35,4|4,2:3|2:3,0:0:0:0:
277,191,30396,5,6,1:2:0:0:
191,239,30632,1,2,1:2:0:0:
104,192,30868,1,10,2:2:0:0:
273,83,31104,2,0,P|308:86|343:85,1,70,2|0,1:2|1:1,0:0:0:0:
417,149,31577,1,2,1:2:0:0:
364,286,31813,1,8,2:2:0:0:
433,355,32049,1,2,1:2:0:0:
264,316,32285,2,0,P|268:281|262:247,1,70,2|0,1:2|1:1,0:0:0:0:
148,132,32758,5,10,2:2:0:0:
69,201,32994,2,0,P|29:198|-9:202,1,70,2|0,1:2|1:1,0:0:0:0:
169,115,33467,1,2,1:2:0:0:
293,168,33703,2,0,P|290:128|294:90,1,70,8|0,2:2|1:1,0:0:0:0:
405,28,34175,5,2,1:2:0:0:
494,67,34411,1,0,1:1:0:0:
454,194,34648,1,10,2:2:0:0:
494,321,34884,2,0,P|452:320|422:323,1,70,2|0,1:2|1:1,0:0:0:0:
305,192,35356,2,0,P|347:193|377:190,1,70,2|8,1:2|2:2,0:0:0:0:
301,327,35829,1,2,1:2:0:0:
228,272,36065,2,0,L|156:281,1,70,2|0,1:2|1:1,0:0:0:0:
11,370,36537,5,10,2:2:0:0:
73,303,36774,2,0,P|70:260|72:228,1,70,2|0,1:2|1:1,0:0:0:0:
216,163,37246,1,10,2:2:0:0:
69,97,37482,1,12,2:2:0:0:
200,2,37719,1,0,1:1:0:0:
342,143,37955,5,6,1:2:0:0:
342,143,38191,2,0,P|331:79|339:0,1,140,0|0,1:1|1:1,0:0:0:0:
434,26,38900,2,0,L|504:13,1,70,10|0,2:2|1:1,0:0:0:0:
409,111,39372,2,0,L|477:123,1,70,2|0,2:2|1:1,0:0:0:0:
323,243,39845,5,2,1:2:0:0:
260,195,40081,2,0,P|271:131|263:52,1,140,0|0,1:1|1:1,0:0:0:0:
78,28,40790,2,0,L|147:16,1,70,10|0,2:2|1:1,0:0:0:0:
197,121,41262,2,0,L|128:108,1,70,0|0,0:0|1:1,0:0:0:0:
22,247,41734,5,6,1:2:0:0:
103,279,41970,1,2,1:2:0:0:
182,241,42207,1,0,0:0:0:0:
182,241,42443,1,2,1:2:0:0:
387,329,42679,5,10,2:2:0:0:
306,361,42915,1,2,1:2:0:0:
227,323,43152,1,0,0:0:0:0:
227,323,43388,1,2,1:2:0:0:
412,218,43624,5,14,2:2:0:0:
213,133,43860,1,2,1:2:0:0:
409,59,44097,1,14,2:2:0:0:
326,269,44333,1,0,1:1:0:0:
202,45,44569,5,10,2:2:0:0:
167,68,44687,1,8,2:2:0:0:
126,76,44805,1,2,1:2:0:0:
86,68,44923,1,0,1:1:0:0:
51,44,45041,5,6,2:3:0:0:
46,71,45159,1,4,2:3:0:0:
44,99,45277,1,0,1:1:0:0:
46,127,45395,1,0,1:1:0:0:
51,155,45514,5,6,1:2:0:0:
254,192,49057,5,0,1:1:0:0:
254,192,49293,1,2,1:2:0:0:
190,99,49766,1,0,1:1:0:0:
247,207,50238,1,2,1:2:0:0:
332,83,50711,5,0,1:1:0:0:
250,238,50947,1,0,0:0:0:0:
55,194,51183,1,10,2:2:0:0:
55,194,53073,5,6,1:2:0:0:
149,133,53309,1,0,1:1:0:0:
300,204,53545,2,0,P|301:169|298:134,1,70,8|0,2:2|1:1,0:0:0:0:
177,0,54018,1,2,1:2:0:0:
289,39,54254,1,0,1:1:0:0:
401,0,54490,1,8,2:2:0:0:
401,0,54726,1,0,1:1:0:0:
284,186,54963,6,0,P|214:176|145:186,1,140,2|10,1:2|2:2,0:0:0:0:
76,233,55671,1,0,1:1:0:0:
3,189,55908,2,0,P|0:152|3:113,1,70,2|0,1:2|1:1,0:0:0:0:
117,40,56380,1,10,2:2:0:0:
191,79,56616,1,0,1:1:0:0:
319,24,56852,5,6,1:2:0:0:
319,24,57089,1,0,1:1:0:0:
428,111,57325,2,0,P|425:147|429:182,1,70,8|0,2:2|1:1,0:0:0:0:
267,114,57797,1,2,1:2:0:0:
267,114,58034,1,0,1:1:0:0:
158,201,58270,2,0,P|161:237|158:275,1,70,8|0,2:2|1:1,0:0:0:0:
266,330,58742,1,2,1:2:0:0:
344,300,58978,1,0,1:1:0:0:
472,355,59215,6,0,P|472:319|478:281,1,70,10|0,2:2|1:1,0:0:0:0:
373,147,59687,2,0,P|373:185|369:219,1,70,2|0,1:2|1:1,0:0:0:0:
266,330,60160,2,0,P|229:327|190:330,1,70,10|0,2:2|1:1,0:0:0:0:
80,207,60632,5,6,1:2:0:0:
152,165,60868,1,0,1:1:0:0:
297,248,61104,1,10,2:2:0:0:
297,81,61341,1,8,2:2:0:0:
152,165,61577,2,0,P|154:213|152:239,1,70,2|0,1:2|1:1,0:0:0:0:
296,317,62049,2,0,P|294:282|296:247,1,70,10|0,2:2|1:1,0:0:0:0:
461,132,62522,5,0,1:1:0:0:
389,90,62758,1,0,1:1:0:0:
255,178,62994,1,10,2:2:0:0:
121,90,63230,1,8,2:2:0:0:
255,4,63467,2,0,P|253:52|255:78,1,70,2|0,1:2|1:1,0:0:0:0:
123,239,63939,2,0,P|125:204|123:169,1,70,8|0,2:2|1:1,0:0:0:0:
121,90,64411,5,6,1:2:0:0:
194,131,64648,1,0,1:1:0:0:
335,70,64884,2,0,P|378:74|409:71,1,70,10|0,2:2|1:1,0:0:0:0:
512,196,65356,1,2,1:2:0:0:
444,233,65593,1,0,1:1:0:0:
374,200,65829,2,0,P|331:204|300:201,1,70,10|0,2:2|1:1,0:0:0:0:
204,266,66301,5,0,1:1:0:0:
204,266,66537,1,0,1:1:0:0:
103,168,66774,2,0,P|106:127|104:94,1,70,10|0,2:2|1:1,0:0:0:0:
21,210,67246,1,2,1:2:0:0:
105,288,67482,1,8,2:3:0:0:
126,270,67600,1,8,2:3:0:0:
150,260,67718,1,8,2:3:0:0:
178,258,67836,1,8,2:3:0:0:
204,266,67955,2,0,P|203:286|205:306,1,35,4|4,2:3|2:3,0:0:0:0:
341,356,68191,5,6,1:2:0:0:
411,311,68427,1,2,3:2:0:0:
481,357,68663,1,10,1:2:0:0:
337,263,68900,1,2,3:2:0:0:
337,263,69018,2,0,P|341:221|337:187,1,70,8|0,2:2|3:3,0:0:0:0:
319,155,69372,1,2,1:2:0:0:
204,195,69608,1,10,2:2:0:0:
204,195,69726,1,8,2:2:0:0:
204,195,69845,1,2,3:2:0:0:
67,163,70081,6,0,P|64:201|69:237,1,70,2|0,1:2|1:1,0:0:0:0:
204,195,70553,1,10,2:2:0:0:
290,304,70789,1,2,3:2:0:0:
290,304,70908,2,0,P|335:292|371:295,1,70,8|0,2:2|3:3,0:0:0:0:
391,318,71262,1,2,1:2:0:0:
485,179,71498,1,10,2:2:0:0:
485,179,71616,1,8,2:2:0:0:
485,179,71734,1,0,3:3:0:0:
373,52,71971,5,2,1:2:0:0:
292,107,72207,1,0,1:1:0:0:
173,32,72443,1,10,2:2:0:0:
88,143,72679,1,2,3:2:0:0:
88,143,72797,2,0,P|89:178|88:214,1,70,8|0,2:2|3:3,0:0:0:0:
117,242,73152,1,2,1:2:0:0:
15,338,73388,1,8,2:2:0:0:
15,338,73506,1,8,2:2:0:0:
15,338,73624,1,2,3:2:0:0:
154,325,73860,5,2,1:2:0:0:
249,368,74097,1,0,1:1:0:0:
323,294,74333,1,10,2:2:0:0:
452,359,74569,1,2,3:2:0:0:
452,359,74687,2,0,P|446:310|448:286,1,70,8|0,2:2|3:3,0:0:0:0:
484,252,75041,1,2,1:2:0:0:
363,179,75278,1,8,2:2:0:0:
363,179,75396,1,8,2:2:0:0:
363,179,75514,1,0,3:3:0:0:
224,227,75750,5,6,1:2:0:0:
135,170,75986,1,2,1:2:0:0:
77,257,76222,1,10,2:2:0:0:
162,318,76459,1,2,3:2:0:0:
162,318,76577,2,0,P|211:323|240:318,1,70,8|0,2:2|3:3,0:0:0:0:
268,357,76931,1,2,1:2:0:0:
357,303,77167,1,10,2:2:0:0:
357,303,77285,1,8,2:2:0:0:
357,303,77404,1,2,3:2:0:0:
436,384,77640,6,0,P|470:380|505:382,1,70,2|2,1:2|1:2,0:0:0:0:
505,228,78112,2,0,P|470:229|435:226,1,70,10|0,2:2|3:3,0:0:0:0:
405,196,78467,1,8,2:2:0:0:
289,240,78703,1,0,3:3:0:0:
289,240,78821,1,0,1:1:0:0:
169,112,79057,5,10,2:2:0:0:
148,148,79175,1,8,2:2:0:0:
116,174,79293,1,0,3:3:0:0:
76,187,79411,1,0,3:3:0:0:
34,184,79529,5,6,1:2:0:0:
64,277,79766,1,2,1:2:0:0:
18,363,80002,2,0,P|61:366|90:371,1,70,8|2,2:2|1:2,0:0:0:0:
281,192,80474,5,0,1:1:0:0:
206,266,80711,1,2,1:2:0:0:
131,191,80947,1,10,2:2:0:0:
205,116,81184,1,2,1:2:0:0:
410,276,81419,5,10,2:2:0:0:
410,276,82837,5,10,2:1:0:0:
102,108,83309,5,6,1:1:0:0:
294,191,83545,2,0,P|290:121|293:51,1,140,2|0,1:1|0:0,0:0:0:0:
206,5,84254,1,8,2:1:0:0:
206,5,84963,1,2,2:2:0:0:
358,49,85199,5,2,1:1:0:0:
512,17,85435,2,0,P|508:86|509:156,1,140,2|2,1:1|1:1,0:0:0:0:
510,186,86026,1,0,1:1:0:0:
510,186,86144,1,14,2:1:0:0:
234,338,86498,1,14,2:1:0:0:
240,22,86852,1,14,2:1:0:0:
136,66,87089,5,6,1:1:0:0:
308,185,87325,2,0,P|362:177|452:184,1,140,2|0,1:1|0:0,0:0:0:0:
490,102,88034,1,8,2:1:0:0:
490,102,88742,5,2,1:1:0:0:
446,182,88978,1,2,1:1:0:0:
507,368,89215,2,0,P|505:315|507:226,1,140,2|2,1:1|1:2,0:0:0:0:
477,198,89805,1,0,1:1:0:0:
477,198,89923,1,14,2:2:0:0:
354,280,90160,2,0,P|336:280|319:281,1,35,0|0,0:0|3:3,0:0:0:0:
180,216,90396,1,10,2:2:0:0:
170,186,90514,1,8,2:3:0:0:
180,156,90632,2,0,P|197:155|219:155,1,35,4|4,2:3|2:3,0:0:0:0:
168,319,90868,6,0,P|133:312|96:319,1,70,6|0,1:2|3:3,0:0:0:0:
39,258,91341,1,10,1:2:0:0:
89,142,91577,1,2,3:2:0:0:
89,142,91695,2,0,P|85:107|88:70,1,70,8|0,2:2|3:3,0:0:0:0:
57,42,92049,1,2,1:2:0:0:
185,7,92285,1,8,2:2:0:0:
185,7,92404,1,8,2:2:0:0:
185,7,92522,1,2,3:2:0:0:
277,102,92758,5,8,1:2:0:0:
375,65,92994,1,2,1:2:0:0:
455,161,93230,1,8,1:2:0:0:
394,272,93467,1,2,3:2:0:0:
394,272,93585,2,0,P|429:274|461:289,1,70,8|0,2:2|3:3,0:0:0:0:
489,319,93939,1,0,1:1:0:0:
346,378,94175,5,8,2:2:0:0:
317,344,94293,1,8,2:2:0:0:
279,325,94411,1,10,2:2:0:0:
235,321,94529,1,8,2:2:0:0:
194,334,94648,5,6,1:2:0:0:
79,366,94884,1,0,1:1:0:0:
33,256,95120,2,0,P|32:223|36:182,1,70,8|0,2:2|1:1,0:0:0:0:
208,264,95593,5,2,1:2:0:0:
322,231,95829,1,0,1:1:0:0:
440,350,96065,2,0,P|440:315|437:280,1,70,8|0,2:2|1:1,0:0:0:0:
321,65,96537,5,10,2:2:0:0:
321,65,97955,6,0,P|273:65|209:46,1,105,10|0,2:2|0:0,0:0:0:0:
148,103,98427,1,6,1:2:0:0:
148,103,101262,6,0,P|94:107|-6:95,1,140,10|2,2:2|2:2,0:0:0:0:
192,316,102207,5,6,1:2:0:0:
192,316,102443,1,0,1:1:0:0:
283,191,102679,2,0,P|286:156|283:121,1,70,8|0,2:2|1:1,0:0:0:0:
388,234,103152,1,2,1:2:0:0:
322,281,103388,1,0,1:1:0:0:
436,382,103624,2,0,P|473:380|507:383,1,70,8|0,2:2|1:1,0:0:0:0:
322,281,104097,5,2,1:2:0:0:
240,322,104333,1,0,1:1:0:0:
160,277,104569,2,0,P|158:236|160:201,1,70,10|0,2:2|1:1,0:0:0:0:
327,120,105041,2,0,P|328:154|326:189,1,70,2|0,1:2|1:1,0:0:0:0:
162,119,105514,1,10,2:2:0:0:
71,171,105750,1,0,1:1:0:0:
199,247,105986,5,6,1:2:0:0:
199,247,106222,1,0,1:1:0:0:
380,192,106459,1,10,2:2:0:0:
340,379,106695,1,8,2:2:0:0:
202,251,106931,2,0,L|215:178,1,70,2|0,1:2|1:1,0:0:0:0:
305,40,107404,2,0,L|317:108,1,70,10|0,2:2|1:1,0:0:0:0:
189,63,107876,5,0,1:1:0:0:
189,63,108112,1,0,1:1:0:0:
27,130,108348,1,10,2:2:0:0:
166,237,108585,1,8,2:2:0:0:
273,159,108821,2,0,P|309:161|344:160,1,70,2|0,1:2|1:1,0:0:0:0:
407,299,109293,2,0,P|371:297|336:298,1,70,8|0,2:2|1:1,0:0:0:0:
202,222,109766,5,6,1:2:0:0:
202,222,110002,1,0,1:1:0:0:
102,365,110238,2,0,P|98:323|101:289,1,70,10|0,2:2|1:1,0:0:0:0:
9,197,110711,2,0,P|10:231|7:266,1,70,2|0,1:2|1:1,0:0:0:0:
141,144,111183,6,0,P|211:153|279:144,1,140,10|0,2:2|1:1,0:0:0:0:
367,86,111892,1,0,1:1:0:0:
423,174,112128,2,0,P|419:218|426:253,1,70,10|0,2:2|1:1,0:0:0:0:
343,311,112600,1,2,1:2:0:0:
160,192,112837,5,0,3:3:0:0:
136,228,112955,1,0,3:3:0:0:
128,270,113073,1,8,2:2:0:0:
137,313,113191,1,8,2:2:0:0:
161,348,113309,2,0,L|201:345,1,35,8|8,2:2|2:2,0:0:0:0:
369,209,113545,5,6,1:2:0:0:
369,209,113782,2,0,P|366:276|370:363,1,140,2|0,1:2|1:1,0:0:0:0:
497,157,114490,1,10,2:2:0:0:
421,107,114726,2,0,B|352:125|352:125|284:110,1,140,0|0,1:1|1:1,0:0:0:0:
225,64,115435,5,0,1:1:0:0:
225,64,115671,1,0,1:1:0:0:
358,211,116144,5,0,1:1:0:0:
358,211,116262,1,0,1:1:0:0:
358,211,116380,2,0,P|362:248|358:287,1,70,10|0,2:2|1:1,0:0:0:0:
257,354,116852,2,0,P|253:317|257:278,1,70,2|0,2:2|1:1,0:0:0:0:
171,88,117325,5,6,1:2:0:0:
123,294,117561,1,0,1:1:0:0:
283,155,117797,1,2,2:2:0:0:
72,174,118034,1,0,1:1:0:0:
255,283,118270,2,0,P|289:281|324:282,1,70,10|0,2:2|1:1,0:0:0:0:
352,153,118742,2,0,P|317:155|282:154,1,70,2|0,2:2|1:1,0:0:0:0:
465,294,119215,5,2,1:2:0:0:
504,219,119451,1,0,1:1:0:0:
426,185,119687,1,0,0:0:0:0:
400,265,119923,1,0,1:1:0:0:
400,265,120041,1,0,1:1:0:0:
400,265,120160,2,0,P|363:268|324:265,1,70,10|0,2:2|1:1,0:0:0:0:
219,95,120632,5,8,2:2:0:0:
235,135,120750,1,8,2:2:0:0:
241,178,120868,1,2,1:2:0:0:
236,222,120986,1,0,1:1:0:0:
221,263,121104,5,14,2:2:0:0:
42,189,121341,1,0,1:1:0:0:
144,322,121577,5,8,2:2:0:0:
118,129,121814,1,2,1:2:0:0:
290,263,122049,5,14,2:2:0:0:
470,189,122286,1,0,1:1:0:0:
367,322,122522,5,8,2:2:0:0:
393,129,122759,1,0,1:1:0:0:
54,285,122994,5,14,2:2:0:0:
208,166,123231,1,0,1:1:0:0:
41,188,123467,5,8,2:2:0:0:
221,263,123704,1,2,1:2:0:0:
118,129,123939,5,14,2:2:0:0:
144,322,124175,1,0,1:1:0:0:
394,129,124411,5,8,2:2:0:0:
368,322,124647,1,2,1:2:0:0:
255,97,124884,5,6,1:2:0:0:
255,97,125120,1,0,1:1:0:0:
185,176,125356,2,0,P|183:210|186:245,1,70,10|0,2:2|1:1,0:0:0:0:
306,343,125829,2,0,P|308:308|306:273,1,70,2|0,1:2|1:1,0:0:0:0:
416,165,126301,1,10,2:2:0:0:
347,115,126537,1,0,1:1:0:0:
402,312,126774,5,14,2:2:0:0:
489,121,127010,1,0,1:1:0:0:
326,269,127246,5,12,2:2:0:0:
360,61,127482,1,0,1:1:0:0:
189,113,127719,1,8,2:2:0:0:
45,32,127955,6,0,P|48:53|46:75,1,35,8|8,2:3|2:3,0:0:0:0:
188,147,128191,2,0,P|187:129|188:112,1,35,8|8,2:3|2:3,0:0:0:0:
48,274,128427,1,4,2:3:0:0:
85,283,128545,1,4,2:3:0:0:
122,274,128663,5,6,1:2:0:0:
152,314,142600,6,0,P|154:302|154:289,2,23.3333333333333,2|0|0,1:2|1:1|1:1,0:0:0:0:
227,363,142837,1,8,2:2:0:0:
353,320,143073,1,2,1:2:0:0:
353,320,143545,5,0,1:1:0:0:
353,320,143782,2,0,P|358:250|351:180,1,140,6|2,1:2|2:3,0:0:0:0:
410,132,144490,1,0,0:0:0:0:
509,191,144726,1,10,2:2:0:0:
509,191,145199,2,0,P|503:260|513:329,1,140,2|2,2:3|2:3,0:0:0:0:
512,329,146144,6,0,L|373:305,1,140,2|8,1:2|2:2,0:0:0:0:
253,136,146852,2,0,L|301:267,1,140,2|0,2:2|0:0,0:0:0:0:
168,366,147561,2,0,L|306:342,1,140,2|2,1:2|2:3,0:0:0:0:
371,300,148270,1,0,0:0:0:0:
512,329,148506,1,10,2:2:0:0:
512,329,149451,2,0,P|507:263|511:185,1,140,2|2,2:2|2:3,0:0:0:0:
455,134,150160,1,0,0:0:0:0:
312,192,150396,6,0,P|242:199|171:191,1,140,14|2,2:2|2:3,0:0:0:0:
118,137,151104,1,0,0:0:0:0:
5,242,151341,2,0,B|-8:313|-8:313|5:381,1,140,6|2,1:2|2:3,0:0:0:0:
78,357,152049,1,2,2:2:0:0:
229,382,152285,5,10,2:2:0:0:
229,382,153703,6,0,L|377:363,1,140,2|8,1:2|2:2,0:0:0:0:
418,277,154411,2,0,L|270:258,1,140,2|2,1:2|3:2,0:0:0:0:
241,250,155002,1,8,2:2:0:0:
241,250,155120,5,2,1:2:0:0:
120,325,155356,1,2,1:2:0:0:
14,188,155592,2,0,P|18:150|15:112,1,70,10|0,2:2|1:1,0:0:0:0:
186,184,156065,1,2,1:2:0:0:
296,142,156301,1,2,1:2:0:0:
401,266,156537,2,0,P|396:304|399:343,1,70,10|0,2:2|1:1,0:0:0:0:
502,194,157010,5,2,1:2:0:0:
403,95,157246,1,8,2:2:0:0:
365,116,157364,1,8,2:2:0:0:
322,126,157482,1,10,2:2:0:0:
279,121,157600,1,8,2:2:0:0:
239,103,157718,1,8,2:2:0:0:
207,74,157836,1,8,2:2:0:0:
184,37,157955,6,0,P|181:105|183:179,1,140,10|2,2:2|2:3,0:0:0:0:
182,176,158900,6,0,P|182:214|182:256,2,70,6|2|8,1:2|1:2|2:2,0:0:0:0:
343,25,159608,1,2,1:2:0:0:
401,110,159845,1,2,1:2:0:0:
409,214,160081,1,0,1:1:0:0:
358,305,160317,2,0,L|259:284,1,70,10|2,2:2|1:2,0:0:0:0:
131,178,160789,5,0,1:1:0:0:
303,134,161026,1,2,1:2:0:0:
232,351,161262,2,0,P|195:342|157:342,1,70,10|0,2:2|1:1,0:0:0:0:
68,247,161734,1,2,1:2:0:0:
58,213,161852,1,2,2:2:0:0:
55,178,161970,1,2,1:2:0:0:
59,143,162089,1,2,2:2:0:0:
72,110,162207,1,10,2:2:0:0:
8,30,162443,1,2,1:2:0:0:
162,5,162679,5,6,1:2:0:0:
274,160,162915,1,2,1:2:0:0:
407,122,163152,2,0,P|460:124|503:123,1,70,8|2,2:2|1:2,0:0:0:0:
286,254,163624,1,2,1:2:0:0:
145,162,163860,1,0,1:1:0:0:
286,357,164097,1,10,2:2:0:0:
429,264,164333,1,2,1:2:0:0:
351,81,164569,5,0,1:1:0:0:
286,254,164805,1,2,1:2:0:0:
286,254,164923,1,0,0:0:0:0:
286,254,165041,2,0,P|240:257|204:255,1,70,10|0,2:2|1:1,0:0:0:0:
140,332,165514,1,2,1:2:0:0:
258,91,165750,1,10,2:2:0:0:
25,217,165986,1,10,2:2:0:0:
286,254,166222,1,2,1:2:0:0:
95,57,166459,6,0,P|97:102|96:150,1,70,6|0,1:2|1:1,0:0:0:0:
224,18,166931,1,8,2:2:0:0:
339,115,167167,2,0,P|408:108|478:113,1,140,2|0,1:2|1:1,0:0:0:0:
332,300,167876,1,10,2:2:0:0:
252,247,168112,1,0,1:1:0:0:
129,340,168348,5,0,1:1:0:0:
12,264,168585,1,2,1:2:0:0:
125,182,168821,2,0,P|121:146|124:112,1,70,8|0,2:2|1:1,0:0:0:0:
235,28,169293,2,0,L|157:15,1,70,2|0,1:2|1:1,0:0:0:0:
55,193,169766,2,0,L|133:180,1,70,10|0,2:2|1:1,0:0:0:0:
320,80,170238,6,0,P|315:149|322:219,1,140,6|8,1:2|2:2,0:0:0:0:
411,287,170947,1,2,1:2:0:0:
255,366,171183,1,2,1:2:0:0:
104,292,171419,1,0,1:1:0:0:
104,292,171537,1,2,2:2:0:0:
104,292,171656,2,0,P|99:257|102:223,1,70,8|2,2:2|1:2,0:0:0:0:
175,87,172128,5,6,1:2:0:0:
175,87,172364,1,0,1:1:0:0:
305,193,172600,2,0,P|339:191|374:195,1,70,10|0,2:2|1:1,0:0:0:0:
255,343,173073,2,0,P|220:340|186:344,1,70,2|8,1:2|2:2,0:0:0:0:
136,349,173427,1,8,2:2:0:0:
136,349,173545,2,0,P|137:378|136:394,1,35,10|8,2:2|2:2,0:0:0:0:
15,270,173782,2,0,P|14:299|15:315,1,35,8|8,2:2|2:2,0:0:0:0:
180,190,174018,5,6,1:2:0:0:
67,61,174254,1,0,1:1:0:0:
201,6,174490,2,0,P|248:9|278:7,1,70,10|0,2:2|1:1,0:0:0:0:
396,118,174963,1,2,1:2:0:0:
396,118,175199,1,0,1:1:0:0:
484,15,175435,6,0,P|482:53|486:91,1,70,10|0,2:2|1:1,0:0:0:0:
299,159,175908,2,0,P|301:124|299:89,1,70,2|0,1:2|1:1,0:0:0:0:
488,179,176380,2,0,P|485:213|488:248,1,70,10|0,2:2|1:1,0:0:0:0:
365,371,176852,5,2,1:2:0:0:
281,347,177089,1,0,1:1:0:0:
188,190,177325,5,10,2:2:0:0:
299,159,177562,1,0,1:1:0:0:
90,347,177797,6,0,P|92:312|90:277,1,70,6|0,1:2|1:1,0:0:0:0:
8,160,178270,1,10,2:2:0:0:
128,48,178506,1,0,1:1:0:0:
128,48,178742,2,0,L|203:59,1,70,2|0,1:2|1:1,0:0:0:0:
256,223,179215,2,0,L|181:234,1,70,10|0,2:2|1:1,0:0:0:0:
114,306,179687,1,2,1:2:0:0:
216,364,179923,5,0,1:1:0:0:
376,267,180160,1,8,2:2:0:0:
512,384,180396,1,2,1:2:0:0:
353,261,180632,2,0,P|348:226|350:189,1,70,2|8,1:2|2:2,0:0:0:0:
480,30,181104,1,10,2:2:0:0:
349,191,181341,1,0,1:1:0:0:
277,31,181577,6,0,P|235:35|199:31,1,70,6|0,1:2|1:1,0:0:0:0:
111,124,182049,2,0,P|153:120|189:124,1,70,10|0,2:2|1:1,0:0:0:0:
256,271,182522,2,0,P|258:236|256:201,1,70,2|0,1:2|1:1,0:0:0:0:
92,330,182994,1,10,2:2:0:0:
16,267,183230,1,0,1:1:0:0:
80,193,183467,6,0,P|77:158|80:123,1,70,0|0,1:1|1:1,0:0:0:0:
223,193,183939,1,10,2:2:0:0:
223,193,184175,1,0,1:1:0:0:
351,160,184411,2,0,P|346:231|352:300,1,140,2|10,1:2|2:2,0:0:0:0:
268,351,185120,1,0,1:1:0:0:
103,302,185356,5,6,1:2:0:0:
103,302,185593,1,0,1:1:0:0:
103,128,185829,2,0,L|103:212,1,70,8|0,2:2|1:1,0:0:0:0:
408,302,186301,5,6,1:2:0:0:
408,302,186538,1,0,1:1:0:0:
408,128,186774,2,0,L|408:212,1,70,8|0,2:2|1:1,0:0:0:0:
150,118,187246,5,14,2:2:0:0:
369,267,187482,1,4,1:3:0:0:
141,267,187719,5,4,1:3:0:0:
360,118,187955,1,4,1:3:0:0:
254,338,188191,5,10,2:2:0:0:
257,45,188427,1,0,1:1:0:0:
115,191,188663,2,0,P|77:192|42:191,1,70,8|0,2:2|1:1,0:0:0:0:
171,339,189136,5,10,2:2:0:0:
193,312,189254,1,8,2:3:0:0:
225,299,189372,1,0,1:1:0:0:
259,304,189490,1,0,1:1:0:0:
287,325,189608,2,0,P|285:348|286:368,1,35,4|4,2:3|2:3,0:0:0:0:
394,313,189845,2,0,P|395:330|395:347,1,35,0|0,1:1|1:1,0:0:0:0:
512,384,190081,5,14,2:2:0:0:
512,384,191971,5,14,2:2:0:0:
256,67,192915,2,0,P|261:137|255:207,1,140,6|2,1:2|2:3,0:0:0:0:
173,188,193624,1,0,0:0:0:0:
12,272,193860,1,14,2:2:0:0:
12,272,194569,5,0,0:0:0:0:
76,314,194805,2,0,P|74:352|77:386,1,70,2|0,2:3|0:0,0:0:0:0:
177,295,195278,2,0,P|179:329|176:364,1,70,2|0,2:3|1:1,0:0:0:0:
50,172,195750,1,14,2:2:0:0:
224,98,195986,5,8,2:3:0:0:
248,122,196104,1,8,2:3:0:0:
280,136,196222,1,8,2:3:0:0:
315,136,196340,1,8,2:3:0:0:
347,123,196459,2,0,P|346:145|348:166,1,35,4|4,2:3|2:3,0:0:0:0:
445,287,196695,5,6,1:2:0:0:
445,287,196931,1,0,1:1:0:0:
385,346,197167,2,0,P|350:344|315:347,1,70,10|0,2:2|1:1,0:0:0:0:
256,220,197640,2,0,P|290:222|325:221,1,70,2|0,1:2|1:1,0:0:0:0:
224,296,198112,1,10,2:2:0:0:
93,215,198348,1,0,1:1:0:0:
89,369,198585,5,2,1:2:0:0:
89,369,198821,1,0,1:1:0:0:
154,294,199057,2,0,P|190:298|224:295,1,70,8|0,2:2|1:1,0:0:0:0:
382,365,199530,2,0,P|345:369|311:366,1,70,2|0,1:2|1:1,0:0:0:0:
437,266,200002,1,10,2:2:0:0:
386,199,200238,1,0,1:1:0:0:
484,62,200474,5,2,1:2:0:0:
484,62,200711,1,2,1:2:0:0:
409,10,200947,2,0,P|370:14|335:10,1,70,10|0,2:2|1:1,0:0:0:0:
438,141,201419,2,0,P|472:137|507:141,1,70,2|0,1:2|1:1,0:0:0:0:
337,87,201892,1,10,2:2:0:0:
191,193,202128,1,0,1:1:0:0:
24,37,202364,5,10,2:2:0:0:
86,15,202521,1,8,2:2:0:0:
152,21,202678,1,8,2:2:0:0:
211,51,202836,1,8,2:2:0:0:
255,102,202993,1,8,2:2:0:0:
274,166,203151,1,8,2:2:0:0:
308,177,203309,5,8,2:3:0:0:
269,203,203466,1,8,2:3:0:0:
242,242,203623,1,8,2:3:0:0:
229,289,203781,1,4,2:3:0:0:
233,335,203938,1,4,2:3:0:0:
253,377,204096,1,4,2:3:0:0:
294,383,204254,6,0,B|393:357|393:357|497:384,1,210,10|0,2:2|0:0,0:0:0:0:
396,278,205199,1,0,0:0:0:0:
