osu file format v14

[General]
AudioFilename: audio.mp3
AudioLeadIn: 0
PreviewTime: 125037
Countdown: 0
SampleSet: Normal
StackLeniency: 0.2
Mode: 0
LetterboxInBreaks: 0
WidescreenStoryboard: 1

[Editor]
Bookmarks: 52414,81941,96710,111479,126248,141017,155787,170556,177941,192710,200094,205633,214864,218556,244402,251787,259171,273941,281325,288710,303479
DistanceSpacing: 1
BeatDivisor: 4
GridSize: 8
TimelineZoom: 3.659999

[Metadata]
Title:May These Noises Startle You In Your Sleep Tonight / Hell Above
TitleUnicode:May These Noises Startle You In Your Sleep Tonight / Hell Above
Artist:Pierce The Veil
ArtistUnicode:Pierce The Veil
Creator:-sandAI
Version:Wasteland
Source:
Tags:Collide With The Sky
BeatmapID:1673565
BeatmapSetID:796847

[Difficulty]
HPDrainRate:5
CircleSize:4
OverallDifficulty:9.2
ApproachRate:9.7
SliderMultiplier:1.8
SliderTickRate:1

[Events]
//Background and Video events
0,0,"TheMothership.jpg",0,0
//Break Periods
//Storyboard Layer 0 (Background)
//Storyboard Layer 1 (Fail)
//Storyboard Layer 2 (Pass)
//Storyboard Layer 3 (Foreground)
//Storyboard Sound Samples

[TimingPoints]
2568,461.538461538462,4,2,1,5,1,0
10875,476.190476190476,4,2,1,35,1,8
11827,458.015267175573,4,2,1,35,1,0
13659,448.765893792072,4,2,1,35,1,0
14107,465.116279069767,4,2,1,35,1,8
15502,465.116279069767,4,2,1,35,1,0
15967,447.761194029851,4,2,1,35,1,8
16414,472.44094488189,4,2,1,35,1,8
17358,461.538461538462,4,2,1,35,1,0
17819,441.176470588235,4,2,1,35,1,8
18260,461.538461538462,4,2,1,35,1,8
19183,461.538461538462,4,2,1,35,1,0
19644,476.190476190476,4,2,1,35,1,8
20596,451.127819548872,4,2,1,35,1,8
21047,444.444444444444,4,2,1,35,1,0
21491,461.538461538462,4,2,1,35,1,8
21952,476.190476190476,4,2,1,35,1,8
22904,476.190476190476,4,2,1,35,1,0
23380,419.58041958042,4,2,1,35,1,8
23799,461.538461538462,4,2,1,35,1,8
24260,472.44094488189,4,2,1,35,1,8
24732,472.44094488189,4,2,1,35,1,0
25204,441.176470588235,4,2,1,35,1,8
25645,476.190476190476,4,2,1,35,1,8
26121,447.761194029851,4,2,1,35,1,8
26568,467.653936087295,4,2,1,35,1,0
28906,431.654676258993,4,2,1,35,1,8
29337,483.870967741935,4,2,1,35,1,8
29820,440.205429200293,4,2,1,35,1,8
30260,480,4,2,1,35,1,0
30740,443.458980044346,4,2,1,35,1,8
31183,461.538461538462,4,2,1,35,1,8
32106,461.538461538462,4,2,1,35,1,0
33952,480,4,2,1,35,1,0
34912,425.531914893617,4,2,1,35,1,8
35337,461.538461538462,4,2,1,35,1,8
35798,461.538461538462,4,2,1,35,1,0
37183,480,4,2,1,35,1,8
37663,480,4,2,1,35,1,0
38143,425.531914893617,4,2,1,35,1,8
38568,461.538461538462,4,2,1,35,1,8
39491,461.538461538462,4,2,1,35,1,0
52414,-66.6666666666667,4,1,1,50,0,0
54721,447.761194029851,4,1,1,50,1,8
54721,-66.6666666666667,4,1,1,50,0,8
55168,459.770114942529,4,1,1,50,1,8
56087,459.770114942529,4,1,1,50,1,0
56087,-66.6666666666667,4,1,1,50,0,0
56547,465.116279069767,4,1,1,50,1,8
56779,-66.6666666666667,4,1,1,50,0,8
57477,475.059382422803,4,1,1,50,1,8
57477,-66.6666666666667,4,1,1,50,0,8
57952,461.538461538462,4,1,1,50,1,0
58875,-66.6666666666667,4,1,1,50,0,0
62567,-100,4,1,1,50,0,0
63028,-200,4,1,1,50,0,0
63490,457.317073170732,4,1,1,50,1,0
63832,-66.6666666666667,4,1,1,50,0,0
64861,476.190476190476,4,1,1,50,1,8
64861,-66.6666666666667,4,1,1,50,0,8
65337,461.538461538462,4,1,1,50,1,0
66721,-133.333333333333,4,1,1,50,0,0
67183,-100,4,1,1,50,0,0
77337,451.127819548872,4,1,1,50,1,8
78239,472.44094488189,4,1,1,50,1,0
79183,461.538461538462,4,1,1,50,1,8
80106,461.538461538462,4,1,1,50,1,0
81029,456.273764258555,4,1,1,50,1,8
81941,230.769230769231,4,1,1,65,1,0
82921,-100,4,1,1,5,0,0
82979,-100,4,1,1,65,0,0
83729,-100,4,1,1,5,0,0
83787,-100,4,1,1,65,0,0
84767,-100,4,1,1,5,0,0
84825,-100,4,1,1,65,0,0
86152,-100,4,1,1,5,0,0
86210,-100,4,1,1,65,0,0
86614,-100,4,1,1,5,0,0
86671,-100,4,1,1,65,0,0
87998,-100,4,1,1,5,0,0
88056,-100,4,1,1,65,0,0
90306,-100,4,1,1,5,0,0
90364,-100,4,1,1,65,0,0
93017,-200,4,1,1,65,0,0
93479,-133.333333333333,4,1,1,65,0,0
93941,-100,4,1,1,65,0,0
94402,-80,4,1,1,65,0,0
98556,-400,4,1,1,65,0,0
102017,-100,4,1,1,65,0,0
102248,-400,4,1,1,65,0,0
102594,-400,4,1,1,5,0,0
102710,-400,4,1,1,65,0,0
103171,-133.333333333333,4,1,1,65,0,0
106864,-399.999999999997,4,1,1,65,0,0
109633,-100,4,1,1,65,0,0
113267,-100,4,1,1,5,0,0
113325,-100,4,1,1,65,0,0
117017,-80,4,1,1,65,0,0
117479,-100,4,1,1,65,0,0
117941,-133.333333333333,4,1,1,65,0,0
118402,-200,4,1,1,65,0,0
118864,-100,4,1,1,65,0,0
119037,-100,4,1,1,5,0,0
119094,-100,4,1,1,65,0,0
123421,-100,4,1,1,5,0,0
123479,-100,4,1,1,65,0,0
124575,-100,4,1,1,5,0,0
124633,-100,4,1,1,65,0,0
126248,-166.666666666667,4,1,1,65,0,1
131787,-100,4,1,1,65,0,1
131960,-100,4,1,1,5,0,1
132017,-100,4,1,1,65,0,1
132652,-100,4,1,1,5,0,1
132710,-100,4,1,1,65,0,1
133633,-166.666666666667,4,1,1,65,0,1
139171,-200,4,1,1,65,0,0
172402,-153.846153846153,4,1,1,65,0,0
174248,-117.647058823529,4,1,1,65,0,0
176094,-100,4,1,1,65,0,0
177941,-166.666666666667,4,1,1,65,0,1
183479,-100,4,1,1,65,0,1
183652,-100,4,1,1,5,0,1
183710,-100,4,1,1,65,0,1
184344,-100,4,1,1,5,0,1
184402,-100,4,1,1,65,0,1
185325,-153.846153846154,4,1,1,65,0,1
190864,-100,4,1,1,65,0,1
191037,-100,4,1,1,5,0,1
191094,-100,4,1,1,65,0,1
191729,-100,4,1,1,5,0,1
191787,-100,4,1,1,65,0,1
192248,-333.333333333333,4,1,1,65,0,1
192710,-333.333333333333,4,1,1,65,0,0
193633,-200,4,1,1,65,0,0
194556,-500,4,1,1,65,0,0
195479,-250,4,1,1,65,0,0
196402,-200,4,1,1,65,0,0
198248,-133.333333333333,4,1,1,65,0,0
199344,-133.333333333333,4,1,1,5,0,0
199402,-133.333333333333,4,1,1,65,0,0
200094,-100,4,1,1,65,0,1
200729,-100,4,1,1,5,0,1
200787,-100,4,1,1,65,0,1
203960,-100,4,1,1,5,0,1
204017,-100,4,1,1,65,0,1
205633,-200,4,1,1,65,0,0
206094,-133.333333333333,4,1,1,65,0,0
206556,-100,4,1,1,65,0,0
207017,-80,4,1,1,65,0,0
207479,-100,4,1,1,65,0,0
209325,-133.333333333333,4,1,1,65,0,0
211171,-200,4,1,1,65,0,0
221325,-133.333333333333,4,1,1,65,0,0
221556,-133.333333333333,4,1,1,5,0,0
221671,-200,4,1,1,65,0,0
221902,-200,4,1,1,5,0,0
222017,-200,4,1,1,65,0,0
222191,-200,4,1,1,5,0,0
222248,-200,4,1,1,65,0,0
227787,-100,4,1,1,65,0,0
227960,-100,4,1,1,5,0,0
228017,-100,4,1,1,65,0,0
228306,-100,4,1,1,5,0,0
228364,-100,4,1,1,65,0,0
229633,-200,4,1,1,65,0,0
242556,-100,4,1,1,65,0,0
242729,-100,4,1,1,5,0,0
242787,-100,4,1,1,65,0,0
243421,-100,4,1,1,5,0,0
243479,-100,4,1,1,65,0,0
244864,-100,4,1,1,35,0,0
251787,-266.666666666667,4,1,1,35,0,0
255941,-200,4,1,1,65,0,0
256402,-133.333333333333,4,1,1,65,0,0
256864,-100,4,1,1,65,0,0
257498,-100,4,1,1,5,0,0
257556,-100,4,1,1,65,0,0
259171,-200,4,1,1,65,0,1
264710,-100,4,1,1,65,0,1
264883,-100,4,1,1,5,0,1
264941,-100,4,1,1,65,0,1
265575,-100,4,1,1,5,0,1
265633,-100,4,1,1,65,0,1
266556,-200,4,1,1,65,0,1
272094,-100,4,1,1,65,0,1
272267,-100,4,1,1,5,0,1
272325,-100,4,1,1,65,0,1
273479,-200,4,1,1,65,0,1
273941,-333.333333333333,4,1,1,65,0,0
274864,-200,4,1,1,65,0,0
275787,-500,4,1,1,65,0,0
276710,-250,4,1,1,65,0,0
277633,-200,4,1,1,65,0,0
279479,-133.333333333333,4,1,1,65,0,0
280575,-133.333333333333,4,1,1,5,0,0
280633,-133.333333333333,4,1,1,65,0,0
281325,-100,4,1,1,65,0,1
282883,-100,4,1,1,5,0,1
282941,-100,4,1,1,65,0,1
286864,-200,4,1,1,45,0,0
287325,-133.333333333333,4,1,1,45,0,0
287787,-100,4,1,1,65,0,0
288248,-200,4,1,1,65,0,0
301633,-200,4,1,1,45,0,0

[Colours]
Combo1 : 126,204,245
Combo2 : 128,128,192
Combo3 : 6,217,117
Combo4 : 0,140,140
Combo5 : 255,81,81
Combo6 : 255,133,74
Combo7 : 255,149,202

[HitObjects]
256,192,48721,12,0,51952,0:0:0:0:
403,142,52414,6,0,P|342:133|265:157,1,135.000005149842,4|0,0:0|0:0,0:0:0:0:
248,165,52760,2,0,P|277:116|277:78,1,67.5000025749208,8|0,0:0|0:0,0:0:0:0:
122,39,52991,1,8,0:0:0:0:
111,30,53106,2,0,L|123:107,1,67.5000025749208
139,169,53337,1,8,0:0:0:0:
49,276,53567,6,0,L|177:296,1,67.5000025749208
33,288,53798,2,0,L|161:308,1,67.5000025749208
266,368,54260,2,0,B|232:318|232:318|267:151,1,202.500007724762
266,156,54721,2,0,P|240:212|157:246,1,135.000005149842
177,245,55168,5,8,0:0:0:0:
5,163,55397,2,0,L|60:176,1,45
68,104,55627,2,0,L|123:117,1,45,8|0,0:0|0:0,0:0:0:0:
130,46,55857,2,0,L|185:59,1,45
356,16,56087,70,0,B|333:71|333:71|338:144|338:144|305:213,1,202.500007724762,0|8,0:0|0:0,0:0:0:0:
190,295,56663,1,0,0:0:0:0:
179,313,56779,2,0,L|293:295,1,67.5000025749208
323,290,57012,1,8,0:0:0:0:
415,281,57244,2,0,L|404:356,1,67.5000025749208
433,271,57477,2,0,L|422:346,1,67.5000025749208
503,200,57952,6,0,P|462:174|418:167,1,90,8|0,0:0|0:0,0:0:0:0:
406,170,58240,1,8,0:0:0:0:
391,176,58298,2,0,L|384:125,1,45,8|8,0:0|0:0,0:0:0:0:
296,194,58528,1,8,0:0:0:0:
290,149,58644,1,8,0:0:0:0:
283,104,58759,1,8,0:0:0:0:
325,61,58875,6,0,B|256:49|256:49|208:68|208:68|120:54,2,202.500007724762
325,61,59798,1,8,0:0:0:0:
456,55,60490,1,0,0:0:0:0:
471,47,60721,1,8,0:0:0:0:
465,215,60952,2,0,L|349:187,1,67.5000025749208
451,224,61183,2,0,L|335:196,1,67.5000025749208
183,200,61644,70,0,L|248:215,1,67.5000025749208
166,209,62105,2,0,L|231:224,1,67.5000025749208
74,296,62567,2,0,P|48:255|46:165,1,135,8|0,0:0|0:0,0:0:0:0:
24,179,63028,2,0,L|89:194,1,67.5000025749208
166,209,63490,5,4,0:0:0:0:
263,278,63718,1,0,0:0:0:0:
275,293,63832,2,0,P|304:243|302:146,1,135.000005149842,8|0,0:0|0:0,0:0:0:0:
241,69,64175,1,0,0:0:0:0:
245,77,64290,1,0,0:0:0:0:
249,85,64404,2,0,L|373:98,1,67.5000025749208,8|0,0:0|0:0,0:0:0:0:
127,11,64633,6,0,L|114:135,1,67.5000025749208
118,0,64861,2,0,L|105:124,1,67.5000025749208
22,228,65337,69,8,0:0:0:0:
50,214,65452,1,8,0:0:0:0:
81,210,65567,1,8,0:0:0:0:
111,217,65683,1,8,0:0:0:0:
136,235,65798,1,8,0:0:0:0:
161,253,65913,1,8,0:0:0:0:
191,260,66029,1,8,0:0:0:0:
222,256,66144,1,8,0:0:0:0:
250,242,66259,5,4,0:0:0:0:
345,275,66490,1,0,0:0:0:0:
384,185,66721,2,0,P|349:243|347:288,1,101.250003862381
415,363,67183,5,4,0:0:0:0:
383,359,67298,1,0,0:0:0:0:
351,355,67413,1,0,0:0:0:0:
319,349,67529,2,0,L|262:339,1,45,0|2,0:0|0:0,0:0:0:0:
154,346,67760,2,0,L|211:356,1,45
333,278,67990,2,0,L|276:268,1,45,0|2,0:0|0:0,0:0:0:0:
166,274,68221,2,0,L|223:284,1,45
336,176,68452,1,0,0:0:0:0:
345,184,68567,2,0,P|301:139|298:86,2,90,2|0|2,0:0|0:0|0:0,0:0:0:0:
440,239,69144,69,0,0:0:0:0:
455,211,69260,1,0,0:0:0:0:
460,180,69375,2,0,P|457:149|443:116,1,45,0|2,0:0|0:0,0:0:0:0:
303,168,69606,2,0,P|331:180|366:185,1,45,0|0,0:3|0:3,0:3:0:0:
392,39,69837,2,0,P|366:57|345:85,1,45,0|2,0:0|0:0,0:0:0:0:
460,180,70067,2,0,P|457:149|443:116,1,45
401,324,70298,1,0,0:0:0:0:
394,341,70413,2,0,P|369:291|366:239,1,90,2|0,0:0|0:0,0:0:0:0:
334,162,70875,5,2,0:0:0:0:
303,168,70990,1,0,0:0:0:0:
272,174,71106,1,0,0:0:0:0:
241,181,71221,2,0,L|170:196,1,45,0|2,0:0|0:0,0:0:0:0:
69,154,71452,2,0,L|113:144,1,45
141,253,71683,2,0,L|126:182,1,45,0|2,0:3|0:0,0:3:0:0:
168,81,71914,2,0,L|177:125,1,45,0|0,0:3|0:3,0:3:0:0:
135,265,72144,1,0,0:0:0:0:
128,276,72260,2,0,L|105:167,2,90,2|0|2,0:0|0:0|0:0,0:0:0:0:
25,379,72837,5,0,0:0:0:0:
51,362,72952,1,0,0:0:0:0:
82,359,73067,2,0,P|123:359|144:369,1,45,0|2,0:0|0:0,0:0:0:0:
264,382,73298,2,0,P|223:382|202:372,1,45
354,347,73529,2,0,P|395:347|416:357,1,45,0|2,0:0|0:0,0:0:0:0:
481,365,73760,69,0,0:0:0:0:
494,380,73875,2,0,L|501:320,1,45
505,157,74106,1,0,0:0:0:0:
482,178,74221,1,0,0:0:0:0:
453,191,74336,1,0,0:0:0:0:
422,192,74452,1,0,0:0:0:0:
392,183,74567,6,0,P|342:164|279:171,1,90,2|0,0:0|0:0,0:0:0:0:
210,249,74913,2,0,L|218:176,1,45,0|2,0:0|0:0,0:0:0:0:
157,72,75144,2,0,L|149:145,1,45
135,272,75375,2,0,L|143:199,1,45,0|2,0:0|0:0,0:0:0:0:
82,95,75606,2,0,L|74:168,1,45
26,10,75837,1,0,0:0:0:0:
20,23,75952,2,0,P|73:3|125:8,1,90,2|0,0:0|0:0,0:0:0:0:
244,54,76413,5,2,0:0:0:0:
272,67,76529,1,0,0:0:0:0:
303,71,76644,2,0,P|337:67|362:53,1,45
449,0,76875,2,0,P|435:31|435:60,1,45,2|0,0:0|0:0,0:0:0:0:
437,161,77106,2,0,P|416:133|391:118,1,45
303,71,77337,70,0,P|337:67|362:50,1,45,2|0,0:0|0:0,0:0:0:0:
144,20,77562,2,0,P|110:24|85:41,1,45
234,4,77788,37,8,0:0:0:0:
222,70,77900,1,8,0:0:0:0:
211,136,78013,1,8,0:0:0:0:
200,202,78126,1,8,0:0:0:0:
188,265,78239,1,8,0:0:0:0:
256,192,80106,12,0,81485,0:0:0:0:
208,72,81941,54,0,P|254:72|299:107,1,90,4|0,0:0|0:0,0:0:0:0:
347,257,82171,1,8,0:0:0:0:
373,159,82287,2,0,L|398:51,1,90
422,310,82517,1,0,0:0:0:0:
347,257,82633,1,8,0:0:0:0:
258,245,82748,2,0,P|200:242|98:287,1,135
108,284,82979,1,0,0:0:0:0:
173,197,83094,2,0,P|195:151|197:83,1,90,8|0,0:0|0:0,0:0:0:0:
85,28,83325,2,0,P|63:74|61:142,1,90
173,197,83556,2,0,P|236:152|318:164,1,135,8|0,0:0|0:0,0:0:0:0:
365,210,83787,6,0,L|379:122,1,90
421,334,84017,1,8,0:0:0:0:
334,289,84133,2,0,P|289:270|208:284,1,90
77,349,84364,2,0,P|115:319|144:242,1,90,0|8,0:0|0:0,0:0:0:0:
153,97,84594,2,0,P|159:145|250:225,1,135
244,224,84825,1,0,0:0:0:0:
135,184,84941,2,0,P|80:186|17:225,1,90,8|0,0:0|0:0,0:0:0:0:
254,241,85171,1,0,0:0:0:0:
334,200,85287,1,0,0:0:0:0:
370,78,85402,1,8,0:0:0:0:
290,119,85518,1,0,0:0:0:0:
380,96,85633,6,0,P|392:62|394:3,1,90
290,119,85864,1,8,0:0:0:0:
334,200,85979,2,0,B|389:184|389:184|487:213,1,135
495,219,86210,1,0,0:0:0:0:
427,277,86325,1,8,0:0:0:0:
336,286,86441,2,0,B|281:302|281:302|183:273,1,135
177,268,86671,1,0,0:0:0:0:
97,349,86787,2,0,P|72:299|75:235,1,90,8|0,0:0|0:0,0:0:0:0:
96,110,87017,1,0,0:0:0:0:
128,194,87133,1,0,0:0:0:0:
8,158,87248,2,0,L|110:170,1,90,8|0,0:0|0:0,0:0:0:0:
343,172,87479,70,0,P|296:143|272:74,1,90
259,18,87710,1,8,0:0:0:0:
272,160,87825,2,0,P|256:264|230:304,1,135
218,311,88056,1,0,0:0:0:0:
296,354,88171,1,8,0:0:0:0:
428,301,88287,2,0,P|371:270|320:271,1,90
483,380,88517,1,0,0:0:0:0:
435,316,88633,2,0,P|404:259|410:151,1,135,8|0,0:0|0:0,0:0:0:0:
411,158,88864,5,8,0:0:0:0:
267,191,88979,1,8,0:0:0:0:
335,104,89094,5,0,0:0:0:0:
248,184,89209,1,0,0:0:0:0:
242,76,89325,70,0,L|137:87,1,90,4|0,0:0|0:0,0:0:0:0:
0,67,89556,1,8,0:0:0:0:
64,129,89671,2,0,P|80:176|72:246,1,90
0,336,89902,1,0,0:0:0:0:
85,362,90017,1,8,0:0:0:0:
171,330,90133,2,0,P|220:296|251:213,1,135
247,195,90364,2,0,P|268:256|310:292,1,90,0|8,0:0|0:0,0:0:0:0:
326,62,90594,1,0,0:0:0:0:
244,94,90710,2,0,L|139:105,1,90
345,53,90941,2,0,L|450:42,1,90,8|0,0:0|0:0,0:0:0:0:
284,274,91171,6,0,P|257:238|246:194,1,90
248,82,91402,1,8,0:0:0:0:
152,117,91517,2,0,L|48:150,1,90
248,82,91748,1,0,0:0:0:0:
311,146,91864,1,8,0:0:0:0:
400,142,91979,2,0,P|469:128|505:91,1,90
309,130,92210,1,0,0:0:0:0:
267,209,92325,2,0,P|244:275|258:325,1,90,8|0,0:0|0:0,0:0:0:0:
422,292,92556,6,0,L|315:267,1,90
73,210,92787,2,0,L|180:235,1,90,8|0,0:0|0:0,0:0:0:0:
220,110,93017,70,0,P|216:77|200:50,3,45
309,130,93479,6,0,P|325:86|322:45,3,67.5000025749208
375,192,93941,6,0,P|411:163|434:123,3,90
401,279,94402,70,0,P|446:272|508:234,3,112.5
301,345,94864,37,8,0:0:0:0:
494,371,94979,1,8,0:0:0:0:
306,352,95094,1,8,0:0:0:0:
499,378,95209,1,8,0:0:0:0:
356,164,95325,5,8,0:0:0:0:
310,361,95441,1,8,0:0:0:0:
218,148,95556,1,8,0:0:0:0:
410,269,95671,1,8,0:0:0:0:
169,301,95787,85,8,0:0:0:0:
167,284,95844,1,0,0:0:0:0:
164,267,95902,1,0,0:0:0:0:
161,250,95960,1,0,0:0:0:0:
139,232,96017,2,0,L|147:293,3,56.25
63,169,96248,6,0,P|28:136|0:129,2,75
150,117,96479,2,0,P|136:70|115:50,2,75
222,203,96710,37,0,0:0:0:0:
243,196,96941,1,0,0:0:0:0:
342,245,97171,5,0,0:0:0:0:
321,253,97402,1,0,0:0:0:0:
406,163,97633,5,0,0:0:0:0:
427,170,97864,1,0,0:0:0:0:
346,66,98094,69,0,0:0:0:0:
325,74,98325,1,0,0:0:0:0:
195,112,98556,6,0,L|263:139,1,67.5
184,210,99017,1,0,0:0:0:0:
163,201,99247,1,0,0:0:0:0:
90,135,99479,6,0,L|75:190,1,45
86,301,99941,2,0,L|101:246,1,45
228,107,100402,70,0,L|254:204,1,90,4|0,0:0|0:0,0:0:0:0:
271,310,101094,1,0,0:0:0:0:
278,289,101325,1,0,0:0:0:0:
357,231,101555,5,0,0:0:0:0:
365,252,101786,1,0,0:0:0:0:
361,128,102017,70,0,L|347:76,3,45
375,142,102248,2,0,P|346:140|303:151,1,67.5,8|0,0:0|0:0,0:0:0:0:
213,224,102710,1,0,0:0:0:0:
206,203,102941,1,0,0:0:0:0:
123,111,103171,70,0,B|158:101|189:122|189:122|226:131|258:112,1,135.000005149842,8|0,0:0|0:0,0:0:0:0:
143,185,103517,2,0,B|108:195|77:174|77:174|40:165|8:184,1,135.000005149842,8|0,0:0|0:0,0:0:0:0:
200,274,103864,1,8,0:0:0:0:
130,178,103979,1,0,0:0:0:0:
320,153,104094,1,8,0:0:0:0:
427,228,104325,69,0,0:0:0:0:
420,207,104556,1,0,0:0:0:0:
335,287,104786,85,0,0:0:0:0:
327,308,105017,1,0,0:0:0:0:
256,96,105248,85,0,0:0:0:0:
248,75,105479,1,0,0:0:0:0:
251,227,105710,5,0,0:0:0:0:
272,231,105787,1,0,0:0:0:0:
294,235,105864,1,0,0:0:0:0:
317,238,105941,1,0,0:0:0:0:
171,277,106171,5,0,0:0:0:0:
164,256,106402,1,0,0:0:0:0:
36,148,106633,85,0,0:0:0:0:
50,125,106864,2,0,P|80:92|132:79,1,90
236,147,107556,1,0,0:0:0:0:
56,57,107787,85,8,0:0:0:0:
342,201,109633,38,0,B|374:159|374:159|351:24,1,180,4|0,0:0|0:0,0:0:0:0:
189,94,109979,1,0,0:0:0:0:
189,94,110037,1,0,0:0:0:0:
189,94,110094,2,0,L|179:155,1,45,8|0,0:0|0:0,0:0:0:0:
155,316,110210,1,0,0:0:0:0:
52,251,110325,1,0,0:0:0:0:
69,236,110383,1,0,0:0:0:0:
89,226,110441,1,0,0:0:0:0:
110,222,110498,1,0,0:0:0:0:
132,224,110556,6,0,P|200:236|278:142,1,180,8|0,0:0|0:0,0:0:0:0:
276,18,110902,1,0,0:0:0:0:
276,18,110960,1,0,0:0:0:0:
276,18,111017,2,0,P|263:59|267:91,1,45,8|0,0:0|0:0,0:0:0:0:
275,164,111133,1,8,0:0:0:0:
370,152,111248,1,8,0:0:0:0:
407,71,111364,1,8,0:0:0:0:
421,232,111479,38,0,P|435:272|470:311,1,90
367,355,111710,2,0,B|300:341|300:341|246:354|246:354|168:341,1,180,8|0,0:0|0:0,0:0:0:0:
68,291,112056,1,0,0:0:0:0:
10,201,112171,2,0,L|98:219,1,90,8|0,0:0|0:0,0:0:0:0:
232,242,112402,1,0,0:0:0:0:
245,135,112517,1,0,0:0:0:0:
340,207,112633,2,0,L|251:225,1,90,8|0,0:0|0:0,0:0:0:0:
406,52,112864,2,0,L|424:140,1,90
364,214,113094,2,0,L|211:247,1,135,8|0,0:0|0:0,0:0:0:0:
93,315,113325,6,0,P|106:235|70:133,1,180,0|8,0:0|0:0,0:0:0:0:
76,142,113671,1,0,0:0:0:0:
145,226,113787,2,0,P|214:244|266:230,1,90
319,139,114017,2,0,P|250:121|198:135,1,90,8|0,0:0|0:0,0:0:0:0:
383,220,114248,1,0,0:0:0:0:
436,125,114364,1,0,0:0:0:0:
376,35,114479,2,0,P|445:53|497:39,1,90,8|0,0:0|0:0,0:0:0:0:
202,42,114710,2,0,B|226:145,1,90
133,237,114941,2,0,B|109:134,1,90,8|0,0:0|0:0,0:0:0:0:
22,338,115171,6,0,B|81:327|81:327|139:340|139:340|240:319,1,180,0|8,0:0|0:0,0:0:0:0:
344,296,115517,1,0,0:0:0:0:
300,196,115633,2,0,L|198:177,1,90
347,91,115864,1,8,0:0:0:0:
312,192,115979,1,0,0:0:0:0:
355,291,116094,2,0,L|461:316,1,90
512,165,116325,2,0,L|424:185,1,90,8|0,0:0|0:0,0:0:0:0:
260,37,116556,2,0,B|320:52|320:52|377:46|377:46|440:65,1,180,0|8,0:0|0:0,0:0:0:0:
435,63,116902,1,0,0:0:0:0:
198,190,117017,70,0,L|155:2,2,168.75,2|0|0,0:0|0:0|0:0,0:0:0:0:
144,271,117479,6,0,L|84:136,2,135,2|0|0,0:0|0:0|0:0,0:0:0:0:
117,330,117941,6,0,L|47:246,2,101.250003862381,4|0|0,0:0|0:0|0:0,0:0:0:0:
113,359,118402,70,0,L|41:311,2,67.5,8|0|0,0:0|0:0|0:0,0:0:0:0:
364,335,118864,6,0,P|286:313|202:332,1,135
204,340,119094,1,8,0:0:0:0:
286,283,119210,2,0,P|312:256|326:182,1,90
316,90,119441,1,0,0:0:0:0:
329,104,119556,1,8,0:0:0:0:
53,185,120017,6,0,B|112:174|112:174|249:205,1,180,8|0,0:0|0:0,0:0:0:0:
229,201,120364,1,0,0:0:0:0:
373,263,120479,2,0,L|285:282,1,90,8|0,0:0|0:0,0:0:0:0:
467,279,120710,2,0,P|444:240|445:191,1,90
508,106,120941,2,0,L|310:147,1,180,8|0,0:0|0:0,0:0:0:0:
331,142,121287,1,0,0:0:0:0:
229,201,121402,2,0,P|252:162|251:113,1,90,8|0,0:0|0:0,0:0:0:0:
173,141,121864,70,0,P|119:138|58:174,1,90,8|0,0:0|0:0,0:0:0:0:
234,215,122094,1,0,0:0:0:0:
255,91,122210,1,0,0:0:0:0:
340,156,122325,2,0,P|394:159|455:123,1,90,8|0,0:0|0:0,0:0:0:0:
507,278,122556,6,0,B|455:250|455:250|315:272,1,180,0|8,0:0|0:0,0:0:0:0:
223,299,122902,2,0,P|241:246|216:188,1,90
85,196,123133,1,0,0:0:0:0:
19,252,123248,2,0,B|55:235|55:235|150:247,1,135,8|0,0:0|0:0,0:0:0:0:
229,312,123479,2,0,B|284:237|218:214|250:132,1,180,0|8,0:0|0:0,0:0:0:0:
420,166,123825,6,0,L|330:176,1,90
109,34,124056,1,0,0:0:0:0:
216,45,124171,2,0,L|305:55,1,90,8|0,0:0|0:0,0:0:0:0:
425,19,124402,70,0,P|402:66|423:170,1,135
505,166,124633,1,8,0:0:0:0:
355,212,124748,1,8,0:0:0:0:
503,174,124864,1,8,0:0:0:0:
353,220,124979,1,8,0:0:0:0:
427,329,125094,6,0,P|439:283|430:224,1,90,8|0,0:0|0:0,0:0:0:0:
266,348,125325,2,0,P|345:334|443:371,1,180,4|0,0:0|0:0,0:0:0:0:
437,366,125671,1,0,0:0:0:0:
245,361,125787,5,8,0:0:0:0:
231,187,125902,1,8,0:0:0:0:
146,326,126017,69,8,0:0:0:0:
232,173,126132,1,8,0:0:0:0:
120,201,126248,70,0,B|114:112|36:57|36:57|14:87|23:118,1,215.999993408203,4|8,0:0|0:0,0:0:0:0:
367,191,126941,1,2,0:0:0:0:
367,191,127056,1,2,0:0:0:0:
367,191,127171,2,0,P|381:130|418:75,1,107.999996704102,2|0,0:0|0:0,0:0:0:0:
248,249,127633,2,0,L|248:129,1,107.999996704102,8|0,0:0|0:0,0:0:0:0:
64,320,128094,70,0,B|109:311|109:311|286:347,1,215.999993408203,0|8,0:0|0:0,0:0:0:0:
275,344,128787,2,0,L|198:359,1,53.9999983520508
410,258,129017,2,0,B|424:309|424:309|410:386,1,107.999996704102
229,284,129479,2,0,L|357:309,1,107.999996704102,8|0,0:0|0:0,0:0:0:0:
140,159,129941,2,0,B|164:208|164:208|133:372,1,215.999993408203,0|8,0:0|0:0,0:0:0:0:
33,202,130633,2,0,L|95:217,1,53.9999983520508
0,34,130864,1,2,0:0:0:0:
51,48,130979,1,2,0:0:0:0:
102,62,131094,1,2,0:0:0:0:
154,75,131210,1,2,0:0:0:0:
206,88,131325,2,0,L|331:118,1,107.999996704102,8|0,0:0|0:0,0:0:0:0:
426,209,131787,6,0,P|394:164|394:73,1,135,8|0,0:0|0:0,0:0:0:0:
389,86,132017,1,0,0:0:0:0:
498,240,132133,2,0,B|442:243|442:243|336:315,1,180,8|0,0:0|0:0,0:0:0:0:
108,211,132479,6,0,P|140:166|140:75,1,135,8|0,0:0|0:0,0:0:0:0:
145,88,132709,1,0,0:0:0:0:
36,242,132825,2,0,B|91:245|91:245|197:317,1,180,8|0,0:0|0:0,0:0:0:0:
271,116,133171,69,8,0:0:0:0:
240,267,133287,1,8,0:0:0:0:
290,102,133402,5,8,0:0:0:0:
220,280,133518,1,8,0:0:0:0:
359,241,133633,6,0,P|341:183|363:23,1,215.999993408203,0|8,0:0|0:0,0:0:0:0:
256,136,134325,1,2,0:0:0:0:
256,136,134441,1,2,0:0:0:0:
256,136,134556,2,0,L|256:12,1,107.999996704102,2|0,0:0|0:0,0:0:0:0:
136,242,135017,2,0,P|149:198|133:78,1,161.999995056153,8|0,0:0|0:0,0:0:0:0:
12,272,135479,70,0,B|68:259|68:259|224:316,1,215.999993408203,0|8,0:0|0:0,0:0:0:0:
118,200,136171,2,0,L|168:218,1,53.9999983520508
356,257,136402,2,0,L|318:358,1,107.999996704102
442,232,136864,2,0,L|404:333,1,107.999996704102,8|0,0:0|0:0,0:0:0:0:
367,151,137325,2,0,B|342:222|342:222|345:287|345:287|317:359,1,215.999993408203,0|8,0:0|0:0,0:0:0:0:
268,288,138017,2,0,L|239:357,1,53.9999983520508,2|2,0:0|0:0,0:0:0:0:
288,160,138248,2,0,L|259:229,1,53.9999983520508,2|2,0:0|0:0,0:0:0:0:
174,186,138479,5,8,0:0:0:0:
123,98,138594,1,8,0:0:0:0:
167,200,138710,1,0,0:0:0:0:
236,50,138825,1,0,0:0:0:0:
249,39,138941,2,0,L|222:107,1,53.9999983520508
262,253,139171,5,8,0:0:0:0:
262,253,140325,5,0,0:0:0:0:
235,341,140441,1,0,0:0:0:0:
171,202,140556,2,0,L|315:223,1,135,8|0,0:0|0:0,0:0:0:0:
360,277,141017,6,0,P|352:224|372:176,1,90
380,173,141479,2,0,L|283:181,1,90,8|0,0:0|0:0,0:0:0:0:
193,185,141825,1,0,0:0:0:0:
212,169,142056,2,0,L|163:173,1,45
212,169,142633,5,8,0:0:0:0:
94,224,142864,2,0,L|83:131,1,90
70,34,143210,1,0,0:0:0:0:
141,62,143325,2,0,P|189:70|234:59,1,90,8|0,0:0|0:0,0:0:0:0:
294,18,143671,1,0,0:0:0:0:
315,0,143902,2,0,L|309:44,1,45
339,146,144248,6,0,L|333:190,1,45,2|2,0:0|0:0,0:0:0:0:
264,254,144479,1,8,0:0:0:0:
428,228,144594,1,8,0:0:0:0:
352,132,144710,70,0,L|341:221,1,90
326,332,145056,1,0,0:0:0:0:
250,358,145171,2,0,P|204:358|160:332,1,90,8|0,0:0|0:0,0:0:0:0:
141,243,145517,1,0,0:0:0:0:
118,260,145748,2,0,P|131:230|131:209,1,45
118,260,146325,5,8,0:0:0:0:
47,158,146556,2,0,P|97:160|146:147,1,90
214,94,146902,1,0,0:0:0:0:
252,33,147017,2,0,L|260:126,1,90,8|0,0:0|0:0,0:0:0:0:
298,197,147364,2,0,L|306:290,1,90
308,313,147710,1,0,0:0:0:0:
259,122,147941,5,8,0:0:0:0:
417,151,148056,1,8,0:0:0:0:
251,102,148171,1,8,0:0:0:0:
409,131,148286,1,8,0:0:0:0:
305,286,148402,70,0,L|312:196,1,90
324,63,148748,1,0,0:0:0:0:
251,102,148864,2,0,P|215:117|162:119,1,90,8|0,0:0|0:0,0:0:0:0:
82,79,149210,1,0,0:0:0:0:
72,62,149441,2,0,L|61:111,1,45
44,213,150017,5,8,0:0:0:0:
0,338,150248,2,0,L|96:327,1,90
263,301,150594,1,0,0:0:0:0:
195,362,150710,2,0,P|177:324|181:260,1,90,8|0,0:0|0:0,0:0:0:0:
239,171,151056,1,0,0:0:0:0:
255,152,151287,2,0,L|210:157,1,45
391,81,151633,6,0,L|346:86,1,45,2|2,0:0|0:0,0:0:0:0:
412,172,151864,1,8,0:0:0:0:
459,5,151979,1,8,0:0:0:0:
411,89,152094,70,0,L|321:99,1,90
192,113,152441,1,0,0:0:0:0:
111,72,152556,2,0,P|126:114|116:159,1,90,8|0,0:0|0:0,0:0:0:0:
51,273,152902,1,0,0:0:0:0:
24,260,153017,2,0,L|132:247,1,90
293,238,153479,37,8,0:0:0:0:
203,333,153594,1,8,0:0:0:0:
151,157,153710,1,8,0:0:0:0:
196,350,153825,1,8,0:0:0:0:
280,256,153941,5,0,0:0:0:0:
280,256,155094,38,0,L|214:262,1,45
196,350,155325,2,0,P|207:312|182:210,1,135,8|0,0:0|0:0,0:0:0:0:
78,117,155787,6,0,L|233:132,1,135
212,130,156248,1,8,0:0:0:0:
336,60,156479,2,0,L|330:123,1,45
352,45,156825,2,0,L|346:108,1,45
340,194,157171,1,0,0:0:0:0:
330,207,157402,5,8,0:0:0:0:
420,290,157633,2,0,L|285:303,1,135
285,303,158094,1,8,0:0:0:0:
143,338,158325,2,0,P|163:305|162:280,1,45
195,111,158787,1,0,0:0:0:0:
202,96,159017,70,0,L|208:148,1,45,2|2,0:0|0:0,0:0:0:0:
149,232,159248,1,8,0:0:0:0:
298,155,159364,1,8,0:0:0:0:
212,83,159479,6,0,L|228:228,1,135
226,217,159941,1,8,0:0:0:0:
351,275,160171,2,0,L|300:281,1,45
371,289,160517,2,0,L|320:295,1,45
193,308,160864,1,0,0:0:0:0:
202,319,161094,5,8,0:0:0:0:
85,354,161325,2,0,P|98:315|96:212,1,135
31,139,161787,2,0,L|126:147,1,90,8|0,0:0|0:0,0:0:0:0:
236,163,162248,1,0,0:0:0:0:
218,175,162479,2,0,L|265:179,1,45
469,236,162710,69,8,0:0:0:0:
385,86,162825,1,8,0:0:0:0:
455,227,162941,1,8,0:0:0:0:
371,78,163056,1,8,0:0:0:0:
487,154,163171,6,0,B|443:150|443:150|399:167|399:167|355:163,1,135
355,163,163633,1,8,0:0:0:0:
197,229,163864,2,0,L|244:225,1,45
181,244,164210,2,0,L|228:240,1,45
133,330,164556,1,0,0:0:0:0:
123,345,164787,5,8,0:0:0:0:
51,279,165017,2,0,P|28:252|18:181,1,90
67,95,165364,1,0,0:0:0:0:
141,122,165479,2,0,P|175:128|242:101,1,90,8|0,0:0|0:0,0:0:0:0:
305,39,165825,1,0,0:0:0:0:
327,20,166056,2,0,L|321:76,1,45
373,145,166402,69,8,0:0:0:0:
227,113,166517,1,8,0:0:0:0:
380,164,166633,1,8,0:0:0:0:
234,132,166748,1,8,0:0:0:0:
298,215,166864,6,0,L|305:125,1,90,0|8,0:0|0:0,0:0:0:0:
479,274,167325,5,8,0:0:0:0:
450,334,167556,1,8,0:0:0:0:
361,239,167787,1,8,0:0:0:0:
314,376,168018,1,8,0:0:0:0:
267,311,168248,70,0,L|205:316,1,45,2|2,0:0|0:0,0:0:0:0:
95,326,168479,1,8,0:0:0:0:
181,380,168594,1,8,0:0:0:0:
232,233,168710,5,0,0:0:0:0:
246,81,168941,2,0,P|240:63|238:51,3,22.5
236,100,169171,1,0,0:0:0:0:
439,85,169402,6,0,L|431:114,4,22.5
431,273,169864,69,0,0:0:0:0:
411,261,169921,1,0,0:0:0:0:
390,252,169979,1,0,0:0:0:0:
367,248,170037,1,0,0:0:0:0:
344,248,170094,5,0,0:0:0:0:
260,283,170210,1,0,0:0:0:0:
180,242,170325,1,0,0:0:0:0:
164,152,170441,1,0,0:0:0:0:
214,77,170556,5,8,0:0:0:0:
384,144,170902,1,0,0:0:0:0:
404,128,171017,2,0,L|307:109,1,90
458,240,171479,2,0,L|361:221,1,90
186,263,171825,1,0,0:0:0:0:
247,210,171941,2,0,P|264:179|267:152,1,45,8|0,0:0|0:0,0:0:0:0:
215,56,172171,70,0,L|224:25,3,22.5
137,91,172402,2,0,L|100:212,1,116.999994644165,8|0,0:0|0:0,0:0:0:0:
102,202,172748,1,0,0:0:0:0:
19,296,172864,2,0,P|60:286|141:298,1,116.999994644165
213,323,173325,2,0,P|273:342|400:324,1,175.499991966248,8|0,0:0|0:0,0:0:0:0:
477,349,173787,2,0,P|456:314|455:276,1,58.4999973220826,8|0,0:0|0:0,0:0:0:0:
441,172,174017,2,0,L|450:137,3,29.2499986610413
505,208,174248,6,0,L|337:230,1,153.000002918243,8|0,0:0|0:0,0:0:0:0:
184,254,174594,1,0,0:0:0:0:
213,323,174710,2,0,L|235:155,1,153.000002918243,8|0,0:0|0:0,0:0:0:0:
186,37,175056,1,0,0:0:0:0:
250,89,175171,2,0,P|299:106|409:90,1,153.000002918243,8|0,0:0|0:0,0:0:0:0:
111,11,175517,1,0,0:0:0:0:
126,89,175633,2,0,L|145:240,1,153.000002918243,8|0,0:0|0:0,0:0:0:0:
145,240,175979,1,0,0:0:0:0:
56,335,176094,6,0,B|102:309|102:309|252:337,1,180,8|0,0:0|0:0,0:0:0:0:
438,238,176441,2,0,B|392:212|392:212|242:240,1,180,8|0,0:0|0:0,0:0:0:0:
266,235,176787,5,8,0:0:0:0:
326,116,176902,1,8,0:0:0:0:
276,256,177017,1,8,0:0:0:0:
280,36,177133,1,8,0:0:0:0:
285,272,177248,5,8,0:0:0:0:
392,212,177364,1,8,0:0:0:0:
138,146,177479,1,8,0:0:0:0:
120,159,177941,6,0,B|194:124|204:38|204:38|203:74|237:101,1,215.999993408203,4|8,0:0|0:0,0:0:0:0:
451,186,178633,1,2,0:0:0:0:
451,186,178748,1,2,0:0:0:0:
451,186,178864,2,0,P|406:154|374:101,1,107.999996704102,2|0,0:0|0:0,0:0:0:0:
318,169,179325,2,0,P|352:125|361:5,1,161.999995056153,8|0,0:0|0:0,0:0:0:0:
167,274,179787,70,0,B|215:258|215:258|380:314,1,215.999993408203,0|8,0:0|0:0,0:0:0:0:
486,115,180479,2,0,L|432:132,1,53.9999983520508
485,189,180710,2,0,L|378:223,1,107.999996704102
64,241,181171,2,0,L|171:275,1,107.999996704102,8|0,0:0|0:0,0:0:0:0:
265,138,181633,2,0,B|250:202|250:202|267:278|267:278|243:349,1,215.999993408203,0|8,0:0|0:0,0:0:0:0:
127,135,182325,2,0,L|180:152,1,53.9999983520508
99,20,182556,1,2,0:0:0:0:
151,31,182671,1,2,0:0:0:0:
205,43,182786,1,2,0:0:0:0:
257,55,182901,1,2,0:0:0:0:
309,72,183017,2,0,L|423:98,1,107.999996704102,8|0,0:0|0:0,0:0:0:0:
142,155,183479,6,0,P|186:111|200:7,1,135,8|0,0:0|0:0,0:0:0:0:
205,43,183710,1,0,0:0:0:0:
55,213,183825,2,0,B|114:232|114:232|144:272|144:272|225:297,1,180,8|0,0:0|0:0,0:0:0:0:
369,153,184171,6,0,P|325:109|311:5,1,135,8|0,0:0|0:0,0:0:0:0:
307,40,184402,1,0,0:0:0:0:
457,210,184517,2,0,B|398:229|398:229|368:269|368:269|287:294,1,180,8|0,0:0|0:0,0:0:0:0:
181,165,184864,69,8,0:0:0:0:
321,200,184979,1,8,0:0:0:0:
151,206,185094,5,8,0:0:0:0:
346,157,185209,1,8,0:0:0:0:
173,338,185325,6,0,B|227:274|181:165|181:165|147:212,1,233.999989288331,0|8,0:0|0:0,0:0:0:0:
375,266,186017,1,2,0:0:0:0:
375,266,186133,1,2,0:0:0:0:
375,266,186248,2,0,P|352:227|348:144,1,116.999994644165,2|0,0:0|0:0,0:0:0:0:
256,144,186710,2,0,L|256:8,1,116.999994644165,8|0,0:0|0:0,0:0:0:0:
391,127,187171,70,0,B|364:212|364:212|377:268|377:268|343:361,1,233.999989288331,0|8,0:0|0:0,0:0:0:0:
309,153,187864,2,0,L|289:208,1,58.4999973220826
53,245,188094,2,0,L|168:263,1,116.999994644165
3,310,188556,2,0,L|118:328,1,116.999994644165,8|0,0:0|0:0,0:0:0:0:
268,124,189017,2,0,B|282:187|282:187|249:353,1,233.999989288331,0|8,0:0|0:0,0:0:0:0:
138,230,189710,2,0,L|195:239,1,58.4999973220826
0,118,189941,1,2,0:0:0:0:
57,129,190056,1,2,0:0:0:0:
114,139,190171,1,2,0:0:0:0:
171,148,190286,1,2,0:0:0:0:
228,159,190402,2,0,L|342:180,1,116.999994644165,8|0,0:0|0:0,0:0:0:0:
410,207,190864,6,0,P|456:169|497:81,1,135,8|0,0:0|0:0,0:0:0:0:
491,104,191094,1,0,0:0:0:0:
335,169,191210,2,0,B|328:215|328:215|367:348,1,180,8|0,0:0|0:0,0:0:0:0:
102,207,191556,6,0,P|55:169|14:81,1,135,8|0,0:0|0:0,0:0:0:0:
21,104,191786,1,0,0:0:0:0:
177,169,191902,2,0,B|184:215|184:215|144:348,1,180,8|0,0:0|0:0,0:0:0:0:
225,91,192248,22,0,P|258:72|288:96,1,80.9999975280763,4|0,0:0|0:0,0:0:0:0:
328,160,192710,2,0,P|355:194|425:209,1,107.999996704102
297,256,193402,1,0,0:0:0:0:
278,272,193633,2,0,L|243:136,2,135,8|0|0,0:0|0:0|0:0,0:0:0:0:
302,355,194556,6,0,P|266:341|228:344,1,72
109,361,195248,1,0,0:0:0:0:
126,382,195479,2,0,L|149:265,2,108,8|0|0,0:0|0:0|0:0,0:0:0:0:
65,177,196402,6,0,B|108:161|108:161|240:184,1,180
454,265,197325,2,0,B|411:281|411:281|279:258,1,180,8|0,0:0|0:0,0:0:0:0:
278,257,198017,1,0,0:0:0:0:
164,171,198248,6,0,L|318:151,1,135,8|0,0:0|0:0,0:0:0:0:
88,135,198594,2,0,B|75:176|75:176|116:283,1,135.000005149842,8|0,0:0|0:0,0:0:0:0:
417,177,198941,1,8,0:0:0:0:
387,161,198998,1,0,0:0:0:0:
353,157,199056,1,0,0:0:0:0:
319,163,199114,1,0,0:0:0:0:
292,183,199171,6,0,P|239:194|174:165,1,101.250003862381,8|0,0:0|0:0,0:0:0:0:
181,160,199402,2,0,L|169:226,1,67.5000025749208
9,135,199633,5,8,0:0:0:0:
101,68,199748,1,8,0:0:0:0:
25,253,199864,1,8,0:0:0:0:
47,277,199921,1,0,0:0:0:0:
78,290,199979,1,0,0:0:0:0:
111,292,200037,1,0,0:0:0:0:
154,281,200094,6,0,P|220:262|334:281,1,180,4|8,0:0|0:0,0:0:0:0:
481,350,200441,1,0,0:0:0:0:
493,261,200556,2,0,L|510:119,1,135
512,102,200787,1,8,0:0:0:0:
425,177,200902,2,0,P|381:199|309:187,1,90
169,42,201133,1,0,0:0:0:0:
250,116,201248,2,0,L|225:219,1,90,8|0,0:0|0:0,0:0:0:0:
199,344,201479,53,0,0:0:0:0:
44,316,201594,1,0,0:0:0:0:
118,260,201710,2,0,L|139:172,1,90,8|0,0:0|0:0,0:0:0:0:
76,130,201941,6,0,B|137:149|137:149|194:140|194:140|289:171,1,180,0|8,0:0|0:0,0:0:0:0:
249,158,202287,1,0,0:0:0:0:
374,194,202402,2,0,L|406:96,1,90
433,264,202633,2,0,B|385:287|385:287|247:245,1,180,8|0,0:0|0:0,0:0:0:0:
130,198,202979,1,0,0:0:0:0:
174,275,203094,2,0,P|190:330|185:373,1,90,8|0,0:0|0:0,0:0:0:0:
85,129,203325,2,0,P|69:74|74:31,1,90
130,198,203556,2,0,B|103:215|103:215|26:199,1,90,8|0,0:0|0:0,0:0:0:0:
211,138,203787,6,0,B|251:121|251:121|349:158,1,135
359,165,204017,1,8,0:0:0:0:
512,181,204133,1,0,0:0:0:0:
421,228,204248,2,0,L|458:122,1,90
421,0,204479,2,0,L|384:106,1,90,8|0,0:0|0:0,0:0:0:0:
308,275,204710,5,0,0:0:0:0:
208,316,204825,1,0,0:0:0:0:
103,187,204941,1,8,0:0:0:0:
203,228,205056,54,0,L|295:266,1,90
97,165,205287,1,0,0:0:0:0:
197,206,205402,2,0,L|289:244,1,90,8|0,0:0|0:0,0:0:0:0:
372,344,205633,54,0,P|394:321|423:315,3,45
339,273,206094,6,0,P|372:263|409:266,3,67.5000025749208
344,167,206556,6,0,P|385:177|424:203,3,90
431,60,207017,70,0,P|469:97|495:149,3,112.5
168,146,207479,6,0,P|200:111|212:33,1,90,8|0,0:0|0:0,0:0:0:0:
344,146,207710,2,0,P|312:111|300:33,1,90,8|0,0:0|0:0,0:0:0:0:
100,193,207941,6,0,L|77:65,1,90,8|0,0:0|0:0,0:0:0:0:
412,193,208172,2,0,L|435:65,1,90,8|0,0:0|0:0,0:0:0:0:
79,272,208402,6,0,B|47:260|47:260|8:196,1,90,8|0,0:0|0:0,0:0:0:0:
431,270,208633,2,0,B|463:258|463:258|502:194,1,90,8|0,0:0|0:0,0:0:0:0:
131,336,208864,6,0,B|98:353|98:353|30:348,1,90,8|0,0:0|0:0,0:0:0:0:
380,336,209095,2,0,B|413:353|413:353|481:348,1,90,8|0,0:0|0:0,0:0:0:0:
180,18,209325,6,0,L|163:105,1,67.5000025749208,8|8,0:0|0:0,0:0:0:0:
57,83,209556,2,0,L|40:170,1,67.5000025749208,8|8,0:0|0:0,0:0:0:0:
341,15,209787,6,0,L|358:102,1,67.5000025749208,8|8,0:0|0:0,0:0:0:0:
464,80,210018,2,0,L|481:167,1,67.5000025749208,8|8,0:0|0:0,0:0:0:0:
272,282,210248,53,8,0:0:0:0:
291,97,210364,1,8,0:0:0:0:
167,235,210479,1,8,0:0:0:0:
348,196,210594,1,8,0:0:0:0:
179,121,210710,5,8,0:0:0:0:
361,201,210825,1,8,0:0:0:0:
155,239,210941,1,8,0:0:0:0:
299,84,211056,1,8,0:0:0:0:
256,192,211171,6,0,L|256:358,1,150,8|0,0:0|0:0,0:0:0:0:
141,317,211633,2,0,P|119:347|104:357,5,30
348,303,212094,2,0,P|370:273|385:263,5,30
157,295,212556,5,0,0:0:0:0:
185,284,212632,1,0,0:0:0:0:
214,278,212709,1,0,0:0:0:0:
244,276,212786,1,0,0:0:0:0:
274,278,212863,1,0,0:0:0:0:
303,284,212940,1,0,0:0:0:0:
331,294,213017,1,0,0:0:0:0:
256,192,213941,5,4,0:0:0:0:
32,192,214864,5,0,0:0:0:0:
56,175,214940,1,0,0:0:0:0:
84,163,215017,1,0,0:0:0:0:
113,158,215094,1,0,0:0:0:0:
143,158,215171,1,0,0:0:0:0:
173,165,215248,1,0,0:0:0:0:
200,177,215325,5,0,0:0:0:0:
227,189,215402,1,0,0:0:0:0:
256,195,215479,1,0,0:0:0:0:
286,196,215556,1,0,0:0:0:0:
315,190,215633,1,0,0:0:0:0:
343,179,215710,1,0,0:0:0:0:
368,162,215786,69,4,0:0:0:0:
378,173,216710,1,4,0:0:0:0:
409,30,217633,1,8,0:0:0:0:
368,162,218556,5,4,0:0:0:0:
343,179,218632,1,0,0:0:0:0:
315,190,218709,1,0,0:0:0:0:
286,196,218786,1,0,0:0:0:0:
256,195,218863,1,0,0:0:0:0:
227,189,218940,1,0,0:0:0:0:
200,177,219017,5,0,0:0:0:0:
173,165,219094,1,0,0:0:0:0:
143,158,219171,1,0,0:0:0:0:
113,158,219248,1,0,0:0:0:0:
84,163,219325,1,0,0:0:0:0:
56,175,219402,1,0,0:0:0:0:
28,158,219479,70,0,L|18:255,1,90
125,360,219941,2,0,L|134:270,1,90
270,384,220402,1,8,0:0:0:0:
363,319,220633,1,8,0:0:0:0:
453,357,220864,2,0,L|443:267,1,90
475,98,221325,6,0,P|414:123|367:191,1,135.000005149842,8|0,0:0|0:0,0:0:0:0:
407,97,221671,2,0,P|378:133|374:191,1,90
364,111,222017,2,0,P|359:145|377:184,1,67.5
455,277,222248,5,0,0:0:0:0:
429,261,222324,1,0,0:0:0:0:
401,251,222401,1,0,0:0:0:0:
371,245,222478,1,0,0:0:0:0:
341,246,222555,1,0,0:0:0:0:
312,251,222632,1,0,0:0:0:0:
284,262,222710,69,0,0:0:0:0:
256,272,222787,1,0,0:0:0:0:
226,278,222864,1,0,0:0:0:0:
196,278,222941,1,0,0:0:0:0:
167,273,223018,1,0,0:0:0:0:
139,262,223095,1,0,0:0:0:0:
113,247,223171,5,4,0:0:0:0:
99,260,224094,1,4,0:0:0:0:
27,143,225017,1,8,0:0:0:0:
113,247,225941,5,4,0:0:0:0:
139,262,226017,1,0,0:0:0:0:
167,273,226094,1,0,0:0:0:0:
196,278,226171,1,0,0:0:0:0:
226,278,226248,1,0,0:0:0:0:
256,272,226325,1,0,0:0:0:0:
284,262,226402,69,0,0:0:0:0:
312,251,226480,1,0,0:0:0:0:
341,246,226557,1,0,0:0:0:0:
371,245,226634,1,0,0:0:0:0:
401,251,226711,1,0,0:0:0:0:
429,261,226788,1,0,0:0:0:0:
455,277,226864,5,4,0:0:0:0:
319,154,227787,22,0,B|362:142|362:142|471:169,1,135,12|0,0:0|0:0,0:0:0:0:
449,163,228017,1,0,0:0:0:0:
159,144,228133,6,0,B|116:156|116:156|7:129,1,135,10|0,0:0|0:0,0:0:0:0:
29,135,228363,1,0,0:0:0:0:
233,108,228479,2,0,P|242:150|226:195,1,90,8|0,0:0|0:0,0:0:0:0:
83,309,228710,6,0,L|180:320,1,90,8|0,0:0|0:0,0:0:0:0:
349,253,228941,1,8,0:0:0:0:
248,280,229056,1,8,0:0:0:0:
362,249,229171,1,8,0:0:0:0:
314,351,229287,1,8,0:0:0:0:
269,176,229402,1,0,0:0:0:0:
58,88,229633,21,0,0:0:0:0:
85,75,229709,1,0,0:0:0:0:
114,68,229786,1,0,0:0:0:0:
144,67,229863,1,0,0:0:0:0:
174,70,229940,1,0,0:0:0:0:
202,79,230017,1,0,0:0:0:0:
229,93,230094,5,0,0:0:0:0:
255,106,230171,1,0,0:0:0:0:
284,115,230248,1,0,0:0:0:0:
313,119,230325,1,0,0:0:0:0:
343,117,230402,1,0,0:0:0:0:
373,110,230479,1,0,0:0:0:0:
400,98,230555,5,4,0:0:0:0:
395,88,231479,1,4,0:0:0:0:
368,199,231710,2,0,L|345:293,1,90
389,79,232402,1,8,0:0:0:0:
362,190,232633,2,0,L|339:284,1,90
127,361,233325,69,0,0:0:0:0:
114,334,233401,1,0,0:0:0:0:
107,305,233478,1,0,0:0:0:0:
106,275,233555,1,0,0:0:0:0:
109,245,233632,1,0,0:0:0:0:
118,217,233709,1,0,0:0:0:0:
132,190,233786,5,0,0:0:0:0:
145,164,233863,1,0,0:0:0:0:
154,135,233940,1,0,0:0:0:0:
158,106,234017,1,0,0:0:0:0:
156,76,234094,1,0,0:0:0:0:
149,46,234171,1,0,0:0:0:0:
137,18,234247,5,4,0:0:0:0:
146,86,235171,1,4,0:0:0:0:
268,107,235402,2,0,L|373:122,1,90
226,30,235864,1,0,0:0:0:0:
161,172,236094,6,0,B|151:206|151:206|187:306,1,135,8|0,0:0|0:0,0:0:0:0:
346,137,236556,2,0,B|356:103|356:103|320:3,1,135,4|0,0:0|0:0,0:0:0:0:
137,18,237017,53,0,0:0:0:0:
124,45,237093,1,0,0:0:0:0:
117,74,237170,1,0,0:0:0:0:
116,104,237247,1,0,0:0:0:0:
119,134,237324,1,0,0:0:0:0:
128,162,237401,1,0,0:0:0:0:
142,189,237478,5,0,0:0:0:0:
155,215,237555,1,0,0:0:0:0:
164,244,237632,1,0,0:0:0:0:
168,273,237709,1,0,0:0:0:0:
166,303,237786,1,0,0:0:0:0:
159,333,237863,1,0,0:0:0:0:
147,360,237939,5,4,0:0:0:0:
436,198,238864,1,4,0:0:0:0:
500,281,239094,2,4,L|405:298,1,90,0|0,0:0|0:0,0:0:0:0:
442,182,239787,1,12,0:0:0:0:
512,293,240017,2,4,L|417:310,1,90,0|0,0:0|0:0,0:0:0:0:
385,361,240710,69,0,0:0:0:0:
398,334,240786,1,0,0:0:0:0:
405,305,240863,1,0,0:0:0:0:
406,275,240940,1,0,0:0:0:0:
403,245,241017,1,0,0:0:0:0:
394,217,241094,1,0,0:0:0:0:
380,190,241171,5,0,0:0:0:0:
367,164,241248,1,0,0:0:0:0:
358,135,241325,1,0,0:0:0:0:
354,106,241402,1,0,0:0:0:0:
356,76,241479,1,0,0:0:0:0:
363,46,241556,1,0,0:0:0:0:
375,18,241632,5,4,0:0:0:0:
355,162,242556,6,0,B|386:198|386:198|369:303,1,135,8|0,0:0|0:0,0:0:0:0:
373,285,242787,1,0,0:0:0:0:
302,104,242902,2,0,B|347:84|347:84|484:114,1,180,8|0,0:0|0:0,0:0:0:0:
157,222,243248,6,0,B|126:186|126:186|143:81,1,135,8|0,0:0|0:0,0:0:0:0:
139,99,243479,1,0,0:0:0:0:
210,280,243594,2,0,B|165:300|165:300|28:270,1,180,8|0,0:0|0:0,0:0:0:0:
256,192,243941,1,8,0:0:0:0:
157,222,244171,5,8,0:0:0:0:
355,162,244287,1,8,0:0:0:0:
79,62,244864,21,2,0:0:0:0:
93,73,245787,1,2,0:0:0:0:
8,95,246710,5,2,0:0:0:0:
22,106,247633,1,2,0:0:0:0:
38,191,248556,5,2,0:0:0:0:
52,202,249479,1,2,0:0:0:0:
8,283,250402,69,2,0:0:0:0:
22,294,251325,1,2,0:0:0:0:
64,192,251787,6,0,B|256:128|256:256|464:192,1,405.000015449525
460,193,253633,2,0,B|256:128|256:256|64:192,1,405.000015449525
160,115,255479,6,0,L|154:36,1,67.5000025749208
85,212,255825,1,0,0:0:0:0:
63,191,255941,2,0,L|55:96,1,90,8|0,0:0|0:0,0:0:0:0:
0,330,256287,69,0,0:0:0:0:
77,300,256402,2,0,P|131:290|223:309,1,135.000005149842,8|0,0:0|0:0,0:0:0:0:
482,273,256748,5,0,0:0:0:0:
385,310,256864,2,0,P|317:322|193:295,1,180,8|0,0:0|0:0,0:0:0:0:
292,47,257325,22,0,P|309:138|287:201,1,135,4|0,0:0|0:0,0:0:0:0:
294,198,257556,2,0,P|322:155|371:133,1,90,8|0,0:0|0:0,0:0:0:0:
142,144,257787,5,8,0:0:0:0:
302,205,257902,1,8,0:0:0:0:
126,141,258017,1,8,0:0:0:0:
283,60,258133,1,0,0:0:0:0:
209,303,258248,1,8,0:0:0:0:
476,222,259171,6,0,P|400:174|353:99,1,180,4|8,0:0|0:0,0:0:0:0:
109,169,259864,1,2,0:0:0:0:
109,169,259979,1,2,0:0:0:0:
109,169,260094,2,0,P|147:146|172:106,1,90,2|0,0:0|0:0,0:0:0:0:
240,184,260556,2,0,P|260:134|241:39,1,135,8|0,0:0|0:0,0:0:0:0:
65,257,261017,70,0,B|126:283|126:283|173:278|173:278|236:310,1,180,0|8,0:0|0:0,0:0:0:0:
191,208,261710,2,0,L|234:230,1,45
374,246,261941,2,0,L|352:340,1,90
434,296,262402,2,0,L|412:390,1,90,8|0,0:0|0:0,0:0:0:0:
408,195,262864,2,0,B|367:223|367:223|332:362,1,180,0|8,0:0|0:0,0:0:0:0:
288,191,263556,2,0,L|332:202,1,45
250,81,263787,1,2,0:0:0:0:
294,92,263902,1,2,0:0:0:0:
337,103,264017,1,2,0:0:0:0:
381,114,264132,1,2,0:0:0:0:
424,124,264248,2,0,L|513:147,1,90,8|0,0:0|0:0,0:0:0:0:
122,153,264710,6,0,P|165:104|170:17,1,135,8|0,0:0|0:0,0:0:0:0:
174,36,264941,1,0,0:0:0:0:
47,208,265056,2,0,B|109:237|109:237|159:232|159:232|227:267,1,180,8|0,0:0|0:0,0:0:0:0:
390,153,265402,6,0,P|347:104|342:17,1,135,8|0,0:0|0:0,0:0:0:0:
337,36,265633,1,0,0:0:0:0:
465,208,265748,2,0,B|403:237|403:237|353:232|353:232|285:267,1,180,8|0,0:0|0:0,0:0:0:0:
217,135,266094,69,8,0:0:0:0:
286,268,266210,1,8,0:0:0:0:
228,108,266325,5,8,0:0:0:0:
268,290,266441,1,8,0:0:0:0:
356,150,266556,6,0,P|404:125|464:14,1,180,4|8,0:0|0:0,0:0:0:0:
136,158,267248,1,2,0:0:0:0:
136,158,267364,1,2,0:0:0:0:
136,158,267479,2,0,P|112:145|82:90,1,90,2|0,0:0|0:0,0:0:0:0:
155,258,267941,2,0,P|194:241|234:150,1,135,8|0,0:0|0:0,0:0:0:0:
417,211,268402,70,0,B|367:231|367:231|329:360,1,180,0|8,0:0|0:0,0:0:0:0:
155,258,269094,2,0,L|207:273,1,45
132,265,269325,2,0,L|236:296,1,90
65,319,269787,2,0,L|169:350,1,90,8|0,0:0|0:0,0:0:0:0:
310,182,270248,2,0,B|294:244|294:244|305:293|305:293|281:362,1,180,0|8,0:0|0:0,0:0:0:0:
418,229,270941,2,0,L|366:244,1,45
411,80,271171,1,2,0:0:0:0:
367,91,271287,1,2,0:0:0:0:
323,101,271402,1,2,0:0:0:0:
279,112,271517,1,2,0:0:0:0:
235,125,271633,2,0,L|133:152,1,90,8|0,0:0|0:0,0:0:0:0:
342,243,272094,6,0,B|376:253|376:253|494:215,1,135,8|0,0:0|0:0,0:0:0:0:
470,222,272325,1,0,0:0:0:0:
278,181,272441,2,0,P|255:230|331:343,1,180,8|0,0:0|0:0,0:0:0:0:
348,131,272787,2,0,P|302:98|239:109,1,90,8|0,0:0|0:0,0:0:0:0:
110,297,273017,5,0,0:0:0:0:
134,210,273133,1,0,0:0:0:0:
60,108,273248,1,0,0:0:0:0:
36,195,273364,1,0,0:0:0:0:
75,122,273479,2,0,L|100:32,1,90,8|0,0:0|0:0,0:0:0:0:
168,102,273941,22,0,P|219:95|272:117,1,107.999996704102,4|0,0:0|0:0,0:0:0:0:
329,195,274633,1,0,0:0:0:0:
338,209,274864,2,0,L|376:68,2,135,8|0|0,0:0|0:0|0:0,0:0:0:0:
406,316,275787,6,0,P|372:300|336:302,1,72,4|0,0:0|0:0,0:0:0:0:
237,348,276479,1,0,0:0:0:0:
223,363,276710,2,0,L|204:252,2,108,8|0|0,0:0|0:0|0:0,0:0:0:0:
71,143,277633,6,0,B|159:122|141:187|261:153,1,180,4|0,0:0|0:0,0:0:0:0:
440,252,278556,2,0,B|352:273|370:208|250:242,1,180,8|0,0:0|0:0,0:0:0:0:
264,238,279248,1,0,0:0:0:0:
468,256,279479,70,0,P|424:267|339:248,1,135.000005149842,8|0,0:0|0:0,0:0:0:0:
86,132,279825,2,0,P|130:121|215:140,1,135.000005149842,8|0,0:0|0:0,0:0:0:0:
243,302,280171,1,0,0:0:0:0:
258,272,280228,1,0,0:0:0:0:
264,238,280286,1,0,0:0:0:0:
258,201,280344,1,0,0:0:0:0:
238,160,280402,38,0,B|207:116|233:38,1,101.250003862381,8|0,0:0|0:0,0:0:0:0:
234,37,280633,2,0,P|210:79|172:91,1,67.5000025749208
115,165,280864,1,8,0:0:0:0:
14,101,280979,1,0,0:0:0:0:
2,252,281094,1,0,0:0:0:0:
18,281,281151,1,0,0:0:0:0:
43,303,281209,1,0,0:0:0:0:
74,316,281267,1,0,0:0:0:0:
108,317,281325,6,0,B|171:301|171:301|226:307|226:307|287:293,1,180,4|8,0:0|0:0,0:0:0:0:
497,246,281671,1,0,0:0:0:0:
414,181,281787,2,0,B|371:160|371:160|231:193,1,180,0|8,0:0|0:0,0:0:0:0:
131,212,282133,1,0,0:0:0:0:
66,150,282248,2,0,P|47:110|49:49,1,90
128,297,282479,2,0,P|102:333|49:362,1,90,8|0,0:0|0:0,0:0:0:0:
208,170,282710,2,0,P|252:173|323:234,1,135
332,252,282941,2,0,L|311:143,1,90,8|0,0:0|0:0,0:0:0:0:
389,25,283171,6,0,B|320:33|320:33|285:65|285:65|199:80,1,180,0|8,0:0|0:0,0:0:0:0:
222,75,283517,1,0,0:0:0:0:
110,151,283633,2,0,P|125:100|108:51,1,90
5,234,283864,2,0,B|40:261|40:261|191:240,1,180,8|0,0:0|0:0,0:0:0:0:
341,134,284210,1,0,0:0:0:0:
275,205,284325,2,0,P|260:256|277:305,1,90,8|0,0:0|0:0,0:0:0:0:
512,259,284556,2,0,B|477:232|477:232|326:253,1,180,0|8,0:0|0:0,0:0:0:0:
342,250,284902,1,0,0:0:0:0:
256,377,285017,6,0,B|296:293|212:290|276:174,1,180,0|8,0:0|0:0,0:0:0:0:
268,52,285364,1,0,0:0:0:0:
191,118,285479,2,0,P|138:141|91:140,1,90
254,41,285710,2,0,P|307:18|354:19,1,90,8|0,0:0|0:0,0:0:0:0:
413,185,285941,53,0,0:0:0:0:
488,124,286056,1,0,0:0:0:0:
478,261,286171,1,8,0:0:0:0:
404,200,286287,6,0,L|390:96,1,90
469,276,286517,1,0,0:0:0:0:
395,215,286633,2,0,L|381:111,1,90,8|0,0:0|0:0,0:0:0:0:
207,59,286864,6,0,L|200:110,1,45
290,174,287094,2,0,L|296:139,3,22.5,8|8|8|8,0:0|0:0|0:0|0:0,0:0:0:0:
198,47,287325,6,0,L|188:116,1,67.5000025749208
290,174,287556,2,0,L|297:130,3,33.7500012874604,8|8|8|8,0:0|0:0|0:0|0:0,0:0:0:0:
188,35,287787,54,0,L|174:126,1,90
61,190,288017,1,0,0:0:0:0:
61,190,288133,1,0,0:0:0:0:
61,190,288248,54,0,L|197:214,1,135,8|0,0:0|0:0,0:0:0:0:
277,276,288710,6,0,P|269:233|306:140,1,135
311,130,289171,2,0,L|208:138,1,90,8|0,0:0|0:0,0:0:0:0:
409,192,289633,6,0,P|401:149|438:56,1,135
443,46,290094,2,0,L|340:54,1,90,8|0,0:0|0:0,0:0:0:0:
298,213,290556,70,0,B|320:245|320:245|300:347,1,135
298,362,291017,2,0,P|318:328|365:306,1,90,8|0,0:0|0:0,0:0:0:0:
471,296,291479,1,0,0:0:0:0:
471,296,291710,1,0,0:0:0:0:
471,296,291941,2,0,P|450:255|451:147,1,135,8|0,0:0|0:0,0:0:0:0:
495,77,292402,6,0,L|351:92,1,135
268,60,292864,2,0,P|287:99|280:158,1,90,8|0,0:0|0:0,0:0:0:0:
0,184,293325,6,0,L|144:169,1,135
227,201,293787,2,0,P|208:162|215:103,1,90,8|0,0:0|0:0,0:0:0:0:
268,60,294248,5,0,0:0:0:0:
391,29,294479,1,0,0:0:0:0:
391,29,294594,2,0,L|375:85,1,45,8|0,0:0|0:0,0:0:0:0:
477,89,294941,1,0,0:0:0:0:
477,89,295056,2,0,L|461:145,1,45,8|0,0:0|0:0,0:0:0:0:
343,233,295402,1,0,0:0:0:0:
472,258,295633,2,0,B|424:254|424:254|396:236|396:236|338:232,1,135,8|0,0:0|0:0,0:0:0:0:
137,345,296094,54,0,P|152:298|126:220,1,135
105,214,296556,2,0,B|211:229,1,90,8|0,0:0|0:0,0:0:0:0:
86,225,297017,6,0,P|101:178|75:100,1,135
54,94,297479,2,0,B|160:109,1,90,8|0,0:0|0:0,0:0:0:0:
308,172,297941,6,0,B|279:143|279:143|274:41,1,135
275,33,298402,2,0,P|251:75|205:99,1,90,8|0,0:0|0:0,0:0:0:0:
444,183,298864,70,0,B|415:154|415:154|410:52,1,135
411,44,299325,2,0,P|387:86|341:110,1,90,8|0,0:0|0:0,0:0:0:0:
263,260,299787,5,0,0:0:0:0:
327,222,300248,1,8,0:0:0:0:
263,260,300710,5,0,0:0:0:0:
255,80,301171,1,8,0:0:0:0:
264,264,301633,5,8,0:0:0:0:
291,97,301748,1,8,0:0:0:0:
267,275,301864,1,8,0:0:0:0:
125,169,301979,1,8,0:0:0:0:
271,286,302094,1,8,0:0:0:0:
297,87,302210,5,8,0:0:0:0:
154,243,302325,1,8,0:0:0:0:
370,200,302440,1,8,0:0:0:0:
170,108,302555,1,8,0:0:0:0:
275,298,302671,1,8,0:0:0:0:
162,99,302787,5,8,0:0:0:0:
380,207,302902,1,8,0:0:0:0:
147,252,303017,1,8,0:0:0:0:
309,74,303133,1,8,0:0:0:0:
280,311,303248,1,8,0:0:0:0:
256,192,303364,5,8,0:0:0:0:
