osu file format v14

[General]
AudioFilename: audio.mp3
AudioLeadIn: 0
PreviewTime: 26050
Countdown: 0
SampleSet: Soft
StackLeniency: 0.7
Mode: 0
LetterboxInBreaks: 0
WidescreenStoryboard: 1

[Editor]
DistanceSpacing: 2.7
BeatDivisor: 4
GridSize: 32
TimelineZoom: 1.9

[Metadata]
Title:King For A Day (feat. Kellin Quinn)
TitleUnicode:King For A Day (feat. Kellin Quinn)
Artist:Pierce The Veil
ArtistUnicode:Pierce The Veil
Creator:attendant
Version:Ultra
Source:
Tags:collide with the sky alternative metal punk post hardcore sleeping sirens english
BeatmapID:2247825
BeatmapSetID:1074059

[Difficulty]
HPDrainRate:5
CircleSize:5
OverallDifficulty:9.6
ApproachRate:9.8
SliderMultiplier:2
SliderTickRate:1

[Events]
//Background and Video events
0,0,"bg.jpg",0,0
Video,1988,"video.mp4"
//Break Periods
2,41304,42166
2,60286,61848
2,85773,89157
2,134755,135617
2,229593,231038
//Storyboard Layer 0 (Background)
//Storyboard Layer 1 (Fail)
//Storyboard Layer 2 (Pass)
//Storyboard Layer 3 (Foreground)
//Storyboard Layer 4 (Overlay)
//Storyboard Sound Samples

[TimingPoints]
8981,265.486725663717,4,2,1,80,1,0
9113,-111.111111111111,4,2,1,80,0,0
9246,265.486725663717,4,2,4,80,1,0
9511,-111.111111111111,4,2,4,80,0,0
11237,-111.111111111111,4,2,1,80,0,0
11635,-111.111111111111,4,2,4,80,0,0
13361,-111.111111111111,4,2,1,80,0,0
18007,-111.111111111111,4,2,4,80,0,0
19732,-111.111111111111,4,2,1,80,0,0
20130,-111.111111111111,4,2,4,80,0,0
21856,-111.111111111111,4,2,1,90,0,0
22520,-111.111111111111,4,2,3,90,0,0
23051,-111.111111111111,4,2,1,90,0,0
23582,-111.111111111111,4,2,2,90,0,0
24113,-111.111111111111,4,2,1,90,0,0
24378,-111.111111111111,4,2,2,90,0,0
24644,-111.111111111111,4,2,3,90,0,0
24909,-111.111111111111,4,2,2,90,0,0
26104,-111.111111111111,4,2,7,90,0,1
26502,-90.9090909090908,4,2,2,90,0,1
26768,-90.9090909090908,4,2,5,90,0,1
28228,-250,4,2,7,90,0,1
28626,-66.6666666666667,4,2,2,90,0,1
28891,-66.6666666666667,4,2,5,90,0,1
29157,-90.9090909090908,4,2,5,90,0,1
30352,-71.4285714285714,4,2,1,90,0,1
30883,-66.6666666666667,4,2,1,90,0,1
31281,-90.9090909090908,4,2,1,90,0,1
31812,-90.9090909090908,4,2,5,90,0,1
32476,-250,4,2,7,90,0,1
32874,-250,4,2,2,90,0,1
33007,-90.9090909090908,4,2,4,90,0,1
33404,-90.9090909090908,4,2,5,90,0,1
33803,-90.9090909090908,4,2,2,90,0,1
34201,-90.9090909090908,4,2,4,90,0,1
34334,-90.9090909090908,4,2,2,90,0,1
34599,-71.4285714285714,4,2,1,90,0,1
34798,-71.4285714285714,4,2,11,5,0,1
34865,-71.4285714285714,4,2,1,90,0,1
34998,-90.9090909090908,4,2,2,90,0,1
35263,-90.9090909090908,4,2,5,90,0,1
36325,-76.9230769230769,4,2,5,90,0,1
36723,-250,4,2,7,90,0,1
37122,-90.9090909090908,4,2,1,90,0,1
37653,-90.9090909090908,4,2,4,90,0,1
38847,-71.4285714285714,4,2,1,90,0,1
39046,-71.4285714285714,4,2,11,5,0,1
39113,-71.4285714285714,4,2,1,90,0,1
39246,-90.9090909090908,4,2,4,90,0,1
41104,-90.9090909090908,4,2,4,90,0,0
43228,-181.818181818182,4,2,1,80,0,0
43759,-181.818181818182,4,2,2,80,0,0
47476,-181.818181818182,4,2,1,80,0,0
48007,-181.818181818182,4,2,2,80,0,0
51723,-181.818181818182,4,2,1,80,0,0
52254,-181.818181818182,4,2,2,80,0,0
55971,-181.818181818182,4,2,1,80,0,0
56502,-181.818181818182,4,2,2,80,0,0
60086,-181.818181818182,4,2,1,80,0,0
64268,-181.818181818182,4,2,11,5,0,0
64334,-83.3333333333333,4,2,6,90,0,0
64732,-83.3333333333333,4,2,1,90,0,0
64998,-100,4,2,4,90,0,0
65263,-100,4,2,2,90,0,0
65529,-100,4,2,4,90,0,0
65794,-100,4,2,2,90,0,0
66458,-83.3333333333333,4,2,1,90,0,0
66856,-83.3333333333333,4,2,4,90,0,0
67122,-83.3333333333333,4,2,2,90,0,0
67387,-83.3333333333333,4,2,4,90,0,0
67653,-83.3333333333333,4,2,2,90,0,0
68582,-125,4,2,1,70,0,0
77077,-100,4,2,6,80,0,0
77476,-100,4,2,4,80,0,0
79201,-100,4,2,1,80,0,0
79599,-100,4,2,4,80,0,0
81325,-100,4,2,1,80,0,0
81723,-100,4,2,4,80,0,0
83449,-76.9230769230769,4,2,6,90,0,0
83847,-76.9230769230769,4,2,4,90,0,0
84113,-76.9230769230769,4,2,1,90,0,0
84378,-76.9230769230769,4,2,2,90,0,0
84644,-76.9230769230769,4,2,4,90,0,0
84909,-76.9230769230769,4,2,3,90,0,0
85175,-76.9230769230769,4,2,2,90,0,0
85573,-76.9230769230769,4,2,1,90,0,0
89821,-71.4285714285714,4,2,6,90,0,1
90219,-90.9090909090908,4,2,1,90,0,1
90484,-90.9090909090908,4,2,5,90,0,1
91945,-76.9230769230769,4,2,2,90,0,1
92144,-76.9230769230769,4,2,11,5,0,1
92210,-76.9230769230769,4,2,2,90,0,1
92343,-90.9090909090908,4,2,2,90,0,1
92608,-90.9090909090908,4,2,5,90,0,1
93272,-90.9090909090908,4,2,2,90,0,1
94069,-76.9230769230769,4,2,1,90,0,1
94268,-76.9230769230769,4,2,11,5,0,1
94334,-76.9230769230769,4,2,1,90,0,1
94467,-90.9090909090908,4,2,2,90,0,1
94732,-90.9090909090908,4,2,5,90,0,1
95794,-76.9230769230769,4,2,5,90,0,1
96192,-76.9230769230769,4,2,1,90,0,1
96391,-76.9230769230769,4,2,11,5,0,1
96458,-76.9230769230769,4,2,1,90,0,1
96591,-90.9090909090908,4,2,1,90,0,1
96790,-90.9090909090908,4,2,11,5,0,1
96856,-90.9090909090908,4,2,1,90,0,1
97122,-90.9090909090908,4,2,5,90,0,1
98316,-76.9230769230769,4,2,1,90,0,1
98715,-90.9090909090908,4,2,4,90,0,1
100838,-90.9090909090908,4,2,5,90,0,1
101104,-90.9090909090908,4,2,1,90,0,1
102166,-500,4,2,1,90,0,0
102232,-500,4,2,10,80,0,0
102630,-500,4,2,11,5,0,0
102697,-181.818181818182,4,2,1,80,0,0
103228,-181.818181818182,4,2,2,80,0,0
106945,-181.818181818182,4,2,1,80,0,0
107476,-181.818181818182,4,2,2,80,0,0
111192,-181.818181818182,4,2,1,80,0,0
111723,-181.818181818182,4,2,2,80,0,0
115440,-181.818181818182,4,2,1,80,0,0
115971,-181.818181818182,4,2,2,80,0,0
116701,-181.818181818182,4,2,11,5,0,0
116768,-181.818181818182,4,2,2,80,0,0
119688,-181.818181818182,4,2,1,80,0,0
120219,-181.818181818182,4,2,2,80,0,0
123405,-181.818181818182,4,2,1,80,0,0
124467,-181.818181818182,4,2,2,80,0,0
128184,-181.818181818182,4,2,1,80,0,0
128715,-181.818181818182,4,2,2,80,0,0
129445,-181.818181818182,4,2,11,5,0,0
129511,-181.818181818182,4,2,2,80,0,0
132431,-181.818181818182,4,2,1,80,0,0
132962,-181.818181818182,4,2,4,80,0,0
133493,-181.818181818182,4,2,2,80,0,0
134555,-181.818181818182,4,2,4,80,0,0
136679,270.27027027027,4,2,1,70,1,0
136679,-166.666666666667,4,2,1,70,0,0
136949,-166.666666666667,4,2,21,70,0,0
137219,-166.666666666667,4,2,1,70,0,0
141273,-166.666666666667,4,2,21,70,0,0
141543,-166.666666666667,4,2,1,70,0,0
143165,-166.666666666667,4,2,1,70,0,1
143435,-166.666666666667,4,2,21,70,0,1
143975,-166.666666666667,4,2,1,70,0,1
144246,-166.666666666667,4,2,1,70,0,0
145868,-200,4,2,1,70,0,0
153976,-200,4,2,1,50,0,0
155057,-153.846153846154,4,2,1,55,0,0
156138,-125,4,2,1,60,0,0
157219,-200,4,2,1,65,0,0
157286,-200,4,2,1,40,0,0
157489,-153.846153846154,4,2,1,65,0,0
157556,-153.846153846154,4,2,1,45,0,0
157760,-125,4,2,1,65,0,0
157827,-125,4,2,1,50,0,0
158030,-105.263157894737,4,2,1,65,0,0
158097,-105.263157894737,4,2,1,55,0,0
158300,-105.263157894737,4,2,2,80,0,0
159381,-105.263157894737,4,2,2,85,0,0
160462,-105.263157894737,4,2,2,100,0,0
161543,279.06976744186,4,2,2,65,1,0
161822,-200,4,2,2,65,0,0
162624,275.229357798165,4,2,6,80,1,0
162624,-125,4,2,6,80,0,0
163174,-125,4,2,2,80,0,0
170880,-50,4,2,2,80,0,0
170914,-50,4,2,10,80,0,0
171431,-125,4,2,1,80,0,0
171981,-125,4,2,2,80,0,0
172532,-125,4,2,1,80,0,0
173633,-125,4,2,2,80,0,0
177486,-125,4,2,1,80,0,0
178036,-125,4,2,3,80,0,0
178312,-125,4,2,2,80,0,0
179688,-125,4,2,2,100,0,0
180238,270.27027027027,4,2,6,90,1,1
180238,-70.4225352112676,4,2,6,90,0,1
180508,-70.4225352112676,4,2,1,90,0,1
180643,-83.3333333333333,4,2,1,90,0,1
189967,-83.3333333333333,4,2,2,90,0,1
191048,-83.3333333333333,4,2,1,90,0,1
191859,-83.3333333333333,4,2,2,90,0,1
192129,-83.3333333333333,4,2,1,90,0,1
192940,-125,4,2,1,90,0,1
193481,-125,4,2,4,90,0,1
193751,-125,4,2,2,90,0,1
194021,-125,4,2,4,90,0,1
194292,-125,4,2,3,90,0,1
194832,-125,4,2,5,90,0,1
195102,-125,4,2,2,90,0,1
195237,-125,4,2,5,90,0,1
195373,-125,4,2,1,90,0,1
195913,-125,4,2,2,90,0,1
197535,265.486725663717,4,2,6,80,1,0
197800,-100,4,2,4,80,0,0
198065,-100,4,2,2,80,0,0
198331,-100,4,2,3,80,0,0
198596,-1000,4,2,3,60,0,0
199127,-1000,4,2,2,60,0,0
201782,-100,4,2,1,80,0,0
202312,-100,4,2,2,80,0,0
202844,-1000,4,2,4,60,0,0
203375,-1000,4,2,2,60,0,0
206030,-100,4,2,1,80,0,0
206560,-100,4,2,2,80,0,0
207092,-1000,4,2,4,60,0,0
207623,-1000,4,2,2,60,0,0
210278,-100,4,2,1,80,0,0
210808,-100,4,2,2,80,0,0
211340,-1000,4,2,4,60,0,0
211870,-1000,4,2,2,60,0,0
214526,-181.818181818182,4,2,1,80,0,0
215057,-181.818181818182,4,2,2,80,0,0
218773,-181.818181818182,4,2,1,80,0,0
219038,-181.818181818182,4,2,3,80,0,0
219303,-181.818181818182,4,2,2,80,0,0
220034,-181.818181818182,4,2,11,5,0,0
220101,-181.818181818182,4,2,2,80,0,0
223021,-181.818181818182,4,2,1,80,0,0
223286,-181.818181818182,4,2,3,80,0,0
223551,-181.818181818182,4,2,2,80,0,0
224282,-181.818181818182,4,2,11,5,0,0
224349,-181.818181818182,4,2,2,80,0,0
227269,-181.818181818182,4,2,1,80,0,0
227535,-181.818181818182,4,2,21,80,0,0
227800,-181.818181818182,4,2,23,80,0,0
228065,-181.818181818182,4,2,21,80,0,0
228264,-181.818181818182,4,2,11,5,0,0
228331,-181.818181818182,4,2,4,80,0,0
228862,-181.818181818182,4,2,2,80,0,0
229393,-181.818181818182,4,2,4,80,0,0
231517,-181.818181818182,4,2,1,100,0,1
232579,-83.3333333333333,4,2,4,100,0,0
232844,-76.9230769230769,4,2,4,30,0,0
232977,-200,4,2,4,50,0,0
233143,-250,4,2,4,30,0,0

[Colours]
Combo1 : 17,254,176
Combo2 : 173,255,95
Combo3 : 255,88,100
Combo4 : 255,94,55

[HitObjects]
256,192,8981,5,8,3:2:0:0:
512,0,9113,6,0,P|453:87|395:138,1,179.999994506836,6|2,3:2|3:2,2:0:0:0:
482,311,9511,2,0,P|442:289|408:260,1,90.3299972534183,8|2,1:2|2:0,2:0:0:0:
512,169,9776,1,0,3:2:0:0:
441,193,9909,1,2,3:2:0:0:
436,384,10042,6,0,P|401:355|362:333,1,90.3299972534183,8|2,1:2|2:0,2:0:0:0:
300,287,10307,1,0,3:2:0:0:
146,320,10440,1,2,3:2:0:0:
206,371,10573,2,0,B|229:333|229:333|217:288,1,90.5039972534182,8|0,1:2|2:0,2:0:0:0:
175,231,10838,1,0,3:2:0:0:
270,153,10971,1,2,3:2:0:0:
218,92,11104,5,8,1:2:0:0:
0,0,11237,6,0,P|66:82|128:128,1,180.659994506836,6|2,3:2|3:2,2:0:0:0:
45,247,11635,1,10,1:2:0:0:
113,215,11768,1,2,2:0:0:0:
19,350,11900,1,2,3:2:0:0:
92,373,12033,1,2,3:2:0:0:
38,163,12166,2,0,P|27:206|21:251,1,90.3299972534183,10|0,1:2|2:0,2:0:0:0:
151,131,12431,5,2,3:2:0:0:
218,92,12564,2,0,P|228:135|234:180,1,90.3299972534183,2|8,3:2|1:2,2:0:0:0:
398,163,12830,2,0,P|388:206|382:251,1,90.3299972534183,2|0,2:0|3:2,2:0:0:0:
322,48,13095,1,2,3:2:0:0:
400,8,13228,5,8,1:2:0:0:
506,176,13361,6,0,B|415:146|414:216|345:232,1,180.329994506836,6|2,3:2|3:2,2:0:0:0:
265,249,13759,1,10,3:2:0:0:
286,89,13892,2,0,B|305:129|305:129|291:172,1,90.5039972534182,2|0,1:2|3:2,2:0:0:0:
221,140,14157,1,2,1:2:0:0:
213,307,14290,1,10,3:2:0:0:
265,249,14422,2,0,B|245:289|245:289|259:332,1,90.5039972534182,2|0,1:2|3:2,2:0:0:0:
62,236,14688,6,0,P|96:208|141:207,1,90.3299972534183,2|8,1:2|3:2,2:0:0:0:
209,3,14953,2,0,P|222:45|209:87,1,90.3299972534183,2|0,1:2|3:2,2:0:0:0:
315,187,15219,1,2,3:2:0:0:
202,162,15352,5,8,3:2:0:0:
226,376,15484,6,0,B|258:365|258:365|250:220,1,180.329994506836,6|2,3:2|3:2,2:0:0:0:
23,335,15883,2,0,P|62:355|97:384,1,90.3299972534183,10|2,3:2|1:2,2:0:0:0:
88,124,16148,2,0,P|50:148|7:163,1,90.3299972534183,2|2,3:2|1:2,2:0:0:0:
146,69,16414,1,10,3:2:0:0:
79,28,16546,1,2,1:2:0:0:
216,7,16679,5,2,3:2:0:0:
293,49,16812,1,8,3:2:0:0:
293,49,16878,1,8,3:2:0:0:
293,49,16945,1,10,3:2:0:0:
424,25,17077,5,10,3:2:0:0:
472,89,17210,1,8,3:2:0:0:
505,18,17343,1,8,3:0:0:0:
395,101,17476,5,4,3:0:0:0:
256,384,17608,6,0,B|186:323|186:323|101:342,1,180.659994506836,6|2,3:2|3:2,2:0:0:0:
259,269,18007,1,10,1:2:0:0:
117,130,18139,2,0,P|146:163|187:181,1,90.3299972534183,2|0,2:0|3:2,2:0:0:0:
22,311,18405,2,0,P|51:277|92:259,1,90.3299972534183,2|8,3:2|1:2,2:0:0:0:
46,31,18670,6,0,P|32:120|9:150,1,90.5039972534182,2|0,2:0|3:2,2:0:0:0:
56,188,18936,1,2,3:2:0:0:
117,130,19069,1,10,1:2:0:0:
151,326,19201,2,0,P|118:295|91:258,1,90.3299972534183,2|0,2:0|3:2,2:0:0:0:
318,201,19467,2,0,P|291:237|258:268,1,90.3299972534183,2|8,3:2|1:2,2:0:0:0:
193,63,19732,6,0,B|272:40|280:120|362:135,1,180.659994506836,6|2,3:2|3:2,2:0:0:0:
165,145,20130,1,10,1:2:0:0:
318,201,20263,2,0,P|277:182|241:154,1,90.3299972534183,2|0,2:0|3:2,2:0:0:0:
448,8,20529,2,0,P|407:27|371:55,1,90.3299972534183,2|8,3:2|1:2,2:0:0:0:
442,278,20794,6,0,P|430:234|409:194,1,90.3299972534183,2|0,2:0|3:2,2:0:0:0:
230,218,21060,2,0,P|272:204|317:200,1,90.3299972534183,2|8,3:2|1:2,2:0:0:0:
459,37,21325,2,0,P|416:50|371:53,1,90.3299972534183,2|0,2:0|3:2,2:0:0:0:
303,10,21591,1,2,3:2:0:0:
104,126,21723,5,8,1:2:0:0:
23,13,21856,6,0,P|22:102|18:192,1,179.999994506836,6|0,3:2|3:2,2:0:0:0:
256,192,22254,1,8,3:2:0:0:
256,192,22387,1,0,3:2:0:0:
92,357,22520,5,14,3:2:0:0:
347,288,22653,5,0,3:2:0:0:
398,214,22785,1,8,3:2:0:0:
353,135,22918,1,0,3:2:0:0:
416,357,23051,5,14,3:2:0:0:
160,92,23184,5,0,3:2:0:0:
76,159,23316,1,8,3:2:0:0:
157,229,23449,1,0,3:2:0:0:
92,23,23582,5,14,3:2:0:0:
347,288,23715,5,0,3:2:0:0:
452,221,23847,1,8,3:2:0:0:
355,140,23980,1,0,3:2:0:0:
133,264,24113,5,14,3:2:0:0:
323,41,24246,1,0,3:2:0:0:
252,327,24378,1,12,3:2:0:0:
192,40,24511,1,0,3:2:0:0:
370,275,24644,1,12,3:2:0:0:
107,146,24776,1,0,3:2:0:0:
405,146,24909,1,12,3:2:0:0:
133,264,25042,1,0,3:2:0:0:
323,41,25175,5,8,3:2:0:0:
252,327,25307,1,8,3:3:0:0:
252,327,25374,1,4,3:3:0:0:
252,327,25440,1,8,3:2:0:0:
107,146,25573,1,8,3:2:0:0:
370,275,25706,5,8,3:2:0:0:
192,40,25838,1,8,3:0:0:0:
133,264,25971,1,4,3:0:0:0:
512,0,26104,5,14,3:2:0:0:
269,200,26502,6,0,P|299:249|319:300,1,110.403336690267,14|0,3:2|2:0,2:0:0:0:
486,144,26768,5,6,3:2:0:0:
412,183,26900,1,0,3:2:0:0:
500,151,27033,2,0,P|470:102|450:51,1,110.403336690267,10|0,3:2|2:0,2:0:0:0:
259,278,27299,5,2,3:2:0:0:
366,302,27431,1,0,3:2:0:0:
278,8,27564,2,0,P|249:54|216:98,1,110.403336690267,14|0,3:2|2:0,2:0:0:0:
34,357,27830,5,6,3:2:0:0:
107,322,27962,1,6,3:2:0:0:
34,357,28095,1,8,3:2:0:0:
0,0,28228,6,2,P|32:23|56:55,1,80.1466666666667,14|0,3:2|3:2,2:0:0:0:
295,371,28626,6,0,B|240:360|240:360|265:117,1,300.550011444092,10|4,3:2|3:2,2:0:0:0:
189,130,29024,1,0,3:2:0:0:
417,78,29157,2,0,P|420:132|415:187,1,110.403336690267,10|0,3:2|2:0,2:0:0:0:
512,282,29422,5,2,3:2:0:0:
295,371,29555,2,0,P|291:316|296:261,1,110.403336690267,2|12,3:2|3:2,2:0:0:0:
141,14,29821,5,2,0:2:0:0:
417,78,29953,1,0,3:2:0:0:
200,84,30086,1,6,3:2:0:0:
361,18,30218,1,8,3:2:0:0:
68,277,30352,6,0,P|61:208|70:139,1,140.783995727539,6|0,3:2|2:0,2:0:0:0:
442,105,30617,2,0,P|448:175|442:245,1,140.783995727539,2|8,3:2|3:2,2:0:0:0:
255,307,30883,6,0,B|269:131|235:194|256:8,1,300.550011444092,2|0,2:0|3:2,2:0:0:0:
146,174,31281,6,0,B|248:137|271:230|352:219,1,220.806673380533,8|0,3:2|3:2,2:0:0:0:
178,271,31679,1,0,3:2:0:0:
299,298,31812,2,0,P|269:344|229:381,1,110.403336690267,14|0,3:2|2:0,2:0:0:0:
476,362,32077,5,6,3:2:0:0:
401,322,32210,1,6,3:2:0:0:
476,362,32343,1,8,3:2:0:0:
497,3,32476,6,0,P|473:34|440:58,1,80.1466666666667,14|0,3:2|3:2,2:0:0:0:
299,112,32874,5,8,3:2:0:0:
507,7,33007,2,0,P|482:37|419:88,1,110.403336690267,6|0,2:0|3:2,2:0:0:0:
507,377,33272,2,0,P|482:347|419:296,1,110.403336690267,2|12,3:2|3:2,2:0:0:0:
507,7,33538,2,0,P|482:37|419:88,1,110.403336690267,6|0,2:0|3:2,2:0:0:0:
220,191,33803,5,8,3:0:0:0:
220,191,33869,1,4,3:0:0:0:
220,191,33936,1,8,3:2:0:0:
427,301,34069,1,8,3:2:0:0:
258,281,34201,5,14,3:2:0:0:
390,210,34334,1,8,3:0:0:0:
323,246,34467,5,4,3:0:0:0:
221,134,34599,6,0,B|235:271|207:215|222:342,1,210.121326924642,6|0,3:2|2:0,2:0:0:0:
222,343,34865,1,0,3:2:0:0:
417,225,34998,2,0,B|366:209|366:209|310:222,1,110.616003356934,14|0,3:2|2:0,2:0:0:0:
36,12,35263,5,6,3:2:0:0:
126,160,35396,1,2,3:2:0:0:
25,28,35529,2,0,P|38:81|41:136,1,110.403336690267,8|2,3:2|2:0,2:0:0:0:
135,349,35794,5,0,3:2:0:0:
199,202,35927,1,0,3:2:0:0:
146,372,36060,2,0,P|112:329|64:303,1,110.616003356934,10|0,3:2|2:0,2:0:0:0:
290,30,36325,6,0,L|302:163,1,130.727994049073,6|6,3:2|3:2,2:0:0:0:
325,338,36591,1,8,3:2:0:0:
512,0,36723,6,0,P|479:23|455:55,1,80.1466666666667,14|0,3:2|3:2,2:0:0:0:
222,304,37122,6,0,P|276:297|330:305,1,110.403336690267,10|0,3:2|2:0,2:0:0:0:
152,193,37387,1,2,3:2:0:0:
228,164,37520,1,2,3:2:0:0:
148,370,37653,1,8,1:2:0:0:
86,270,37785,6,0,P|77:216|49:168,1,110.403336690267,2|0,2:0|3:2,2:0:0:0:
293,223,38051,2,0,P|250:257|223:304,1,110.403336690267,2|8,3:2|1:2,2:0:0:0:
241,22,38316,5,2,2:0:0:0:
120,200,38449,1,0,3:2:0:0:
128,38,38582,5,2,3:2:0:0:
228,254,38715,1,8,1:2:0:0:
1,273,38847,6,0,P|103:273|179:342,1,209.999993591309,4|0,3:2|2:0,2:0:0:0:
185,369,39113,1,0,3:2:0:0:
36,86,39246,6,0,P|26:140|12:192,1,110.403336690267,8|0,1:2|2:0,2:0:0:0:
0,21,39511,1,0,3:2:0:0:
36,86,39644,1,0,3:2:0:0:
169,186,39776,6,0,P|173:239|187:293,1,110.403336690267,8|0,1:2|2:0,2:0:0:0:
209,117,40042,1,0,3:2:0:0:
169,186,40175,1,0,3:2:0:0:
392,89,40307,6,0,P|384:143|370:196,1,110.403336690267,10|0,1:2|2:0,2:0:0:0:
352,20,40573,1,2,3:2:0:0:
392,89,40706,1,0,3:2:0:0:
296,163,40838,5,10,1:2:0:0:
406,330,40971,5,0,3:2:0:0:
331,384,41104,5,10,1:2:0:0:
136,156,43228,6,0,B|211:147|211:147|242:161,1,110.403336690268,6|0,3:2|3:2,2:0:0:0:
98,239,43626,1,0,3:2:0:0:
87,224,43759,2,0,B|118:237|118:237|193:229,1,110.403336690268,14|0,3:2|3:2,2:0:0:0:
324,251,44157,1,0,3:2:0:0:
334,238,44290,1,4,3:2:0:0:
334,238,44555,6,0,L|326:170,1,55.2016683451335,2|0,3:2|2:0,2:0:0:0:
388,312,44821,2,0,L|343:344,1,55.2016683451335,14|0,3:2|2:0,2:0:0:0:
426,228,45086,2,0,L|476:249,1,55.2016683451335,2|0,3:2|2:0,2:0:0:0:
427,56,45352,6,0,P|429:28|437:2,1,55.2016683451335,6|0,3:2|2:0,2:0:0:0:
318,86,45617,2,0,P|315:58|307:32,1,55.2016683451335,2|0,3:2|2:0,2:0:0:0:
187,55,45883,2,0,P|189:27|197:1,1,55.2016683451335,14|0,3:2|2:0,2:0:0:0:
57,86,46148,2,0,P|54:58|46:32,1,55.2016683451335,2|0,3:2|2:0,2:0:0:0:
136,156,46414,6,0,L|122:265,1,110.403336690268,6|0,3:2|3:2,2:0:0:0:
310,183,46812,1,0,3:2:0:0:
300,196,46945,2,0,P|273:149|222:134,1,110.403336690268,14|0,3:2|3:2,2:0:0:0:
47,251,47343,1,0,3:2:0:0:
37,238,47476,6,0,B|39:269|39:269|24:314|24:314|27:345,1,110.403336690268,6|0,3:2|3:2,2:0:0:0:
221,337,47874,1,0,3:2:0:0:
231,350,48007,2,0,B|155:341|155:341|124:355,1,110.403336690268,12|0,3:2|3:2,2:0:0:0:
208,249,48405,1,0,3:2:0:0:
218,236,48538,1,4,3:2:0:0:
218,236,48803,6,0,L|286:249,1,55.2016683451335,2|0,3:2|2:0,2:0:0:0:
217,139,49069,2,0,L|285:126,1,55.2016683451335,14|0,3:2|2:0,2:0:0:0:
78,233,49334,2,0,L|10:246,1,55.2016683451335,2|0,3:2|2:0,2:0:0:0:
79,136,49599,6,0,L|11:123,1,55.2016683451336,6|0,3:2|2:0,2:0:0:0:
113,67,49865,2,0,L|45:54,1,55.2016683451335,2|0,3:2|2:0,2:0:0:0:
271,128,50130,2,0,L|325:117,1,55.2016683451335,14|0,3:2|2:0,2:0:0:0:
305,197,50396,2,0,L|359:186,1,55.2016683451335,2|0,3:2|2:0,2:0:0:0:
202,52,50661,6,0,P|239:13|293:9,1,110.403336690268,6|0,3:2|3:2,2:0:0:0:
411,48,51060,1,2,3:2:0:0:
421,35,51192,2,0,L|412:89,1,55.2016683451335,12|0,3:2|2:0,2:0:0:0:
497,73,51458,2,0,L|488:127,1,55.2016683451335,2|0,3:2|2:0,2:0:0:0:
508,323,51723,6,0,P|470:284|416:280,1,110.403336690268,4|0,3:2|3:2,2:0:0:0:
228,249,52122,1,0,3:2:0:0:
218,236,52254,2,0,L|230:358,1,110.403336690268,12|0,3:2|3:2,2:0:0:0:
295,210,52653,1,0,3:2:0:0:
305,197,52785,1,4,3:2:0:0:
305,197,53051,6,0,P|303:169|308:142,1,55.2016683451335,2|0,3:2|2:0,2:0:0:0:
187,88,53316,2,0,P|188:115|183:142,1,55.2016683451335,14|0,3:2|2:0,2:0:0:0:
61,87,53582,2,0,P|59:59|64:32,1,55.2016683451335,2|0,3:2|2:0,2:0:0:0:
266,32,53847,6,0,L|320:21,1,55.2016683451335,6|0,3:2|2:0,2:0:0:0:
187,88,54113,2,0,L|132:77,1,55.2016683451335,2|0,3:2|2:0,2:0:0:0:
307,107,54378,2,0,L|361:96,1,55.2016683451335,14|0,3:2|2:0,2:0:0:0:
146,163,54644,2,0,L|91:152,1,55.2016683451335,2|0,3:2|2:0,2:0:0:0:
326,301,54909,6,0,B|322:221|322:221|304:196,1,110.403336690268,6|0,3:2|3:2,2:0:0:0:
245,333,55307,1,2,3:2:0:0:
235,346,55440,2,0,L|232:284,1,55.2016683451335,12|0,3:2|2:0,2:0:0:0:
154,255,55706,2,0,L|156:309,1,55.2016683451335,2|0,3:2|2:0,2:0:0:0:
0,240,55971,6,0,P|37:201|91:197,1,110.403336690268,6|0,3:2|3:2,2:0:0:0:
35,34,56369,1,0,3:2:0:0:
25,21,56502,2,0,B|27:52|27:52|12:97|12:97|15:128,1,110.403336690268,12|2,3:2|3:2,2:0:0:0:
37,316,56900,1,0,3:2:0:0:
47,329,57033,1,4,3:2:0:0:
47,329,57299,6,0,L|101:321,1,55.2016683451335,2|0,3:2|2:0,2:0:0:0:
143,251,57564,2,0,L|187:283,1,55.2016683451335,14|0,3:2|2:0,2:0:0:0:
266,263,57830,2,0,L|273:317,1,55.2016683451335,2|0,3:2|2:0,2:0:0:0:
323,191,58095,6,0,P|299:176|272:171,1,55.2016683451335,6|0,3:2|2:0,2:0:0:0:
216,114,58361,2,0,P|239:99|266:94,1,55.2016683451335,2|0,3:2|2:0,2:0:0:0:
402,181,58626,2,0,P|395:154|380:131,1,55.2016683451335,14|0,3:2|2:0,2:0:0:0:
136,103,58892,2,0,P|142:76|157:53,1,55.2016683451335,2|0,3:2|2:0,2:0:0:0:
463,3,59157,6,0,B|460:34|460:34|475:79|475:79|472:110,1,110.403336690268,6|0,3:2|3:2,2:0:0:0:
474,213,59555,1,2,3:2:0:0:
337,0,59688,5,8,3:2:0:0:
136,103,59821,1,8,3:2:0:0:
307,246,59953,1,10,3:2:0:0:
211,306,60086,1,4,3:1:0:0:
256,192,62343,12,0,64268,2:0:0:0:
339,300,64334,6,0,B|221:245|232:349|116:344,1,240.879992675781,14|0,3:2|3:2,2:0:0:0:
339,300,64732,1,8,3:2:0:0:
80,187,64865,1,2,2:0:0:0:
227,116,64998,2,0,P|214:164|208:214,1,100.366666666667,0|2,1:2|2:0,2:0:0:0:
498,105,65263,5,12,3:2:0:0:
284,2,65396,1,2,2:0:0:0:
454,12,65529,1,0,1:2:0:0:
331,76,65661,1,2,2:0:0:0:
219,193,65794,5,12,3:2:0:0:
192,382,65927,1,2,2:0:0:0:
141,249,66060,1,6,3:2:0:0:
249,320,66192,1,2,2:0:0:0:
419,314,66325,5,8,3:2:0:0:
141,249,66458,6,0,P|260:236|379:248,1,239.999992675781,4|0,3:2|3:2,2:0:0:0:
132,76,66856,1,10,1:2:0:0:
249,320,66989,1,2,2:0:0:0:
229,140,67122,1,4,3:2:0:0:
141,249,67254,1,2,2:0:0:0:
339,243,67387,5,8,1:2:0:0:
286,48,67520,1,2,2:0:0:0:
132,166,67653,1,4,3:2:0:0:
255,165,67785,5,8,3:2:0:0:
255,165,67852,1,8,3:2:0:0:
255,165,67918,1,10,3:2:0:0:
133,49,68051,1,8,3:2:0:0:
298,72,68184,5,10,3:2:0:0:
151,151,68316,1,8,3:0:0:0:
223,0,68449,1,4,3:3:0:0:
398,274,68582,6,0,P|395:194|399:114,1,160,4|0,3:2|3:2,2:0:0:0:
225,219,68980,2,0,P|244:253|251:292,1,80.2933333333335,8|2,3:2|3:2,2:0:0:0:
153,185,69246,1,8,3:0:0:0:
225,219,69378,1,2,3:2:0:0:
340,77,69511,2,0,P|320:111|313:150,1,80.2933333333335,8|2,3:2|3:2,2:0:0:0:
412,43,69776,1,8,3:0:0:0:
340,77,69909,1,2,3:2:0:0:
220,30,70042,5,8,3:2:0:0:
148,0,70175,1,2,3:2:0:0:
146,99,70307,5,8,3:0:0:0:
75,121,70440,1,0,3:2:0:0:
155,269,70573,5,8,3:2:0:0:
65,384,70706,6,0,P|56:304|39:226,1,160.586666666666,4|0,3:2|3:2,2:0:0:0:
217,200,71104,2,0,P|178:187|141:173,1,80.2933333333335,10|2,3:2|3:2,2:0:0:0:
194,377,71369,2,0,P|223:350|254:325,1,80.2933333333335,8|2,3:0|3:2,2:0:0:0:
475,195,71635,1,8,3:2:0:0:
402,171,71768,1,2,3:2:0:0:
461,223,71900,1,8,3:0:0:0:
386,243,72033,1,2,3:2:0:0:
480,79,72166,5,8,3:2:0:0:
432,22,72299,1,2,3:2:0:0:
310,166,72431,5,8,3:0:0:0:
332,91,72564,1,0,3:2:0:0:
509,295,72697,5,8,3:2:0:0:
461,378,72830,6,0,B|394:334|394:334|318:359,1,160.586666666666,4|0,3:2|3:2,2:0:0:0:
171,334,73228,1,10,3:2:0:0:
241,307,73361,1,2,3:2:0:0:
108,280,73493,2,0,P|111:240|109:200,1,80.2933333333335,8|2,3:0|3:2,2:0:0:0:
310,166,73759,2,0,P|306:205|308:245,1,80.2933333333335,8|2,3:2|3:2,2:0:0:0:
170,124,74024,1,8,3:0:0:0:
240,97,74157,1,2,3:2:0:0:
109,200,74290,5,8,3:2:0:0:
181,228,74422,1,2,3:2:0:0:
43,47,74555,5,8,3:0:0:0:
118,26,74688,1,2,3:2:0:0:
17,239,74821,5,8,3:2:0:0:
74,378,74953,6,0,P|115:313|191:313,1,160.586666666666,6|2,3:2|3:2,2:0:0:0:
239,365,75352,1,8,3:2:0:0:
305,193,75484,5,2,3:2:0:0:
369,157,75617,1,8,3:0:0:0:
410,227,75750,1,2,3:2:0:0:
199,237,75883,5,8,3:2:0:0:
181,164,76015,1,2,3:2:0:0:
98,204,76148,5,8,3:0:0:0:
277,279,76281,1,2,3:2:0:0:
298,61,76414,5,10,3:2:0:0:
109,127,76546,1,2,3:2:0:0:
109,31,76679,5,2,3:2:0:0:
145,31,76746,1,0,3:2:0:0:
172,57,76812,1,8,3:0:0:0:
212,56,76878,1,4,3:0:0:0:
222,49,76945,1,8,3:2:0:0:
389,16,77077,6,0,B|416:47|416:47|396:204,1,200.733333333334,12|2,3:2|3:2,2:0:0:0:
389,16,77476,1,8,1:2:0:0:
253,186,77608,2,0,P|286:222|326:252,1,100.366666666667,2|0,2:0|3:2,2:0:0:0:
104,280,77874,1,2,3:2:0:0:
138,211,78007,1,8,1:2:0:0:
199,335,78139,6,0,P|153:355|112:385,1,100.366666666667,2|0,2:0|3:2,2:0:0:0:
7,338,78405,2,0,P|12:288|7:238,1,100.366666666667,2|8,2:0|1:2,2:0:0:0:
171,19,78670,1,2,2:0:0:0:
10,77,78803,1,0,3:2:0:0:
179,33,78936,1,0,3:2:0:0:
18,91,79069,1,10,1:2:0:0:
338,145,79201,6,0,B|430:107|443:210|512:213,1,200.733333333334,6|0,3:2|3:2,2:0:0:0:
338,145,79599,1,10,1:2:0:0:
311,315,79732,2,0,P|296:267|271:223,1,100.366666666667,2|0,2:0|3:2,2:0:0:0:
499,298,79998,2,0,P|465:334|439:377,1,100.366666666667,2|8,2:0|1:2,2:0:0:0:
485,71,80263,6,0,B|466:51|466:51|388:56,1,100.56,2|0,2:0|3:2,2:0:0:0:
253,164,80529,2,0,B|264:139|264:139|336:144,1,100.56,2|8,2:0|1:2,2:0:0:0:
29,122,80794,1,2,2:0:0:0:
208,47,80927,1,0,3:2:0:0:
25,145,81060,1,0,3:2:0:0:
204,70,81192,1,8,1:2:0:0:
446,224,81325,6,0,P|357:253|280:361,1,200.733333333334,4|0,3:2|3:2,2:0:0:0:
446,224,81723,1,10,1:2:0:0:
342,73,81856,2,0,P|382:102|428:121,1,100.366666666667,2|0,2:0|3:2,2:0:0:0:
211,235,82122,2,0,P|216:185|210:135,1,100.366666666667,2|8,2:0|1:2,2:0:0:0:
417,268,82387,2,0,P|371:288|331:318,1,100.366666666667,2|0,2:0|3:2,2:0:0:0:
125,285,82653,6,0,P|170:264|210:234,1,100.366666666667,2|8,2:0|1:2,2:0:0:0:
180,8,82918,1,2,2:0:0:0:
351,86,83051,1,0,3:2:0:0:
178,29,83184,1,2,3:2:0:0:
353,65,83316,1,8,1:2:0:0:
21,296,83449,6,0,B|115:251|196:329|160:342|207:378|242:388,1,260.953321431479,12|0,3:2|3:2,2:0:0:0:
106,123,83847,5,12,1:2:0:0:
354,19,83980,1,0,3:2:0:0:
405,123,84113,5,14,3:2:0:0:
157,19,84246,1,0,3:2:0:0:
106,257,84378,5,12,3:2:0:0:
354,361,84511,1,0,3:2:0:0:
405,257,84644,5,14,1:2:0:0:
156,360,84776,1,0,3:2:0:0:
52,110,84909,5,12,3:2:0:0:
301,7,85042,1,0,3:2:0:0:
387,250,85175,5,14,3:2:0:0:
69,117,85307,1,8,3:0:0:0:
271,80,85440,1,4,3:0:0:0:
186,287,85573,1,6,3:1:0:0:
110,93,89821,6,0,B|68:115|68:115|103:354,1,280.513324788411,14|2,3:2|3:2,2:0:0:0:
314,86,90219,2,0,P|259:72|210:47,1,110.403336690267,8|2,3:2|2:0,2:0:0:0:
190,360,90484,5,4,3:2:0:0:
293,188,90617,1,0,3:2:0:0:
308,327,90750,2,0,P|246:344|199:369,1,110.616003356934,8|0,3:2|2:0,2:0:0:0:
188,151,91015,1,0,3:2:0:0:
311,346,91148,1,0,3:2:0:0:
338,94,91281,6,0,P|321:151|310:200,1,110.403336690267,10|0,3:2|2:0,2:0:0:0:
0,239,91546,1,6,3:2:0:0:
43,168,91679,1,6,3:2:0:0:
0,239,91812,1,8,3:2:0:0:
0,239,91878,1,2,3:2:0:0:
0,239,91945,6,0,P|26:145|51:50,1,194.999991073609,6|0,3:2|2:0,2:0:0:0:
133,39,92210,1,0,3:2:0:0:
10,258,92343,2,0,P|12:313|29:365,1,110.403336690267,10|0,3:2|2:0,2:0:0:0:
312,384,92608,5,6,3:2:0:0:
266,323,92741,2,0,P|225:286|176:261,1,110.403336690267,2|8,3:2|3:2,2:0:0:0:
311,19,93007,6,0,B|288:25|288:25|283:111,1,110.616003356934,2|0,2:0|3:2,2:0:0:0:
266,323,93272,1,8,3:0:0:0:
362,76,93405,5,10,3:2:0:0:
243,248,93538,1,8,3:2:0:0:
215,47,93670,5,10,3:2:0:0:
343,302,93803,1,8,3:0:0:0:
422,18,93936,1,4,3:0:0:0:
76,102,94069,6,0,P|126:185|144:280,1,195.112657740276,6|0,3:2|2:0,2:0:0:0:
143,306,94334,1,0,3:2:0:0:
266,90,94467,6,0,P|211:85|162:61,1,110.403336690267,14|0,3:2|2:0,2:0:0:0:
263,340,94732,1,6,3:2:0:0:
177,293,94865,1,2,3:2:0:0:
244,347,94998,2,0,P|274:301|320:271,1,110.403336690267,8|2,3:2|2:0,2:0:0:0:
72,129,95263,5,0,3:2:0:0:
202,180,95396,1,0,3:2:0:0:
13,308,95529,2,0,P|59:338|89:384,1,110.403336690267,14|0,3:2|2:0,2:0:0:0:
254,0,95794,6,0,L|262:129,1,130.727994049073,6|6,3:2|3:2,2:0:0:0:
283,384,96060,1,8,3:2:0:0:
498,164,96192,6,0,B|425:127|395:239|324:220,1,195.112657740276,6|0,3:2|2:0,2:0:0:0:
298,215,96458,1,2,3:2:0:0:
0,0,96591,6,0,P|41:65|101:122,1,165.095338368734,10|0,3:2|2:0,2:0:0:0:
121,140,96856,1,2,3:2:0:0:
48,177,96989,1,2,3:2:0:0:
121,140,97122,1,12,3:2:0:0:
162,384,97254,5,2,2:0:0:0:
55,363,97387,1,4,3:2:0:0:
262,164,97520,1,6,3:2:0:0:
297,265,97653,1,12,3:2:0:0:
22,188,97785,5,2,2:0:0:0:
92,105,97918,1,4,3:2:0:0:
101,182,98051,1,6,3:2:0:0:
17,110,98184,1,8,3:2:0:0:
438,17,98316,6,0,B|479:34|479:34|447:264,1,260.476654764812,4|0,3:2|3:2,2:0:0:0:
240,274,98715,6,0,L|261:166,1,110.403336690267,8|0,1:2|2:0,2:0:0:0:
308,372,98980,1,0,3:2:0:0:
240,274,99113,1,0,3:2:0:0:
211,384,99246,5,8,1:2:0:0:
327,249,99378,1,0,2:0:0:0:
149,312,99511,1,0,3:2:0:0:
402,358,99644,1,0,3:2:0:0:
156,66,99776,6,0,B|196:105|196:105|250:91,1,110.403336690267,10|0,1:2|2:0,2:0:0:0:
70,297,100042,2,0,B|83:242|83:242|46:204,1,110.403336690267,2|0,3:2|3:2,2:0:0:0:
314,256,100307,2,0,B|260:271|260:271|245:323,1,110.403336690267,10|0,1:2|3:2,2:0:0:0:
409,53,100573,5,10,3:2:0:0:
384,145,100706,1,0,3:2:0:0:
342,84,100838,1,4,2:0:0:0:
449,116,100971,1,2,3:2:0:0:
105,188,101104,5,10,3:0:0:0:
80,96,101237,1,4,3:0:0:0:
147,127,101369,1,8,3:2:0:0:
40,159,101502,1,0,3:2:0:0:
193,369,101635,5,10,3:0:0:0:
161,272,101768,1,4,3:0:0:0:
350,272,101900,5,10,3:0:0:0:
318,369,102033,1,4,3:0:0:0:
256,0,102166,6,2,L|256:70,1,70.0906666666667,10|0,3:2|2:0,2:1:0:0:
266,56,102697,6,0,B|275:130|275:130|261:162,1,110.403336690268,6|0,3:2|3:2,2:0:0:0:
107,235,103095,1,0,3:2:0:0:
96,220,103228,2,0,P|149:215|189:250,1,110.403336690268,12|0,3:2|3:2,2:0:0:0:
198,343,103626,1,0,3:2:0:0:
209,328,103759,1,4,3:2:0:0:
209,328,104024,6,0,L|263:321,1,55.2016683451335,2|0,3:2|2:0,2:0:0:0:
132,306,104290,2,0,L|110:356,1,55.2016683451335,14|0,3:2|2:0,2:0:0:0:
189,250,104555,2,0,L|155:206,1,55.2016683451335,2|0,3:2|2:0,2:0:0:0:
28,117,104821,6,0,P|20:90|18:63,1,55.2016683451335,6|0,3:2|2:0,2:0:0:0:
122,137,105086,2,0,P|129:110|131:83,1,55.2016683451335,2|0,3:2|2:0,2:0:0:0:
238,63,105352,2,0,P|240:90|248:117,1,55.2016683451335,14|0,3:2|2:0,2:0:0:0:
351,83,105617,2,0,P|349:110|342:137,1,55.2016683451335,2|0,3:2|2:0,2:0:0:0:
407,229,105883,6,0,B|376:227|376:227|331:242|331:242|300:239,1,110.403336690268,6|0,3:2|3:2,2:0:0:0:
391,332,106281,1,0,3:2:0:0:
380,317,106414,2,0,P|433:312|473:347,1,110.403336690268,14|0,3:2|3:2,2:0:0:0:
283,373,106812,1,0,3:2:0:0:
294,358,106945,6,0,B|219:349|219:349|188:363,1,110.403336690268,6|0,3:2|3:2,2:0:0:0:
116,257,107343,1,0,3:2:0:0:
131,246,107476,2,0,P|135:299|100:339,1,110.403336690268,12|0,3:2|3:2,2:0:0:0:
31,218,107874,1,0,3:2:0:0:
16,207,108007,1,4,3:2:0:0:
16,207,108272,6,0,P|27:181|43:159,1,55.2016683451335,2|0,3:2|2:0,2:0:0:0:
38,41,108538,2,0,P|54:62|65:87,1,55.2016683451335,14|0,3:2|2:0,2:0:0:0:
171,142,108803,2,0,P|143:145|116:142,1,55.2016683451335,2|0,3:2|2:0,2:0:0:0:
179,1,109069,6,0,L|170:55,1,55.2016683451335,6|0,3:2|2:0,2:0:0:0:
275,1,109334,2,0,L|283:55,1,55.2016683451335,2|0,3:2|2:0,2:0:0:0:
275,196,109599,2,0,L|283:141,1,55.2016683451335,14|0,3:2|2:0,2:0:0:0:
179,196,109865,2,0,L|170:141,1,55.2016683451335,2|0,3:2|2:0,2:0:0:0:
72,268,110130,6,0,P|125:263|165:298,1,110.403336690268,6|0,3:2|3:2,2:0:0:0:
231,372,110529,1,2,3:2:0:0:
246,383,110661,2,0,B|254:316,1,55.2016683451336,12|0,3:2|2:0,2:0:0:0:
320,368,110927,2,0,B|328:301,1,55.2016683451335,2|0,3:2|2:0,2:0:0:0:
382,186,111192,6,0,B|351:184|351:184|306:199|306:199|275:196,1,110.403336690268,4|0,3:2|3:2,2:0:0:0:
212,102,111591,1,0,3:2:0:0:
201,87,111723,2,0,P|254:82|294:117,1,110.403336690267,12|0,3:2|3:2,2:0:0:0:
153,201,112122,1,0,3:2:0:0:
164,186,112254,1,4,3:2:0:0:
164,186,112520,6,0,L|109:190,1,55.2016683451335,2|0,3:2|2:0,2:0:0:0:
53,108,112785,2,0,L|107:103,1,55.2016683451335,14|0,3:2|2:0,2:0:0:0:
149,12,113051,2,0,L|94:16,1,55.2016683451335,2|0,3:2|2:0,2:0:0:0:
201,87,113316,6,0,P|221:68|234:44,1,55.2016683451335,6|0,3:2|2:0,2:0:0:0:
371,146,113582,2,0,P|350:127|337:103,1,55.2016683451335,2|0,3:2|2:0,2:0:0:0:
206,93,113847,2,0,P|226:74|239:50,1,55.2016683451335,14|0,3:2|2:0,2:0:0:0:
366,152,114113,2,0,P|345:133|332:109,1,55.2016683451335,2|0,3:2|2:0,2:0:0:0:
181,219,114378,6,0,P|234:214|274:249,1,110.403336690268,6|0,3:2|3:2,2:0:0:0:
322,373,114776,1,2,3:2:0:0:
337,384,114909,2,0,B|351:273,1,110.403336690268,12|2,3:2|3:2,2:0:0:0:
484,252,115307,1,0,3:2:0:0:
469,263,115440,6,0,B|460:188|460:188|474:157,1,110.403336690268,6|0,3:2|3:2,2:0:0:0:
356,56,115838,1,0,3:2:0:0:
371,45,115971,2,0,B|380:120|380:120|366:151,1,110.403336690268,12|2,3:2|3:2,2:0:0:0:
480,53,116369,1,0,3:2:0:0:
465,42,116502,2,0,B|424:48|424:48|386:35,1,82.5953358510337,4|0,3:2|2:0,2:0:0:0:
371,45,116768,6,0,L|363:99,1,55.2016683451335,2|0,3:2|2:0,2:0:0:0:
443,213,117033,2,0,L|399:179,1,55.2016683451335,14|0,3:2|2:0,2:0:0:0:
261,191,117299,2,0,L|311:170,1,55.2016683451335,2|0,3:2|2:0,2:0:0:0:
458,224,117564,6,0,P|460:252|468:278,1,55.2016683451335,6|0,3:2|2:0,2:0:0:0:
338,247,117830,2,0,P|346:221|349:194,1,55.2016683451335,2|0,3:2|2:0,2:0:0:0:
218,225,118095,2,0,P|220:253|228:279,1,55.2016683451335,14|0,3:2|2:0,2:0:0:0:
77,247,118361,2,0,P|85:221|88:194,1,55.2016683451335,2|0,3:2|2:0,2:0:0:0:
40,56,118626,5,14,3:2:0:0:
55,45,118892,1,8,3:0:0:0:
53,58,118958,1,4,3:0:0:0:
52,72,119024,1,8,3:0:0:0:
51,86,119091,1,4,3:0:0:0:
49,99,119157,5,8,3:0:0:0:
123,124,119290,1,4,3:0:0:0:
14,170,119422,1,8,3:0:0:0:
158,195,119555,1,4,3:0:0:0:
71,354,119688,6,0,B|62:279|62:279|76:248,1,110.403336690268,6|0,3:2|3:2,2:0:0:0:
226,342,120086,1,0,3:2:0:0:
241,331,120219,2,0,P|200:295|147:300,1,110.403336690268,12|0,3:2|3:2,2:0:0:0:
247,222,120617,1,0,3:2:0:0:
232,211,120750,1,4,3:2:0:0:
232,211,121015,6,0,P|232:183|240:157,1,55.2016683451335,2|0,3:2|2:0,2:0:0:0:
276,275,121281,2,0,P|299:289|318:308,1,55.2016683451335,14|0,3:2|2:0,2:0:0:0:
199,280,121546,2,0,P|175:293|148:299,1,55.2016683451335,2|0,3:2|2:0,2:0:0:0:
109,191,121812,6,0,L|100:265,1,55.2016683451335,6|0,3:2|2:0,2:0:0:0:
2,118,122077,2,0,L|8:63,1,55.2016683451335,2|0,3:2|2:0,2:0:0:0:
19,208,122343,2,0,L|25:262,1,55.2016683451335,14|0,3:2|2:0,2:0:0:0:
92,101,122608,2,0,L|83:27,1,55.2016683451335,2|0,3:2|2:0,2:0:0:0:
263,99,122874,6,0,P|223:134|169:130,1,110.403336690268,6|0,3:2|3:2,2:0:0:0:
355,32,123272,1,0,3:2:0:0:
370,21,123405,2,0,B|379:96|379:96|365:127,1,110.403336690268,14|0,3:2|3:2,2:0:0:0:
456,264,123803,1,0,3:2:0:0:
471,253,123936,6,0,B|440:251|440:251|395:266|395:266|364:263,1,110.403336690267,6|0,3:2|3:2,2:0:0:0:
216,334,124334,1,0,3:2:0:0:
201,323,124467,2,0,B|232:321|232:321|277:336|277:336|308:333,1,110.403336690267,12|0,3:2|3:2,2:0:0:0:
324,194,124865,1,0,3:2:0:0:
313,179,124998,1,4,3:2:0:0:
313,179,125263,6,0,L|249:173,1,55.2016683451335,2|0,3:2|2:0,2:0:0:0:
165,241,125529,2,0,L|219:245,1,55.2016683451335,14|0,3:2|2:0,2:0:0:0:
299,328,125794,2,0,L|244:323,1,55.2016683451335,2|0,3:2|2:0,2:0:0:0:
28,220,126060,6,0,P|43:196|48:169,1,55.2016683451335,6|0,3:2|2:0,2:0:0:0:
105,113,126325,2,0,P|120:136|125:163,1,55.2016683451336,2|0,3:2|2:0,2:0:0:0:
38,299,126591,2,0,P|65:292|88:277,1,55.2016683451335,14|0,3:2|2:0,2:0:0:0:
116,33,126856,2,0,P|143:39|166:54,1,55.2016683451336,2|0,3:2|2:0,2:0:0:0:
313,179,127122,5,6,3:2:0:0:
307,204,127387,1,8,3:2:0:0:
301,230,127653,1,12,3:2:0:0:
419,275,127918,5,2,3:2:0:0:
423,292,128051,1,0,3:2:0:0:
427,309,128184,6,0,B|352:300|352:300|321:314,1,110.403336690268,4|0,3:2|3:2,2:0:0:0:
205,220,128582,1,0,3:2:0:0:
194,235,128715,2,0,B|269:244|269:244|300:230,1,110.403336690268,12|0,3:2|3:2,2:0:0:0:
382,53,129113,1,0,3:2:0:0:
393,38,129246,2,0,B|399:79|399:79|386:117,1,82.5953358510337,4|0,3:2|2:0,2:0:0:0:
404,136,129511,6,0,L|463:127,1,55.2016683451335,2|0,3:2|2:0,2:0:0:0:
414,206,129776,2,0,L|473:197,1,55.2016683451335,14|0,3:2|2:0,2:0:0:0:
424,276,130042,2,0,L|483:267,1,55.2016683451335,2|0,3:2|2:0,2:0:0:0:
325,357,130307,6,0,B|294:355|294:355|249:370|249:370|218:367,1,110.403336690268,6|0,3:2|3:2,2:0:0:0:
122,258,130706,1,2,3:2:0:0:
107,247,130838,2,0,L|115:183,1,55.2016683451335,12|0,3:2|2:0,2:0:0:0:
236,293,131104,2,0,L|227:229,1,55.2016683451335,2|0,3:2|2:0,2:0:0:0:
218,67,131369,6,0,P|271:62|311:98,1,110.403336690268,6|0,3:2|3:2,2:0:0:0:
114,192,131768,1,2,3:2:0:0:
99,181,131900,2,0,L|107:117,1,55.2016683451335,12|0,3:2|2:0,2:0:0:0:
210,12,132166,2,0,L|217:66,1,55.2016683451335,2|0,3:2|2:0,2:0:0:0:
332,307,132431,6,0,B|341:232|341:232|327:201,1,110.403336690268,6|0,3:2|3:2,2:0:0:0:
389,57,132830,1,0,3:2:0:0:
404,68,132962,2,0,P|363:104|310:99,1,110.403336690267,8|0,1:2|3:2,2:0:0:0:
179,36,133361,1,0,3:2:0:0:
190,51,133493,5,6,3:2:0:0:
115,257,133759,1,2,3:2:0:0:
321,332,134024,1,14,3:2:0:0:
396,126,134290,1,2,3:2:0:0:
256,192,134555,1,10,3:2:0:0:
454,75,136679,6,0,B|380:22|290:84|338:111|294:151|230:156,1,240.035992675781,6|0,3:2|3:2,2:0:0:0:
182,129,137489,1,0,3:2:0:0:
182,129,137760,6,0,L|189:202,1,60.1199981689452,8|0,3:2|2:0,2:0:0:0:
96,90,138030,1,0,3:2:0:0:
188,50,138165,1,8,3:2:0:0:
85,2,138300,2,0,P|57:11|31:25,1,60.1199981689452,0|0,3:2|2:0,2:0:0:0:
20,159,138570,1,0,3:2:0:0:
25,172,138638,1,0,3:2:0:0:
23,187,138706,1,0,3:2:0:0:
28,200,138773,1,0,3:2:0:0:
28,200,138841,6,0,P|87:210|139:238,1,120.239996337891,8|0,3:2|3:2,2:0:0:0:
252,129,139381,1,0,3:2:0:0:
252,129,139651,1,0,3:2:0:0:
384,310,139922,6,0,L|374:387,1,60.1199981689452,8|0,3:2|2:0,2:0:0:0:
279,200,140192,1,0,3:2:0:0:
350,230,140327,1,8,3:2:0:0:
224,280,140462,2,0,P|194:274|167:261,1,60.1199981689452,0|0,3:2|2:0,2:0:0:0:
174,63,140733,1,0,3:2:0:0:
169,76,140800,1,0,3:2:0:0:
171,91,140868,1,0,3:2:0:0:
169,105,140935,1,0,3:2:0:0:
169,105,141003,6,0,B|296:57|291:168|411:153,1,240.035992675781,14|0,3:2|3:2,2:0:0:0:
432,90,141814,1,0,3:2:0:0:
495,236,142084,6,0,L|488:301,1,60.1199981689452,8|0,3:2|2:0,2:0:0:0:
363,210,142354,1,0,3:2:0:0:
427,171,142489,1,8,3:2:0:0:
481,213,142624,1,0,3:2:0:0:
346,91,142895,1,0,3:2:0:0:
351,104,142962,1,0,3:2:0:0:
349,119,143030,1,0,3:2:0:0:
355,132,143097,1,0,3:2:0:0:
355,132,143165,6,0,B|244:84|107:155|87:290,1,360.359989013672,12|0,3:2|3:2,2:0:0:0:
71,121,144246,5,10,3:2:0:0:
71,121,144516,1,0,3:2:0:0:
137,82,144651,1,10,3:2:0:0:
345,42,144787,5,8,3:2:0:0:
403,98,144922,1,8,3:0:0:0:
336,133,145057,1,4,3:0:0:0:
447,210,145192,5,4,3:0:0:0:
300,365,145327,5,12,3:2:0:0:
300,365,145597,1,0,3:2:0:0:
160,320,145868,6,0,P|138:275|146:227,1,100.2,2|0,3:2|3:2,2:0:0:0:
352,160,146408,2,0,P|374:205|366:253,1,100.2,2|0,3:2|3:2,2:0:0:0:
238,76,146949,5,10,3:2:0:0:
256,0,147219,1,0,3:2:0:0:
256,0,147287,1,0,3:2:0:0:
256,0,147354,1,0,3:2:0:0:
256,0,147422,1,0,3:2:0:0:
256,0,147489,5,8,3:2:0:0:
238,76,147760,1,0,3:2:0:0:
128,320,148030,6,0,P|106:275|114:227,1,100.2,2|0,3:2|3:2,2:0:0:0:
384,160,148570,2,0,P|406:205|398:253,1,100.2,2|0,3:2|3:2,2:0:0:0:
238,76,149111,5,2,3:2:0:0:
256,0,149381,1,0,3:2:0:0:
256,0,149449,1,0,3:2:0:0:
256,0,149516,1,0,3:2:0:0:
256,0,149584,1,0,3:2:0:0:
256,0,149651,5,8,3:2:0:0:
238,76,149922,1,0,3:2:0:0:
96,320,150192,6,0,P|74:275|82:227,1,100.2,2|0,3:2|3:2,2:0:0:0:
416,160,150733,2,0,P|438:205|430:253,1,99.8299999999999,2|0,3:2|3:2,2:0:0:0:
238,76,151273,5,2,3:2:0:0:
256,0,151543,1,0,3:2:0:0:
256,0,151611,1,0,3:2:0:0:
256,0,151678,1,0,3:2:0:0:
256,0,151746,1,0,3:2:0:0:
256,0,151814,5,8,3:2:0:0:
238,76,152084,1,0,3:2:0:0:
64,320,152354,6,0,P|42:275|50:227,1,100.2,2|8,3:2|3:2,2:0:0:0:
49,227,152895,1,10,3:2:0:0:
49,227,153165,5,8,3:2:0:0:
4,161,153300,1,8,3:2:0:0:
133,185,153435,5,10,3:2:0:0:
126,74,153570,1,8,3:2:0:0:
214,232,153706,5,8,3:2:0:0:
297,87,153841,1,8,3:2:0:0:
333,295,153976,6,0,P|332:320|329:345,1,50.0499999999999,12|0,3:2|3:2,2:0:0:0:
452,247,154246,2,0,P|452:222|455:197,1,50.0499999999999,8|0,3:2|3:2,2:0:0:0:
275,191,154516,2,0,P|323:202|373:200,1,100.1,10|8,3:2|3:2,2:0:0:0:
427,125,154922,1,0,3:2:0:0:
240,57,155057,6,0,L|232:121,1,65.0649970245362,10|0,3:2|3:2,2:0:0:0:
182,256,155327,2,0,L|174:192,1,65.0649970245362,8|0,3:2|3:2,2:0:0:0:
80,83,155597,2,0,P|20:104|0:163,1,130.129994049073,10|8,3:2|3:2,2:0:0:0:
80,83,156003,1,0,3:2:0:0:
18,248,156138,6,0,B|60:240|60:240|90:261,1,80.0799999999999,8|0,3:2|3:2,2:0:0:0:
304,134,156408,2,0,B|261:141|261:141|231:120,1,80.0799999999999,8|0,3:2|3:2,2:0:0:0:
143,10,156678,2,0,L|147:169,1,160.16,10|8,3:2|3:2,2:0:0:0:
204,331,157084,1,0,3:2:0:0:
204,331,157219,6,0,P|215:325|226:319,3,25.0866666666666,10|0|0|0,3:2|3:2|3:2|3:2,2:0:0:0:
298,360,157489,6,0,P|304:345|308:329,3,32.6126651789347,8|0|0|0,3:2|3:2|3:2|3:2,2:0:0:0:
391,314,157760,6,0,P|384:294|375:277,3,40.1386666666666,10|0|0|0,3:2|3:2|3:2|3:2,2:0:0:0:
429,213,158030,6,0,P|408:200|385:193,3,47.6646653982798,8|0|0|0,3:2|3:2|3:2|3:2,2:0:0:0:
266,95,158300,5,10,3:2:0:0:
288,80,158368,1,0,3:2:0:0:
315,76,158435,1,0,3:2:0:0:
342,83,158503,1,0,3:2:0:0:
362,101,158570,1,8,3:2:0:0:
378,132,158638,1,0,3:2:0:0:
378,166,158706,1,0,3:2:0:0:
362,196,158773,1,0,3:2:0:0:
333,214,158841,5,8,3:2:0:0:
298,190,158908,1,0,3:2:0:0:
258,185,158976,1,0,3:2:0:0:
219,200,159043,1,0,3:2:0:0:
190,232,159111,1,8,3:2:0:0:
179,278,159178,1,0,3:2:0:0:
196,326,159246,1,0,3:2:0:0:
235,357,159314,1,0,3:2:0:0:
287,359,159381,5,8,3:2:0:0:
302,304,159449,1,0,3:2:0:0:
292,248,159516,1,0,3:2:0:0:
256,205,159584,1,0,3:2:0:0:
203,185,159651,1,8,3:2:0:0:
139,201,159719,1,0,3:2:0:0:
92,247,159787,1,0,3:2:0:0:
85,311,159854,1,0,3:2:0:0:
114,369,159922,5,8,3:2:0:0:
187,367,159989,1,0,3:2:0:0:
248,328,160057,1,0,3:2:0:0:
284,264,160124,1,0,3:2:0:0:
282,190,160192,1,8,3:2:0:0:
238,123,160260,1,0,3:2:0:0:
165,89,160327,1,0,3:2:0:0:
85,100,160395,1,0,3:2:0:0:
23,151,160462,5,8,3:2:0:0:
36,26,161543,5,2,2:0:0:0:
108,64,161682,1,2,2:0:0:0:
33,34,161822,2,0,P|32:59|32:84,1,50.1916666666666,2|0,2:0|2:0,2:0:0:0:
209,169,162101,5,2,2:0:0:0:
139,251,162240,1,2,2:0:0:0:
122,165,162380,5,2,2:0:0:0:
222,258,162519,1,2,2:0:0:0:
428,11,162624,6,0,B|371:-15|299:46|348:52|276:113|219:87,1,240.399999999999,14|0,3:2|3:2,2:0:0:0:
248,13,163174,1,6,2:0:0:0:
387,99,163312,1,0,2:0:0:0:
363,24,163449,1,2,3:2:0:0:
219,87,163587,1,0,3:2:0:0:
242,160,163724,6,0,P|170:175|84:166,1,160.266666666666,14|0,3:2|2:0,2:0:0:0:
230,316,164137,1,2,2:0:0:0:
230,316,164275,2,0,P|247:280|273:249,1,80.1333333333333,4|0,3:2|2:0,2:0:0:0:
66,246,164550,2,0,P|96:271|109:393,1,160.266666666666,2|4,2:0|2:0,2:0:0:0:
23,62,165101,5,2,3:2:0:0:
90,16,165238,1,0,2:0:0:0:
188,170,165376,1,6,2:0:0:0:
119,124,165513,1,0,2:0:0:0:
23,278,165651,1,2,3:2:0:0:
90,232,165789,1,0,3:2:0:0:
218,326,165926,6,0,B|297:307|289:371|359:382,1,160.133333333333,14|0,3:2|3:2,2:0:0:0:
303,254,166339,1,2,3:2:0:0:
436,256,166477,2,0,P|407:283|372:302,1,80.1333333333333,12|0,3:2|2:0,2:0:0:0:
445,43,166752,5,10,3:2:0:0:
512,0,166890,1,8,3:2:0:0:
446,61,167027,6,0,P|395:134|315:192,1,160.266666666666,6|2,3:2|2:0,2:0:0:0:
499,161,167440,1,0,3:2:0:0:
437,269,167578,1,6,3:2:0:0:
474,331,167715,1,0,2:0:0:0:
334,309,167853,1,2,3:2:0:0:
339,381,167990,1,0,2:0:0:0:
223,281,168128,6,0,B|156:262|142:336|68:341,1,160.266666666666,14|0,3:2|2:0,2:0:0:0:
178,196,168541,1,2,2:0:0:0:
76,246,168679,2,0,P|78:206|76:166,1,80.1333333333333,4|0,3:2|2:0,2:0:0:0:
261,183,168954,2,0,P|258:222|265:356,1,160.266666666666,2|4,2:0|3:2,2:0:0:0:
262,42,169504,5,8,3:0:0:0:
266,53,169573,1,8,3:0:0:0:
263,64,169642,1,4,3:0:0:0:
268,78,169711,1,4,3:0:0:0:
268,78,169779,1,12,3:0:0:0:
197,53,170055,1,0,3:2:0:0:
133,91,170330,6,0,P|103:164|105:243,1,160.133333333333,10|0,3:1|3:2,2:0:0:0:
106,244,170880,6,2,B|116:244|127:240|127:240|137:243|137:243|146:243|155:243,14,50.0314285714285,10|0|0|0|0|0|0|0|0|0|0|0|0|0|0,3:2|2:0|2:0|2:0|2:0|2:0|2:0|2:0|2:0|2:0|2:0|2:0|2:0|2:0|2:0,2:1:0:0:
98,262,171431,6,0,B|165:243|179:317|253:322,1,160.266666666666,6|2,3:2|2:0,2:0:0:0:
117,332,171844,1,0,3:2:0:0:
27,242,171981,2,0,P|18:281|15:321,1,80.1333333333333,4|0,2:0|2:0,2:0:0:0:
82,112,172257,1,2,3:2:0:0:
27,153,172394,1,0,3:2:0:0:
234,216,172532,6,0,B|244:174|244:174|231:139,1,80.3573333333333,4|0,3:1|2:0,2:0:0:0:
326,13,172807,1,8,3:2:0:0:
392,57,172945,2,0,B|380:99|380:99|393:132,1,80.3573333333333,2|4,2:0|2:1,2:0:0:0:
394,133,173357,1,2,3:2:0:0:
295,257,173495,1,0,2:0:0:0:
493,355,173633,6,0,P|431:304|387:237,1,160.266666666666,4|2,3:2|2:0,2:0:0:0:
512,273,174046,1,0,3:2:0:0:
316,384,174183,2,0,P|328:346|348:311,1,80.1333333333333,6|0,3:2|2:0,2:0:0:0:
149,320,174458,2,0,P|175:349|195:384,1,80.1333333333333,2|0,3:2|3:2,2:0:0:0:
269,227,174734,6,0,B|258:239|258:239|194:240,1,80.3573333333333,6|0,3:2|2:0,2:0:0:0:
269,227,175009,1,8,3:2:0:0:
339,150,175146,1,2,2:0:0:0:
467,280,175284,2,0,B|478:294|478:294|474:355,1,80.3573333333333,12|0,3:2|2:0,2:0:0:0:
403,199,175559,1,2,3:2:0:0:
442,138,175697,1,0,2:0:0:0:
387,42,175835,6,0,P|307:62|217:49,1,160.266666666666,6|2,3:2|2:0,2:0:0:0:
339,150,176247,1,0,3:2:0:0:
191,198,176385,2,0,P|222:172|249:143,1,80.1333333333333,6|0,3:2|2:0,2:0:0:0:
263,332,176660,1,2,3:2:0:0:
200,288,176798,1,0,2:0:0:0:
15,311,176935,6,0,B|90:291|90:358|159:362,1,160.266666666666,6|8,3:2|3:2,2:0:0:0:
186,106,177348,1,2,2:0:0:0:
249,143,177486,2,0,B|173:123|173:190|104:194,2,160.266666666666,4|2|4,2:1|2:0|3:2,2:0:0:0:
333,323,178312,5,8,3:0:0:0:
352,329,178380,1,8,3:0:0:0:
370,319,178449,1,4,3:0:0:0:
392,328,178518,1,4,3:0:0:0:
392,328,178587,2,0,L|225:332,1,160.133333333333,4|0,3:2|3:2,2:0:0:0:
404,191,179137,5,10,3:2:0:0:
417,193,179206,1,0,3:2:0:0:
431,189,179275,1,0,3:2:0:0:
442,192,179344,1,0,3:2:0:0:
459,190,179412,1,10,3:2:0:0:
470,193,179481,1,0,3:2:0:0:
485,189,179550,1,0,3:2:0:0:
497,192,179619,1,0,3:2:0:0:
497,192,179688,5,14,3:2:0:0:
426,189,179757,5,2,3:3:0:0:
356,192,179825,5,2,3:2:0:0:
287,195,179894,5,2,3:3:0:0:
218,192,179963,5,10,3:2:0:0:
148,189,180032,5,2,3:3:0:0:
79,192,180101,5,2,3:2:0:0:
12,195,180169,5,2,3:3:0:0:
12,195,180238,6,0,P|82:192|153:196,1,142.141992849732,14|0,3:2|3:2,2:0:0:0:
236,233,180508,1,10,3:2:0:0:
512,86,180643,2,0,B|387:53|415:166|301:170,1,240.479992675781,2|2,3:2|3:2,2:0:0:0:
367,8,181048,1,10,3:2:0:0:
429,57,181183,1,2,2:0:0:0:
359,42,181319,5,2,3:2:0:0:
151,92,181454,1,0,3:2:0:0:
234,136,181589,5,10,3:2:0:0:
441,186,181724,1,2,3:2:0:0:
359,232,181859,5,2,2:0:0:0:
151,282,181994,1,0,3:2:0:0:
234,328,182129,5,8,3:2:0:0:
441,378,182265,1,0,2:0:0:0:
393,304,182400,5,6,3:2:0:0:
423,372,182535,1,2,3:2:0:0:
416,296,182670,1,10,3:2:0:0:
396,373,182805,1,2,3:2:0:0:
119,80,182940,5,2,2:0:0:0:
89,12,183075,1,0,3:2:0:0:
96,88,183210,1,10,3:2:0:0:
116,11,183346,1,0,2:0:0:0:
10,86,183481,5,2,3:2:0:0:
252,0,183616,1,0,3:2:0:0:
303,210,183751,5,10,3:2:0:0:
86,133,183886,1,0,3:2:0:0:
13,324,184021,5,2,2:0:0:0:
206,255,184156,1,0,3:2:0:0:
263,384,184292,5,8,3:2:0:0:
94,330,184427,1,0,2:0:0:0:
311,250,184562,6,0,P|320:309|315:368,1,120.239996337891,6|0,3:2|3:2,2:0:0:0:
451,200,184832,1,10,3:2:0:0:
201,134,184967,6,0,P|191:74|196:15,1,120.239996337891,0|2,3:2|2:0,2:0:0:0:
61,184,185238,1,2,3:2:0:0:
311,250,185373,6,0,P|320:309|315:368,1,120.239996337891,10|2,3:2|2:0,2:0:0:0:
399,283,185643,5,2,3:2:0:0:
437,62,185778,1,0,3:2:0:0:
378,215,185913,5,10,3:2:0:0:
381,7,186048,1,0,3:2:0:0:
143,16,186183,5,2,2:0:0:0:
137,226,186319,1,0,3:2:0:0:
78,73,186454,5,8,3:2:0:0:
116,294,186589,1,0,2:0:0:0:
445,278,186724,6,0,P|478:228|488:169,1,120.239996337891,6|0,3:2|3:2,2:0:0:0:
294,383,186994,1,10,3:2:0:0:
231,270,187129,2,0,B|356:237|328:350|442:354,1,240.239992675781,2|2,3:2|3:2,2:0:0:0:
353,192,187535,1,10,3:2:0:0:
294,234,187670,1,2,2:0:0:0:
53,93,187805,5,2,3:2:0:0:
27,258,187940,1,0,3:2:0:0:
167,350,188075,5,10,3:2:0:0:
193,185,188210,1,0,3:2:0:0:
442,46,188346,5,2,2:0:0:0:
468,211,188481,1,2,3:2:0:0:
328,303,188616,5,10,3:2:0:0:
302,138,188751,1,2,3:2:0:0:
484,234,188886,5,14,3:2:0:0:
301,329,189021,1,2,3:2:0:0:
484,234,189156,1,0,3:2:0:0:
244,75,189292,5,10,3:2:0:0:
427,129,189427,1,0,3:2:0:0:
244,75,189562,1,0,3:2:0:0:
255,383,189697,5,14,3:2:0:0:
255,383,189832,1,2,3:2:0:0:
178,260,189967,5,14,3:2:0:0:
288,156,190102,1,0,3:2:0:0:
166,86,190238,1,2,3:2:0:0:
163,286,190373,5,8,3:2:0:0:
313,150,190508,1,2,3:2:0:0:
154,60,190643,1,0,3:2:0:0:
255,383,190778,5,12,3:2:0:0:
255,383,190913,1,0,3:2:0:0:
426,109,191048,5,14,3:2:0:0:
382,298,191183,1,0,3:2:0:0:
426,109,191319,1,2,3:2:0:0:
110,125,191454,5,8,3:2:0:0:
153,328,191589,1,2,3:2:0:0:
110,125,191724,1,0,3:2:0:0:
255,383,191859,5,14,3:2:0:0:
255,383,191994,1,0,3:2:0:0:
211,228,192129,5,14,3:2:0:0:
346,152,192265,1,0,3:2:0:0:
225,98,192400,1,2,3:2:0:0:
201,244,192535,5,8,3:2:0:0:
420,131,192670,1,2,3:2:0:0:
187,22,192805,1,0,3:2:0:0:
255,383,192940,6,0,L|255:363,1,20.464,8|8,3:2|3:2,2:0:0:0:
255,383,193075,1,0,3:2:0:0:
16,162,193210,5,6,3:2:0:0:
178,242,193346,1,8,3:2:0:0:
311,189,193481,1,2,1:2:0:0:
325,82,193616,1,0,3:2:0:0:
276,28,193751,5,14,3:2:0:0:
180,77,193886,1,0,3:2:0:0:
145,216,194021,1,2,1:2:0:0:
232,325,194156,1,8,3:2:0:0:
412,306,194292,5,6,3:2:0:0:
434,147,194427,1,8,3:2:0:0:
399,301,194562,1,2,3:2:0:0:
447,153,194697,1,0,3:2:0:0:
201,324,194832,5,14,3:2:0:0:
154,143,194967,1,0,3:2:0:0:
418,328,195102,5,10,3:2:0:0:
494,89,195237,1,12,3:2:0:0:
198,306,195373,5,6,3:2:0:0:
257,14,195508,1,8,3:2:0:0:
330,299,195643,1,0,3:2:0:0:
139,73,195778,1,8,3:2:0:0:
408,192,195913,1,6,3:2:0:0:
113,200,196048,1,8,3:2:0:0:
376,65,196183,1,0,3:2:0:0:
198,306,196319,1,8,3:2:0:0:
257,14,196454,5,2,3:2:0:0:
258,17,196521,1,0,3:2:0:0:
257,25,196589,1,0,3:2:0:0:
257,32,196656,1,0,3:2:0:0:
256,44,196724,1,0,3:2:0:0:
257,55,196792,1,0,3:2:0:0:
255,70,196859,1,0,3:2:0:0:
257,85,196927,1,0,3:2:0:0:
254,104,196994,5,10,3:3:0:0:
258,127,197062,1,8,3:0:0:0:
251,153,197129,1,8,3:0:0:0:
258,184,197197,1,8,3:0:0:0:
249,219,197265,1,4,3:0:0:0:
261,256,197332,1,4,3:0:0:0:
245,297,197400,1,4,3:0:0:0:
261,341,197467,1,4,3:0:0:0:
261,341,197535,6,0,B|150:305|171:377|71:377,3,200.115555555556,14|0|4|4,3:2|1:2|3:2|3:2,2:0:0:0:
72,377,198596,6,0,L|72:334,3,40.0211111111111,8|6|6|6,3:2|2:0|2:0|2:0,2:0:0:0:
72,337,200720,2,0,L|72:294,1,40.0713333333334,14|6,3:2|2:0,2:0:0:0:
72,296,201782,6,0,B|31:245|31:245|43:111,3,200.115555555556,4|0|4|0,3:2|3:2|3:2|3:2,2:0:0:0:
43,110,202844,6,0,L|43:67,4,40.0148333333334,14|6|6|6|2,3:2|2:0|2:0|2:0|2:0,2:0:0:0:
43,110,205322,5,0,3:2:0:0:
40,107,205411,1,0,3:2:0:0:
37,104,205499,1,8,3:2:0:0:
109,76,205765,1,0,3:2:0:0:
403,76,206030,6,0,P|492:111|507:207,3,200.115555555556,4|0|4|0,3:2|3:2|3:2|3:2,2:0:0:0:
507,205,207092,6,0,L|507:248,3,40.0211111111111,8|6|6|6,1:2|2:0|2:0|2:0,2:0:0:0:
507,245,209216,2,0,L|507:288,1,40.0713333333334,8|4,3:2|3:2,2:0:0:0:
507,285,210278,6,0,B|439:277|439:277|386:314|386:314|319:306,3,200.115555555556,4|0|4|0,3:2|3:2|3:2|3:2,2:0:0:0:
319,306,211340,6,0,L|319:349,4,40.0168333333334,8|6|6|6|6,1:2|2:0|2:0|2:0|2:0,2:0:0:0:
319,346,213729,5,8,3:0:0:0:
301,349,213796,1,4,3:0:0:0:
284,344,213862,1,10,3:2:0:0:
267,351,213928,1,8,3:2:0:0:
267,351,213995,1,8,3:2:0:0:
196,375,214260,1,2,3:2:0:0:
34,190,214526,6,0,B|65:188|65:188|110:203|110:203|141:200,1,110.403336690268,6|0,3:2|3:2,2:0:0:0:
207,76,214924,1,0,3:2:0:0:
217,89,215057,2,0,P|164:85|124:120,1,110.403336690268,4|0,3:2|3:2,2:0:0:0:
299,176,215455,1,0,3:2:0:0:
309,163,215588,1,12,3:2:0:0:
309,163,215853,6,0,L|317:217,1,55.2016683451335,2|0,3:2|2:0,2:0:0:0:
401,232,216119,2,0,L|368:276,1,55.2016683451335,6|0,3:2|2:0,2:0:0:0:
416,345,216384,2,0,L|361:353,1,55.2016683451335,2|0,3:2|2:0,2:0:0:0:
206,315,216650,6,0,L|260:323,1,55.2016683451335,6|0,3:2|2:0,2:0:0:0:
195,244,216915,2,0,L|249:252,1,55.2016683451335,2|0,3:2|2:0,2:0:0:0:
76,340,217181,2,0,L|21:348,1,55.2016683451335,6|0,3:2|2:0,2:0:0:0:
87,269,217446,2,0,L|32:277,1,55.2016683451335,2|0,3:2|2:0,2:0:0:0:
184,173,217711,6,0,B|193:97|193:97|179:66,1,110.403336690268,14|0,3:2|3:2,2:0:0:0:
73,109,218110,1,0,3:2:0:0:
63,122,218242,2,0,P|89:114|116:118,1,55.2016683451335,6|0,3:2|2:0,2:0:0:0:
30,280,218508,1,8,3:2:0:0:
28,261,218641,1,8,3:2:0:0:
26,242,218773,6,0,B|12:273|12:273|21:349,2,110.196170023601,6|4|4,3:2|3:2|3:2,2:0:0:0:
26,242,219570,1,0,3:2:0:0:
182,364,219835,2,0,B|195:326|195:326|189:285,1,82.5953358510337,12|0,3:2|2:0,2:0:0:0:
204,260,220101,6,0,L|258:251,1,55.2016683451335,2|0,3:2|2:0,2:0:0:0:
126,325,220366,2,0,L|105:376,1,55.2016683451335,6|0,3:2|2:0,2:0:0:0:
108,224,220632,1,2,3:2:0:0:
96,212,220765,1,4,3:0:0:0:
84,200,220897,6,0,B|86:169|86:169|71:124|71:124|74:93,1,110.403336690268,6|2,3:2|3:2,2:0:0:0:
239,168,221296,1,0,3:2:0:0:
229,181,221428,2,0,P|202:134|151:119,1,110.403336690267,6|2,3:2|3:2,2:0:0:0:
204,260,221959,6,0,L|258:253,1,55.2016683451335,6|0,3:2|2:0,2:0:0:0:
371,312,222225,1,8,3:2:0:0:
376,327,222358,1,10,3:2:0:0:
382,343,222490,2,0,L|327:336,1,55.2016683451335,8|0,3:0|2:0,2:0:0:0:
321,163,222756,1,2,3:2:0:0:
316,178,222888,1,4,3:0:0:0:
310,194,223021,6,0,B|386:185|386:185|417:199,2,110.196170023601,6|4|4,3:2|3:2|3:2,2:0:0:0:
310,194,223818,1,0,3:2:0:0:
109,260,224083,2,0,B|96:222|96:222|102:181,1,82.5953358510337,12|0,3:2|2:0,2:0:0:0:
87,156,224349,6,0,L|33:147,1,55.2016683451335,2|0,3:2|2:0,2:0:0:0:
169,219,224614,2,0,L|190:270,1,55.2016683451335,6|0,3:2|2:0,2:0:0:0:
183,117,224880,2,0,L|217:74,1,55.2016683451335,2|0,3:2|2:0,2:0:0:0:
362,6,225145,6,0,L|350:59,1,55.2016683451335,6|0,3:2|2:0,2:0:0:0:
433,39,225411,2,0,L|421:92,1,55.2016683451335,2|0,3:2|2:0,2:0:0:0:
241,138,225676,2,0,L|266:186,1,55.2016683451335,6|0,3:2|2:0,2:0:0:0:
179,187,225942,2,0,L|204:235,1,55.2016683451335,2|0,3:2|2:0,2:0:0:0:
359,329,226207,6,0,P|332:282|281:267,1,110.403336690268,14|0,3:2|3:2,2:0:0:0:
119,384,226738,2,0,L|105:256,1,110.201670023601,6|0,3:2|3:2,2:0:0:0:
126,103,227269,6,0,P|143:297|325:367,1,412.738345921835,6|0,3:2|2:0,2:0:0:0:
327,368,228331,5,8,1:2:0:0:
294,4,228596,1,2,3:2:0:0:
106,316,228862,1,6,3:2:0:0:
442,174,229127,1,2,3:2:0:0:
86,91,229393,1,10,3:2:0:0:
217,78,231517,5,14,3:2:0:0:
278,37,231583,1,0,3:2:0:0:
353,37,231650,1,0,3:2:0:0:
413,80,231716,1,0,3:2:0:0:
439,149,231782,1,8,3:2:0:0:
427,223,231849,1,0,3:2:0:0:
371,271,231915,1,0,3:2:0:0:
298,282,231981,1,0,3:2:0:0:
229,253,232048,5,8,3:2:0:0:
186,193,232114,1,0,3:2:0:0:
113,176,232181,1,0,3:2:0:0:
47,210,232247,1,0,3:2:0:0:
21,279,232313,1,8,3:2:0:0:
52,347,232380,1,0,3:2:0:0:
120,375,232446,1,0,3:2:0:0:
189,350,232512,1,0,3:2:0:0:
226,284,232579,6,0,P|227:164|226:44,1,239.999992675781,14|0,1:2|0:0,0:0:0:0:
281,0,232977,6,0,P|294:25|296:58,1,62.5,2|0,2:0|2:0,2:0:0:0:
