osu file format v14

[General]
AudioFilename: audio.mp3
AudioLeadIn: 0
PreviewTime: 26050
Countdown: 0
SampleSet: Soft
StackLeniency: 0.6
Mode: 0
LetterboxInBreaks: 0
WidescreenStoryboard: 1

[Editor]
DistanceSpacing: 1
BeatDivisor: 4
GridSize: 32
TimelineZoom: 2.2

[Metadata]
Title:King For A Day (feat. Kellin Quinn)
TitleUnicode:King For A Day (feat. Kellin Quinn)
Artist:Pierce The Veil
ArtistUnicode:Pierce The Veil
Creator:attendant
Version:Normal
Source:
Tags:collide with the sky alternative metal punk post hardcore sleeping sirens english
BeatmapID:2326725
BeatmapSetID:1074059

[Difficulty]
HPDrainRate:3
CircleSize:3
OverallDifficulty:4
ApproachRate:6
SliderMultiplier:1
SliderTickRate:1

[Events]
//Background and Video events
0,0,"bg.jpg",0,0
Video,1988,"video.mp4"
//Break Periods
2,41304,42166
2,60286,63284
2,68782,76027
2,85773,88771
2,134755,135617
2,145527,151845
2,160662,161543
2,198796,199670
2,203044,204272
2,207292,208166
2,211540,212679
2,229593,230455
//Storyboard Layer 0 (Background)
//Storyboard Layer 1 (Fail)
//Storyboard Layer 2 (Pass)
//Storyboard Layer 3 (Foreground)
//Storyboard Layer 4 (Overlay)
//Storyboard Sound Samples

[TimingPoints]
8981,265.486725663717,4,2,1,80,1,0
9113,-125,4,2,1,80,0,0
9246,265.486725663717,4,2,4,80,1,0
9378,-100,4,2,21,80,0,0
9511,-100,4,2,4,80,0,0
9644,-125,4,2,4,80,0,0
11237,-125,4,2,1,80,0,0
11502,-125,4,2,21,80,0,0
11635,-125,4,2,4,80,0,0
13361,-125,4,2,1,80,0,0
13626,-125,4,2,21,80,0,0
13759,-125,4,2,1,80,0,0
15750,-125,4,2,21,80,0,0
15882,-125,4,2,1,80,0,0
17874,-125,4,2,21,80,0,0
18006,-125,4,2,4,80,0,0
19732,-125,4,2,1,80,0,0
19998,-125,4,2,21,80,0,0
20130,-125,4,2,4,80,0,0
21856,-125,4,2,1,90,0,0
22122,-125,4,2,21,90,0,0
22254,-125,4,2,1,90,0,0
22520,-125,4,2,3,90,0,0
23051,-125,4,2,1,90,0,0
23582,-125,4,2,2,90,0,0
24113,-125,4,2,1,90,0,0
24378,-125,4,2,2,90,0,0
24644,-125,4,2,3,90,0,0
24909,-125,4,2,2,90,0,0
26104,-125,4,2,7,90,0,0
26502,-125,4,2,2,90,0,0
26767,-125,4,2,5,90,0,0
28228,-125,4,2,7,90,0,0
28626,-125,4,2,2,90,0,0
28892,-125,4,2,21,90,0,0
29156,-125,4,2,5,90,0,0
30352,-125,4,2,1,90,0,0
31148,-125,4,2,21,90,0,0
31281,-125,4,2,1,90,0,0
31812,-125,4,2,5,90,0,0
32476,-125,4,2,7,90,0,0
32741,-125,4,2,21,90,0,0
32874,-125,4,2,4,90,0,0
33538,-125,4,2,5,90,0,0
33803,-125,4,2,2,90,0,0
34201,-125,4,2,4,90,0,0
34334,-125,4,2,2,90,0,0
34599,-125,4,2,1,90,0,0
34865,-125,4,2,21,90,0,0
34997,-125,4,2,2,90,0,0
35263,-125,4,2,5,90,0,0
36723,-125,4,2,7,90,0,0
36989,-125,4,2,21,90,0,0
37121,-125,4,2,1,90,0,0
37652,-125,4,2,4,90,0,0
38847,-125,4,2,1,90,0,0
39046,-125,4,2,1,5,0,0
39113,-125,4,2,1,90,0,0
39246,-125,4,2,22,90,0,0
39511,-125,4,2,21,90,0,0
39776,-125,4,2,4,90,0,0
43228,-125,4,2,1,80,0,1
43493,-125,4,2,21,80,0,1
43758,-125,4,2,2,80,0,1
47476,-125,4,2,1,80,0,1
47741,-125,4,2,21,80,0,1
48006,-125,4,2,2,80,0,1
51723,-125,4,2,1,80,0,1
51989,-125,4,2,21,80,0,1
52253,-125,4,2,2,80,0,1
55971,-125,4,2,1,80,0,1
56237,-125,4,2,21,80,0,1
56501,-125,4,2,2,80,0,1
59422,-125,4,2,21,80,0,1
59555,-125,4,2,2,80,0,1
59688,-125,4,2,2,80,0,0
60085,-125,4,2,1,80,0,0
64334,-125,4,2,7,90,0,0
64599,-125,4,2,21,90,0,0
64732,-125,4,2,1,90,0,0
66723,-125,4,2,21,90,0,0
66856,-125,4,2,4,90,0,0
68449,-125,4,2,2,90,0,0
68582,-125,4,2,1,70,0,0
77077,-125,4,2,6,80,0,0
77343,-125,4,2,21,80,0,0
77475,-125,4,2,4,80,0,0
79201,-125,4,2,1,80,0,0
79467,-125,4,2,21,80,0,0
79599,-125,4,2,4,80,0,0
81325,-125,4,2,1,80,0,0
81591,-125,4,2,21,80,0,0
81723,-125,4,2,4,80,0,0
83449,-125,4,2,6,90,0,0
83847,-125,4,2,4,90,0,0
84112,-125,4,2,1,90,0,0
84378,-125,4,2,2,90,0,0
84644,-125,4,2,4,90,0,0
84909,-125,4,2,3,90,0,0
85175,-125,4,2,2,90,0,0
85573,-125,4,2,1,90,0,0
89821,-125,4,2,6,90,0,0
90086,-125,4,2,21,90,0,0
90219,-125,4,2,1,90,0,0
90617,-125,4,2,21,90,0,0
90750,-125,4,2,5,90,0,0
91945,-125,4,2,2,90,0,0
92144,-125,4,2,2,5,0,0
92210,-125,4,2,21,90,0,0
92343,-125,4,2,2,90,0,0
92608,-125,4,2,5,90,0,0
93272,-125,4,2,2,90,0,0
94069,-125,4,2,1,90,0,0
94268,-125,4,2,1,5,0,0
94334,-125,4,2,21,90,0,0
94467,-125,4,2,2,90,0,0
94732,-125,4,2,5,90,0,0
96192,-125,4,2,1,90,0,0
96392,-125,4,2,1,5,0,0
96458,-125,4,2,21,90,0,0
96590,-125,4,2,1,90,0,0
97121,-125,4,2,5,90,0,0
98316,-125,4,2,1,90,0,0
98582,-125,4,2,21,90,0,0
98714,-125,4,2,4,90,0,0
100838,-125,4,2,21,90,0,0
101103,-125,4,2,1,90,0,0
102697,-125,4,2,1,80,0,1
102962,-125,4,2,21,80,0,1
103227,-125,4,2,2,80,0,1
106945,-125,4,2,1,80,0,1
107210,-125,4,2,21,80,0,1
107475,-125,4,2,2,80,0,1
111192,-125,4,2,1,80,0,1
111458,-125,4,2,21,80,0,1
111722,-125,4,2,2,80,0,1
115440,-125,4,2,1,80,0,1
115706,-125,4,2,21,80,0,1
115970,-125,4,2,2,80,0,1
118626,-125,4,2,2,80,0,0
119688,-125,4,2,1,80,0,1
119953,-125,4,2,21,80,0,1
120218,-125,4,2,2,80,0,1
123405,-125,4,2,1,80,0,1
124201,-125,4,2,21,80,0,1
124466,-125,4,2,2,80,0,1
128184,-125,4,2,1,80,0,1
128449,-125,4,2,21,80,0,1
128714,-125,4,2,2,80,0,1
132431,-125,4,2,1,80,0,1
132697,-125,4,2,21,80,0,1
132961,-125,4,2,4,80,0,1
134555,-125,4,2,4,80,0,0
136679,270.27027027027,4,2,1,70,1,0
137760,-125,4,2,1,70,0,0
143165,-125,4,2,1,70,0,1
143435,-125,4,2,21,70,0,1
143975,-125,4,2,1,70,0,1
144246,-125,4,2,1,70,0,0
153976,-125,4,2,1,50,0,0
154787,-125,4,2,22,50,0,0
155056,-125,4,2,1,55,0,0
155327,-125,4,2,22,55,0,0
155597,-125,4,2,1,55,0,0
156138,-125,4,2,1,60,0,0
156949,-125,4,2,22,60,0,0
157218,-125,4,2,1,65,0,0
157489,-125,4,2,22,65,0,0
157759,-125,4,2,1,65,0,0
159381,-125,4,2,1,85,0,0
160462,-125,4,2,1,100,0,0
161543,279.06976744186,4,2,1,100,1,0
162624,275.229357798165,4,2,1,80,1,0
162624,-125,4,2,1,80,0,0
163173,-125,4,2,2,80,0,0
164275,-125,4,2,21,80,0,0
164550,-125,4,2,2,80,0,0
170915,-125,4,2,10,80,0,0
171430,-125,4,2,1,80,0,0
171981,-125,4,2,2,80,0,0
172532,-125,4,2,1,80,0,0
172807,-125,4,2,22,80,0,0
173082,-125,4,2,24,80,0,0
173357,-125,4,2,1,80,0,0
173633,-125,4,2,2,80,0,0
175009,-125,4,2,22,80,0,0
175559,-125,4,2,2,80,0,0
177211,-125,4,2,22,80,0,0
177486,-125,4,2,24,80,0,0
178036,-125,4,2,3,80,0,0
178312,-125,4,2,2,80,0,0
179688,-111.111111111111,4,2,2,100,0,0
179722,-111.111111111111,4,2,10,100,0,0
179963,-111.111111111111,4,2,22,100,0,0
179997,-111.111111111111,4,2,10,100,0,0
180100,-111.111111111111,4,2,2,100,0,0
180238,270.27027027027,4,2,6,90,1,0
180508,-100,4,2,1,90,0,0
180643,-125,4,2,1,90,0,0
189967,-125,4,2,2,90,0,0
191048,-125,4,2,1,90,0,0
191859,-125,4,2,2,90,0,0
192129,-125,4,2,1,90,0,0
193481,-125,4,2,4,90,0,0
193751,-125,4,2,2,90,0,0
194021,-125,4,2,4,90,0,0
194292,-125,4,2,3,90,0,0
194832,-125,4,2,5,90,0,0
195102,-125,4,2,2,90,0,0
195373,-125,4,2,1,90,0,0
195913,-125,4,2,2,90,0,0
197535,265.486725663717,4,2,6,80,1,0
197535,-125,4,2,6,80,0,0
197800,-125,4,2,4,80,0,0
198065,-125,4,2,2,80,0,0
198331,-125,4,2,3,80,0,0
198596,-125,4,2,3,60,0,0
200720,-125,4,2,1,60,0,0
201782,-125,4,2,1,80,0,0
202312,-125,4,2,2,80,0,0
202844,-125,4,2,4,60,0,0
206030,-125,4,2,1,80,0,0
206560,-125,4,2,2,80,0,0
207092,-125,4,2,4,60,0,0
210278,-125,4,2,1,80,0,0
210808,-125,4,2,2,80,0,0
211340,-125,4,2,4,60,0,0
213729,-125,4,2,2,60,0,0
214526,-125,4,2,1,80,0,1
214791,-125,4,2,21,80,0,1
215056,-125,4,2,2,80,0,1
218773,-125,4,2,1,80,0,1
219038,-125,4,2,3,80,0,1
219303,-125,4,2,2,80,0,1
220034,-125,4,2,2,5,0,1
220100,-125,4,2,2,80,0,1
223021,-125,4,2,1,80,0,1
223286,-125,4,2,3,80,0,1
223551,-125,4,2,2,80,0,1
224282,-125,4,2,2,5,0,1
224348,-125,4,2,2,80,0,1
227269,-125,4,2,1,80,0,1
227535,-125,4,2,21,80,0,1
227800,-125,4,2,23,80,0,1
228065,-125,4,2,1,80,0,1
228330,-125,4,2,4,80,0,1
228862,-125,4,2,2,80,0,1
229393,-125,4,2,4,80,0,0
231517,-125,4,2,1,100,0,0
232579,-125,4,2,4,100,0,0

[Colours]
Combo1 : 17,254,176
Combo2 : 173,255,95
Combo3 : 255,88,100
Combo4 : 255,94,55

[HitObjects]
135,40,9113,6,0,L|254:29,1,120,6|12,3:2|3:2,2:0:0:0:
284,54,9644,2,0,L|363:60,1,80.2933333333334,2|2,2:0|3:2,2:0:0:0:
438,32,10175,1,2,2:0:0:0:
489,95,10440,1,2,3:2:0:0:
441,159,10706,2,0,L|359:137,1,80.1466666666667,2|2,2:0|3:2,2:0:0:0:
325,208,11237,6,0,L|197:219,1,120.138666666666,6|14,3:2|3:2,2:0:0:0:
155,156,11900,2,0,L|115:152,1,40.2973333333334,2|2,3:2|3:2,2:0:0:0:
75,148,12166,1,14,3:2:0:0:
40,222,12431,1,2,3:2:0:0:
40,222,12564,2,0,L|46:301,1,80.2933333333334,2|2,3:2|2:0,2:0:0:0:
95,365,13095,2,0,L|134:368,1,40.1466666666667,2|12,3:2|3:2,2:0:0:0:
168,345,13361,6,0,P|227:351|287:346,1,120.138666666666,6|10,3:2|3:2,2:0:0:0:
325,335,13892,1,2,1:2:0:0:
385,282,14157,2,0,L|423:292,2,40.1466666666668,2|10|2,1:2|3:2|1:2,2:0:0:0:
364,204,14688,1,2,1:2:0:0:
393,129,14953,1,2,1:2:0:0:
366,53,15219,2,0,L|325:46,1,40.1466666666667,2|8,3:2|3:2,2:0:0:0:
291,65,15484,6,0,L|172:85,1,120.138666666666,6|10,3:2|3:2,2:0:0:0:
121,146,16148,2,0,L|116:185,1,40.1466666666667,2|2,3:2|1:2,2:0:0:0:
138,219,16414,2,0,L|142:258,1,40.1466666666667,10|2,3:2|1:2,2:0:0:0:
127,295,16679,1,2,3:2:0:0:
190,344,16945,1,10,3:2:0:0:
269,334,17210,2,0,L|274:295,2,40.1466666666668,8|8|4,3:2|3:0|3:0,2:0:0:0:
300,359,17608,6,0,P|359:353|419:361,1,120.138666666666,6|14,3:2|3:2,2:0:0:0:
486,317,18272,2,0,L|491:228,1,80.1466666666667,0|8,3:2|1:2,2:0:0:0:
449,168,18803,2,0,L|444:79,1,80.1466666666667,0|8,3:2|1:2,2:0:0:0:
364,101,19334,2,0,P|325:103|285:97,1,80.1466666666667,0|12,3:2|3:2,2:0:0:0:
247,86,19732,6,0,P|210:149|214:222,1,120.138666666666,6|14,3:2|3:2,2:0:0:0:
241,267,20396,2,0,L|320:276,1,80.1466666666667,0|8,3:2|1:2,2:0:0:0:
387,231,20927,2,0,L|466:221,1,80.1466666666667,0|8,3:2|1:2,2:0:0:0:
452,143,21458,2,0,P|451:103|441:64,1,80.1466666666667,0|12,3:2|3:2,2:0:0:0:
403,50,21856,6,0,P|344:49|291:77,1,120.138666666666,6|8,3:2|3:2,2:0:0:0:
239,138,22520,2,0,L|242:217,1,80.1466666666667,14|8,3:2|3:2,2:0:0:0:
276,290,23051,2,0,L|355:293,1,80.1466666666667,14|8,3:2|3:2,2:0:0:0:
425,253,23582,2,0,L|428:174,1,80.1466666666667,14|8,3:2|3:2,2:0:0:0:
349,155,24113,6,0,L|309:148,1,40.1466666666667,14|0,3:2|3:2,2:0:0:0:
277,171,24378,2,0,L|237:177,1,40.1466666666667,12|0,3:2|3:2,2:0:0:0:
199,161,24644,2,0,P|203:121|210:81,1,80.2933333333334,12|12,3:2|3:2,2:0:0:0:
253,13,25175,1,8,3:2:0:0:
325,47,25440,2,0,P|364:53|404:50,1,80.1466666666667,8|8,3:2|3:2,2:0:0:0:
512,0,26104,5,14,3:2:0:0:
510,119,26502,2,0,P|508:167|511:198,2,80.1466666666667,14|6|10,3:2|3:2|3:2,2:0:0:0:
452,62,27299,2,0,P|412:61|372:62,1,80.2933333333334,2|14,3:2|3:2,2:0:0:0:
296,71,27830,1,6,3:2:0:0:
296,71,27962,2,0,L|248:75,1,40.1466666666667,6|8,3:2|3:2,2:0:0:0:
215,81,28228,5,14,3:2:0:0:
104,128,28626,2,0,B|116:220|81:182|97:285,1,160.293333333333,10|10,3:2|3:2,2:0:0:0:
158,347,29422,1,2,3:2:0:0:
158,347,29555,2,0,L|212:339,1,40.1466666666667,2|12,3:2|3:2,2:0:0:0:
233,359,29821,1,2,2:0:0:0:
312,353,30086,1,6,3:2:0:0:
364,292,30352,6,0,L|366:212,1,80.1466666666667,6|2,3:2|3:2,2:0:0:0:
316,149,30883,2,0,P|256:141|197:149,1,120.138666666666,2|8,2:0|3:2,2:0:0:0:
134,204,31546,1,2,3:2:0:0:
53,209,31812,1,14,3:2:0:0:
23,140,32077,1,6,3:2:0:0:
23,140,32210,2,0,L|24:101,1,40.1466666666667,6|8,3:2|3:2,2:0:0:0:
56,75,32476,6,0,P|115:71|175:76,1,120.138666666666,14|8,3:2|3:2,2:0:0:0:
214,85,33007,1,6,2:0:0:0:
293,85,33272,1,2,3:2:0:0:
373,84,33538,1,6,2:0:0:0:
424,145,33803,2,0,L|423:224,1,80.2933333333334,8|8,3:0|3:2,2:0:0:0:
410,265,34201,1,14,3:2:0:0:
410,265,34334,1,12,3:0:0:0:
341,306,34599,6,0,L|219:310,1,120.069333333333,6|14,3:2|3:2,0:0:0:0:
226,233,35263,1,6,3:2:0:0:
226,233,35396,2,0,P|234:173|229:113,1,120.069333333333,2|2,3:2|3:2,2:0:0:0:
149,108,36060,1,10,3:2:0:0:
73,111,36325,1,6,3:2:0:0:
73,111,36458,2,0,L|71:150,1,40.1466666666667,6|8,3:2|3:2,2:0:0:0:
53,186,36723,6,0,P|53:245|50:305,1,120.138666666666,14|10,3:2|3:2,2:0:0:0:
123,350,37387,1,2,3:2:0:0:
123,350,37520,2,0,L|188:345,1,40.1466666666667,2|12,3:2|3:2,2:0:0:0:
202,345,37785,1,2,2:0:0:0:
282,340,38051,1,2,3:2:0:0:
361,333,38316,2,0,P|364:293|363:253,1,80.2933333333334,2|2,2:0|3:2,2:0:0:0:
314,196,38847,1,4,3:2:0:0:
314,196,38980,6,0,P|202:228|155:334,1,240.277333333334,2|12,2:0|3:2,2:0:0:0:
311,365,40307,2,0,P|350:369|390:364,2,80.1466666666667,14|2|14,3:2|3:2|3:2,2:0:0:0:
250,311,41104,1,14,3:2:0:0:
168,109,43228,6,0,P|247:103|327:109,1,160.285333333333,6|14,3:2|3:2,2:0:0:0:
413,244,44290,1,4,3:2:0:0:
386,319,44555,1,2,3:2:0:0:
310,345,44821,2,0,P|270:346|230:344,1,80.2933333333334,14|2,3:2|3:2,2:0:0:0:
176,284,45352,2,0,P|175:244|177:204,1,80.2933333333334,6|2,3:2|3:2,2:0:0:0:
237,150,45883,2,0,P|277:149|317:151,1,80.2933333333334,14|2,3:2|3:2,2:0:0:0:
375,205,46414,1,6,3:2:0:0:
313,352,46945,1,14,3:2:0:0:
216,224,47476,6,0,B|120:213|155:263|62:255,1,160.285333333333,6|12,3:2|3:2,2:0:0:0:
22,101,48538,1,4,3:2:0:0:
86,51,48803,1,2,3:2:0:0:
165,31,49069,2,0,L|264:39,1,80.2933333333334,14|2,3:2|3:2,2:0:0:0:
301,94,49599,2,0,L|400:86,1,80.2933333333334,6|2,3:2|3:2,2:0:0:0:
440,140,50130,2,0,L|434:219,1,80.2933333333334,14|2,3:2|3:2,2:0:0:0:
467,292,50661,1,6,3:2:0:0:
346,295,51060,1,2,3:2:0:0:
226,296,51458,1,2,3:2:0:0:
177,231,51723,6,0,P|170:152|180:73,1,160.285333333333,4|12,3:2|3:2,2:0:0:0:
21,91,52785,1,4,3:2:0:0:
12,171,53051,1,2,3:2:0:0:
11,250,53316,2,0,P|12:289|9:329,1,80.2933333333334,14|2,3:2|3:2,2:0:0:0:
84,360,53847,2,0,L|193:366,1,80.2933333333334,6|2,3:2|3:2,2:0:0:0:
225,313,54378,2,0,L|334:307,1,80.2933333333334,14|2,3:2|3:2,2:0:0:0:
384,314,54909,1,6,3:2:0:0:
382,194,55307,1,2,3:2:0:0:
380,73,55706,1,2,3:2:0:0:
317,23,55971,6,0,P|259:18|153:26,1,160.285333333333,6|12,3:2|3:2,2:0:0:0:
160,186,57033,1,4,3:2:0:0:
241,189,57299,1,2,3:2:0:0:
321,188,57564,2,0,P|360:193|400:189,1,80.2933333333334,14|2,3:2|3:2,2:0:0:0:
441,257,58095,2,0,L|439:348,1,80.2933333333334,6|2,3:2|3:2,2:0:0:0:
371,380,58626,1,14,3:2:0:0:
290,376,58892,1,2,3:2:0:0:
226,327,59157,2,0,P|166:333|106:328,1,120.138666666666,6|2,3:2|3:2,2:0:0:0:
67,318,59688,1,8,3:2:0:0:
17,255,59953,2,0,P|15:235|16:215,1,40.1466666666667,10|4,3:2|3:1,2:0:0:0:
92,114,64334,6,0,P|151:106|210:114,1,120.138666666666,14|8,3:2|3:2,2:0:0:0:
242,139,64865,2,0,L|321:140,1,80.2933333333334,2|2,2:0|2:0,2:0:0:0:
368,205,65396,2,0,L|366:284,1,80.2933333333334,2|2,2:0|2:0,2:0:0:0:
257,333,66060,1,0,3:2:0:0:
257,333,66192,2,0,L|208:339,1,40.1466666666668,0|8,3:2|3:2,2:0:0:0:
182,317,66458,6,0,L|34:316,1,120.138666666666,4|12,3:2|3:2,2:0:0:0:
33,288,66989,1,2,2:0:0:0:
55,211,67254,1,2,2:0:0:0:
131,185,67520,1,2,2:0:0:0:
238,236,67918,2,0,L|335:237,2,80,8|8|4,3:2|3:2|3:3,2:0:0:0:
214,268,68582,1,4,3:2:0:0:
257,281,77077,6,0,L|382:289,1,120.138666666666,12|12,3:2|3:2,2:0:0:0:
412,271,77608,1,2,2:0:0:0:
455,203,77874,2,0,L|457:142,1,40.1466666666667,2|12,3:2|3:2,2:0:0:0:
434,129,78139,2,0,L|435:32,1,80.2933333333334,2|2,2:0|2:0,2:0:0:0:
357,70,78670,2,0,P|297:66|237:71,1,120.138666666666,2|14,2:0|3:2,2:0:0:0:
203,92,79201,6,0,L|70:94,1,120.138666666666,6|14,3:2|3:2,2:0:0:0:
50,117,79732,1,2,2:0:0:0:
47,197,79998,1,2,2:0:0:0:
71,273,80263,2,0,P|110:279|149:276,1,80.1466666666667,2|2,2:0|2:0,2:0:0:0:
225,250,80794,2,0,L|228:123,1,120.138666666666,2|12,2:0|3:2,2:0:0:0:
267,129,81325,6,0,P|326:132|386:130,1,120.138666666666,4|14,3:2|3:2,2:0:0:0:
420,152,81856,1,2,2:0:0:0:
445,228,82122,1,2,2:0:0:0:
431,306,82387,2,0,L|347:325,1,80.1466666666667,2|2,2:0|2:0,2:0:0:0:
271,315,82918,1,2,2:0:0:0:
255,236,83184,2,0,L|258:156,1,80.2933333333334,2|12,3:2|3:2,2:0:0:0:
262,116,83582,5,2,2:0:0:0:
210,54,83847,2,0,P|172:50|130:52,1,80.2933333333334,12|14,1:2|3:2,2:0:0:0:
62,95,84378,1,12,3:2:0:0:
62,175,84644,1,14,1:2:0:0:
67,254,84909,1,12,3:2:0:0:
101,326,85175,2,0,P|139:330|181:328,1,80.2933333333334,14|4,3:2|3:0,2:0:0:0:
220,325,85573,1,6,3:1:0:0:
238,107,89821,6,0,P|240:166|236:226,1,120.138666666666,14|8,3:2|3:2,2:0:0:0:
202,248,90352,2,0,L|68:244,1,120.138666666666,2|8,2:0|3:2,2:0:0:0:
96,85,91281,1,10,3:2:0:0:
167,45,91546,1,6,3:2:0:0:
167,45,91679,2,0,L|207:45,1,40.1466666666667,6|8,3:2|3:2,2:0:0:0:
240,67,91945,6,0,P|299:71|359:68,1,120.138666666666,6|10,3:2|3:2,2:0:0:0:
419,130,92608,1,6,3:2:0:0:
419,130,92741,2,0,L|417:169,1,40.1466666666667,2|8,3:2|3:2,2:0:0:0:
402,207,93007,2,0,P|362:204|322:206,1,80.2933333333334,2|8,2:0|3:0,2:0:0:0:
288,228,93405,1,10,3:2:0:0:
246,296,93670,2,0,L|245:335,1,40.1466666666667,10|12,3:2|3:0,2:0:0:0:
317,370,94069,6,0,P|376:372|436:370,1,120.138666666666,6|14,3:2|3:2,2:0:0:0:
479,304,94732,1,6,3:2:0:0:
479,304,94865,2,0,L|479:264,1,40.1466666666667,2|8,3:2|3:2,2:0:0:0:
487,184,95263,1,0,3:2:0:0:
491,103,95529,1,14,3:2:0:0:
450,41,95794,1,6,3:2:0:0:
450,41,95927,2,0,L|390:41,1,40.1466666666667,6|8,3:2|3:2,2:0:0:0:
374,60,96192,6,0,P|315:56|255:61,1,120.138666666666,6|10,3:2|3:2,2:0:0:0:
191,108,96856,1,2,3:2:0:0:
191,108,96989,2,0,L|188:170,1,40.1466666666667,2|12,3:2|3:2,2:0:0:0:
188,188,97254,1,2,2:0:0:0:
146,256,97520,1,6,3:2:0:0:
67,268,97785,1,2,2:0:0:0:
5,216,98051,2,0,L|7:156,1,40.1466666666667,6|8,3:2|3:2,2:0:0:0:
32,146,98316,6,0,P|91:148|142:187,1,120.138666666666,4|12,3:2|3:2,2:0:0:0:
166,258,98980,2,0,L|245:262,1,80.2933333333334,0|12,3:2|3:2,2:0:0:0:
312,217,99511,2,0,L|391:212,1,80.2933333333334,0|14,3:2|3:2,2:0:0:0:
461,172,100042,1,2,3:2:0:0:
461,92,100307,1,14,3:2:0:0:
405,33,100573,6,0,P|325:40|246:35,1,160.285333333333,10|10,3:2|3:0,2:0:0:0:
100,106,101635,1,10,3:0:0:0:
77,182,101900,1,10,3:0:0:0:
101,258,102166,1,10,3:2:0:0:
255,302,102697,6,0,B|318:284|345:358|402:348,1,160.285333333333,6|12,3:2|3:2,2:0:0:0:
491,215,103759,1,4,3:2:0:0:
467,138,104024,1,2,3:2:0:0:
398,94,104290,2,0,P|359:98|319:94,1,80.2933333333334,14|2,3:2|3:2,2:0:0:0:
253,140,104821,2,0,P|213:135|173:139,1,80.2933333333334,6|2,3:2|3:2,2:0:0:0:
125,203,105352,2,0,L|120:308,1,80.2933333333334,14|2,3:2|3:2,2:0:0:0:
60,335,105883,1,6,3:2:0:0:
15,181,106414,1,14,3:2:0:0:
96,43,106945,6,0,P|175:48|255:43,1,160.285333333333,6|12,3:2|3:2,2:0:0:0:
415,57,108007,1,4,3:2:0:0:
452,127,108272,1,2,3:2:0:0:
440,206,108538,2,0,P|437:245|439:285,1,80.2933333333334,14|2,3:2|3:2,2:0:0:0:
377,336,109069,2,0,P|337:333|297:335,1,80.2933333333334,6|2,3:2|3:2,2:0:0:0:
247,273,109599,2,0,P|249:233|247:193,1,80.2933333333334,14|2,3:2|3:2,2:0:0:0:
225,116,110130,1,6,3:2:0:0:
106,137,110529,1,2,3:2:0:0:
72,252,110927,1,2,3:2:0:0:
90,329,111192,6,0,P|169:337|248:329,1,160.285333333333,4|12,3:2|3:2,2:0:0:0:
367,221,112254,1,4,3:2:0:0:
359,141,112520,1,2,3:2:0:0:
299,87,112785,2,0,L|211:86,1,80.2933333333334,14|2,3:2|3:2,2:0:0:0:
163,144,113316,2,0,L|75:145,1,80.2933333333334,6|2,3:2|3:2,2:0:0:0:
33,207,113847,2,0,P|21:245|18:284,1,80.2933333333334,14|2,3:2|3:2,2:0:0:0:
62,352,114378,1,6,3:2:0:0:
181,348,114776,1,2,3:2:0:0:
301,346,115175,1,2,3:2:0:0:
361,293,115440,6,0,P|367:213|362:133,1,160.285333333333,6|12,3:2|3:2,2:0:0:0:
249,11,116502,1,4,3:2:0:0:
174,41,116768,1,2,3:2:0:0:
163,120,117033,2,0,L|160:231,1,80.2933333333334,14|2,3:2|3:2,2:0:0:0:
198,270,117564,2,0,L|201:381,1,80.2933333333334,6|2,3:2|3:2,2:0:0:0:
274,379,118095,2,0,P|313:381|353:376,1,80.2933333333334,14|2,3:2|3:2,2:0:0:0:
414,324,118626,1,14,3:2:0:0:
459,257,118892,2,0,L|459:217,1,40.1466666666667,8|8,3:0|3:0,2:0:0:0:
459,176,119157,1,8,3:0:0:0:
462,96,119422,1,8,3:0:0:0:
410,34,119688,6,0,B|335:19|328:91|263:82,1,160.285333333333,6|12,3:2|3:2,2:0:0:0:
111,32,120750,1,4,3:2:0:0:
47,80,121015,1,2,3:2:0:0:
44,160,121281,2,0,L|44:239,1,80.2933333333334,14|2,3:2|3:2,2:0:0:0:
101,296,121812,2,0,L|180:302,1,80.2933333333334,6|2,3:2|3:2,2:0:0:0:
242,250,122343,2,0,L|321:243,1,80.2933333333334,14|2,3:2|3:2,2:0:0:0:
383,192,122874,1,6,3:2:0:0:
258,91,123405,1,14,3:2:0:0:
148,207,123936,6,0,P|154:289|146:382,1,160.285333333333,6|12,3:2|3:2,2:0:0:0:
13,279,124998,1,4,3:2:0:0:
13,199,125263,1,2,3:2:0:0:
81,157,125529,2,0,L|168:163,1,80.2933333333334,14|2,3:2|3:2,2:0:0:0:
227,117,126060,2,0,L|314:111,1,80.2933333333334,6|2,3:2|3:2,2:0:0:0:
367,163,126591,2,0,P|386:205|390:252,1,80.2933333333334,14|2,3:2|3:2,2:0:0:0:
388,318,127122,1,6,3:2:0:0:
327,370,127387,1,8,3:2:0:0:
254,333,127653,2,0,P|251:294|253:254,1,80.1466666666667,14|2,3:2|3:2,2:0:0:0:
239,175,128184,6,0,P|285:113|361:93,1,160.285333333333,4|12,3:2|3:2,2:0:0:0:
489,190,129246,1,4,3:2:0:0:
477,269,129511,1,2,3:2:0:0:
462,347,129776,2,0,L|374:356,1,80.2933333333334,14|2,3:2|3:2,2:0:0:0:
306,328,130307,1,6,3:2:0:0:
185,329,130706,1,2,3:2:0:0:
65,331,131104,1,2,3:2:0:0:
16,266,131369,2,0,P|12:207|18:147,2,120.069333333333,6|2|2,3:2|3:2|3:2,2:0:0:0:
95,260,132431,6,0,P|174:254|254:260,1,160.285333333333,6|12,3:2|3:2,2:0:0:0:
391,176,133493,1,4,3:2:0:0:
428,106,133759,1,2,3:2:0:0:
405,29,134024,2,0,L|314:16,1,80.1466666666667,14|2,3:2|3:2,2:0:0:0:
258,61,134555,1,14,3:2:0:0:
201,292,136679,5,6,3:2:0:0:
201,291,137760,2,0,P|200:251|201:211,1,80.1599999999998,8|0,3:2|3:2,2:0:0:0:
212,172,138165,1,8,3:2:0:0:
324,212,138570,2,0,P|343:211|363:212,1,40.08,0|0,3:2|3:2,2:0:0:0:
403,218,138841,1,8,3:2:0:0:
456,277,139111,2,0,P|452:316|455:356,2,80.0119999999998,0|0|0,3:2|3:2|3:2,2:0:0:0:
497,208,139922,1,8,3:2:0:0:
466,134,140192,2,0,L|467:86,1,40.08,0|8,3:2|3:2,2:0:0:0:
469,54,140462,1,0,3:2:0:0:
398,16,140733,2,0,P|378:16|358:15,1,40.08,0|0,3:2|3:2,2:0:0:0:
319,10,141003,5,14,3:2:0:0:
319,10,142084,1,8,3:2:0:0:
261,65,142354,2,0,L|260:113,1,40.08,0|8,3:2|3:2,2:0:0:0:
258,145,142624,1,0,3:2:0:0:
307,207,142895,2,0,P|307:226|307:246,1,40.08,0|0,3:2|3:2,2:0:0:0:
283,278,143165,6,0,P|169:287|101:194,1,240.24,12|0,3:2|3:2,2:0:0:0:
100,114,144246,1,10,3:2:0:0:
152,53,144516,2,0,L|209:55,1,40.08,0|10,3:2|3:2,2:0:0:0:
218,84,144787,2,0,L|352:84,1,120.24,8|4,3:2|3:0,2:0:0:0:
374,67,145327,1,12,3:2:0:0:
256,319,152895,5,10,3:2:0:0:
312,261,153165,2,0,L|352:261,1,40.08,8|8,3:2|3:2,2:0:0:0:
377,230,153435,1,10,3:2:0:0:
430,170,153706,1,8,3:2:0:0:
384,102,153976,2,0,P|345:106|305:103,1,80.1599999999998,12|8,3:2|3:2,2:0:0:0:
247,49,154516,6,0,P|175:63|122:152,2,160.024,10|10|10,3:2|3:2|3:2,2:0:0:0:
398,101,156138,1,8,3:2:0:0:
500,223,156678,2,0,L|510:391,2,160.024,10|10|10,3:2|3:2|3:2,2:0:0:0:
256,192,158300,12,8,160462,3:2:0:0:
254,31,162624,6,0,P|250:70|253:110,1,80.1333333333332,4|2,3:2|2:0,2:0:0:0:
256,150,163036,2,0,L|256:208,1,40.0666666666666,0|6,3:2|2:0,2:0:0:0:
259,270,163449,1,2,3:2:0:0:
210,333,163724,2,0,L|79:335,2,120.2,14|2|2,3:2|2:0|2:0,2:0:0:0:
170,178,165101,6,0,L|169:139,1,40.0666666666666,2|0,3:2|2:0,2:0:0:0:
186,101,165376,1,6,2:0:0:0:
263,80,165651,1,2,3:2:0:0:
339,103,165926,2,0,P|335:142|336:182,1,80.1333333333332,14|0,3:2|3:2,2:0:0:0:
353,219,166339,2,4,P|355:238|355:258,1,40.0666666666666,2|12,3:2|3:2,2:0:0:0:
304,320,166752,2,0,L|255:322,1,40.0666666666666,10|8,3:2|3:2,2:0:0:0:
229,301,167027,5,6,3:2:0:0:
149,290,167302,1,2,2:0:0:0:
98,227,167578,2,0,L|98:139,1,80.0666666666666,6|2,3:2|3:2,2:0:0:0:
159,95,168128,2,0,P|218:98|278:95,1,120.2,14|2,3:2|2:0,2:0:0:0:
396,71,168954,2,0,P|418:103|430:141,1,80.1333333333332,2|4,2:0|3:2,2:0:0:0:
451,218,169504,6,0,P|450:237|449:257,1,40.0666666666666,8|4,3:0|3:0,2:0:0:0:
443,297,169779,1,12,3:0:0:0:
389,357,170055,1,0,3:2:0:0:
310,336,170330,2,0,P|271:341|231:335,1,80.1333333333332,10|0,3:1|3:2,2:0:0:0:
172,280,170880,2,2,P|178:202|236:149,1,160.133333333333,10|6,3:2|3:2,2:1:0:0:
242,69,171706,6,0,P|241:50|241:30,1,40.0666666666666,2|0,2:0|3:2,2:0:0:0:
208,6,171981,1,4,2:0:0:0:
128,14,172257,1,2,3:2:0:0:
75,74,172532,2,0,P|78:133|76:196,2,120.1,4|2|2,3:1|2:0|3:2,2:0:0:0:
138,25,173633,5,4,3:2:0:0:
209,62,173908,2,0,P|228:61|248:61,1,40.0666666666666,2|0,2:0|3:2,2:0:0:0:
288,67,174183,1,6,3:2:0:0:
366,50,174458,1,2,3:2:0:0:
437,88,174734,2,0,P|439:148|438:211,2,120.1,6|2|2,3:2|2:0|3:2,2:0:0:0:
369,46,175835,5,6,3:2:0:0:
304,93,176110,2,0,L|305:160,1,40.0666666666666,2|0,2:0|3:2,2:0:0:0:
305,173,176385,1,6,3:2:0:0:
308,252,176660,1,2,3:2:0:0:
269,322,176935,2,0,P|209:325|149:324,2,120.054666666666,6|2|2,3:2|2:0|2:0,2:0:0:0:
275,242,178036,5,4,3:2:0:0:
256,163,178312,2,0,L|254:122,1,40.0666666666666,8|4,3:0|3:0,2:0:0:0:
274,87,178587,1,4,3:2:0:0:
353,75,178862,1,2,3:2:0:0:
399,142,179137,2,0,P|400:161|398:181,1,40.0666666666666,8|0,3:2|3:2,2:0:0:0:
382,218,179412,2,0,P|380:237|381:257,1,40.0666666666666,8|0,3:2|3:2,2:0:0:0:
397,300,179688,2,2,B|377:282|286:282|266:302,1,135.224995880127,14|0,3:2|3:2,2:1:0:0:
238,337,180238,5,14,3:2:0:0:
174,285,180508,1,10,3:2:0:0:
174,285,180643,2,0,L|173:175,1,80.1599999999998,2|2,3:2|3:2,2:0:0:0:
173,165,181048,1,10,3:2:0:0:
238,119,181319,2,0,P|277:121|317:121,1,80.0799999999999,2|10,3:2|3:2,2:0:0:0:
335,199,181859,2,0,L|332:278,1,80.0799999999999,2|10,2:0|3:2,2:0:0:0:
252,285,182400,5,6,3:2:0:0:
186,239,182670,2,0,L|187:199,1,40.08,10|2,3:2|3:2,2:0:0:0:
188,159,182940,1,2,2:0:0:0:
233,93,183210,2,0,L|272:94,1,40.08,10|0,3:2|2:0,2:0:0:0:
306,72,183481,2,0,P|345:75|385:75,1,80.1599999999998,2|10,3:2|3:2,2:0:0:0:
432,139,184021,2,0,P|428:178|430:218,1,80.1599999999998,2|8,2:0|3:2,2:0:0:0:
440,298,184562,5,6,3:2:0:0:
373,343,184832,2,0,P|354:344|334:343,1,40.08,10|0,3:2|3:2,2:0:0:0:
294,340,185102,1,2,2:0:0:0:
232,288,185373,2,0,P|212:286|192:287,1,40.08,10|2,3:2|2:0,2:0:0:0:
152,296,185643,2,0,P|113:298|73:296,1,80.0799999999999,2|10,3:2|3:2,2:0:0:0:
41,222,186183,2,0,P|39:182|42:142,1,80.0799999999999,2|10,2:0|3:2,2:0:0:0:
126,134,186724,5,6,3:2:0:0:
126,134,186859,2,0,L|202:130,1,40.08,0|10,3:2|3:2,2:0:0:0:
205,131,187129,1,2,3:2:0:0:
280,172,187400,1,2,3:2:0:0:
280,172,187535,2,0,L|319:174,1,40.08,10|2,3:2|2:0,2:0:0:0:
359,178,187805,2,0,P|361:138|360:98,1,80.0799999999999,2|10,3:2|3:2,2:0:0:0:
358,17,188346,1,2,2:0:0:0:
278,17,188616,1,10,3:2:0:0:
198,18,188886,6,0,P|193:77|197:137,1,120.24,14|10,3:2|3:2,2:0:0:0:
248,246,189697,2,0,P|248:265|246:285,1,40.08,14|2,3:2|3:2,2:0:0:0:
235,324,189967,1,14,3:2:0:0:
165,365,190238,1,2,3:2:0:0:
115,302,190508,2,0,P|113:262|117:222,1,80.1599999999998,2|12,3:2|3:2,2:0:0:0:
147,148,191048,5,14,3:2:0:0:
223,173,191319,1,2,3:2:0:0:
294,136,191589,2,0,L|296:42,1,80.0799999999999,2|14,3:2|3:2,2:0:0:0:
235,4,192129,2,0,P|195:6|155:2,1,80.1599999999998,14|2,3:2|3:2,2:0:0:0:
85,42,192670,2,0,L|82:141,1,80.1599999999998,2|8,3:2|3:2,2:0:0:0:
27,180,193210,5,6,3:2:0:0:
61,252,193481,1,6,3:2:0:0:
138,272,193751,2,0,P|177:274|217:272,1,80.0799999999999,14|2,3:2|1:2,3:2:0:0:
271,213,194292,1,6,3:2:0:0:
343,180,194562,1,2,3:2:0:0:
412,219,194832,2,0,L|413:302,1,80.0799999999999,14|14,3:2|3:2,2:0:0:0:
352,351,195373,6,0,P|313:356|274:351,1,80.1599999999998,6|0,3:2|3:2,2:0:0:0:
227,285,195913,2,0,P|187:279|148:285,1,80.1599999999998,6|0,3:2|3:2,2:0:0:0:
67,284,196454,2,0,P|51:272|39:256,1,40.08,2|0,3:2|3:2,2:0:0:0:
21,220,196724,2,0,P|18:200|21:180,1,40.08,0|0,3:2|3:2,2:0:0:0:
31,141,196994,2,0,P|29:101|31:61,1,80.1599999999998,10|4,3:3|3:0,2:0:0:0:
111,73,197535,6,0,L|112:-9,2,80.1466666666667,6|4|4,3:2|3:2|3:2,2:0:0:0:
184,105,198331,1,4,3:2:0:0:
251,147,198596,1,8,3:2:0:0:
259,113,200720,5,14,3:2:0:0:
259,113,201782,6,0,P|256:73|258:33,2,80.1426666666668,4|0|4,3:2|3:2|3:2,2:0:0:0:
218,182,202579,1,4,3:2:0:0:
261,249,202844,1,14,3:2:0:0:
253,37,205322,6,0,P|250:63|252:90,1,53.6293333333334,0|8,3:2|3:2,2:0:0:0:
277,166,205765,1,0,3:2:0:0:
254,242,206030,2,0,P|252:281|253:321,2,80.1426666666668,4|0|4,3:2|3:2|3:2,2:0:0:0:
182,205,206827,1,0,3:2:0:0:
108,237,207092,1,12,3:2:0:0:
67,77,209216,5,8,3:2:0:0:
67,77,210278,2,0,P|106:73|146:74,2,80.1426666666668,4|0|4,3:2|3:2|3:2,2:0:0:0:
24,145,211074,1,0,3:2:0:0:
52,219,211340,1,12,3:2:0:0:
263,360,213729,6,0,P|282:361|302:359,1,40.1466666666667,8|10,3:0|3:2,2:0:0:0:
338,341,213995,2,0,P|377:339|417:340,1,80.2933333333334,8|2,3:2|3:2,2:0:0:0:
487,301,214526,6,0,P|492:221|490:141,1,160.285333333333,6|4,3:2|3:2,2:0:0:0:
357,50,215588,1,12,3:2:0:0:
288,90,215853,1,2,3:2:0:0:
292,170,216119,2,0,P|294:209|289:249,1,80.2933333333334,6|2,3:2|3:2,2:0:0:0:
234,307,216650,2,0,P|194:309|154:304,1,80.2933333333334,6|2,3:2|3:2,2:0:0:0:
117,233,217181,2,0,P|77:227|37:230,1,80.2933333333334,6|2,3:2|3:2,2:0:0:0:
5,157,217711,1,14,3:2:0:0:
152,94,218242,1,6,3:2:0:0:
227,121,218508,2,0,L|294:119,1,40.1466666666667,8|8,3:2|3:2,2:0:0:0:
306,120,218773,6,0,P|299:159|305:198,2,80.1426666666668,6|4|4,3:2|3:2|3:2,2:0:0:0:
364,63,219570,1,0,3:2:0:0:
443,55,219835,2,0,P|472:81|490:117,1,80.2933333333334,12|2,3:2|3:2,2:0:0:0:
492,197,220366,1,6,3:2:0:0:
477,275,220632,2,0,L|476:314,1,40.1466666666667,2|4,3:2|3:0,2:0:0:0:
447,343,220897,2,0,L|331:352,1,80.2933333333334,6|2,3:2|3:2,2:0:0:0:
301,302,221428,2,0,L|185:293,1,80.2933333333334,6|2,3:2|3:2,2:0:0:0:
151,335,221959,1,6,3:2:0:0:
71,340,222225,2,0,L|68:379,2,40.1466666666668,8|10|8,3:2|3:2|3:0,2:0:0:0:
24,274,222756,2,0,L|22:227,1,40.1466666666667,2|4,3:2|3:0,2:0:0:0:
46,202,223021,6,0,P|85:205|125:200,2,80.1426666666668,6|4|4,3:2|3:2|3:2,2:0:0:0:
7,131,223818,1,0,3:2:0:0:
18,52,224083,2,0,P|59:27|101:25,1,80.2933333333334,12|2,3:2|3:2,2:0:0:0:
158,66,224614,2,0,L|260:69,1,80.2933333333334,6|2,3:2|3:2,2:0:0:0:
311,36,225145,2,0,L|413:33,1,80.2933333333334,6|2,3:2|3:2,2:0:0:0:
453,83,225676,2,0,P|458:122|454:162,1,80.2933333333334,6|2,3:2|3:2,2:0:0:0:
401,222,226207,1,14,3:2:0:0:
243,249,226738,1,6,3:2:0:0:
87,205,227269,6,0,P|145:62|294:21,1,320.269333333334,6|12,3:2|3:2,2:0:0:0:
280,100,228596,1,2,3:2:0:0:
295,178,228862,1,6,3:2:0:0:
364,217,229127,1,2,3:2:0:0:
442,202,229393,1,14,3:2:0:0:
244,42,231517,6,0,P|242:61|243:81,1,40.1466666666667,14|0,3:2|3:2,2:0:0:0:
266,114,231782,2,0,P|267:133|265:153,1,40.1466666666667,8|0,3:2|3:2,2:0:0:0:
241,186,232048,2,0,P|238:225|238:265,1,80.2933333333334,8|8,3:2|3:2,2:0:0:0:
258,343,232579,1,12,1:2:0:0:
