osu file format v14

[General]
AudioFilename: audio.mp3
AudioLeadIn: 0
PreviewTime: 26050
Countdown: 0
SampleSet: Soft
StackLeniency: 0.6
Mode: 0
LetterboxInBreaks: 0
WidescreenStoryboard: 1

[Editor]
DistanceSpacing: 1.1
BeatDivisor: 4
GridSize: 32
TimelineZoom: 4.399997

[Metadata]
Title:King For A Day (feat. Kellin Quinn)
TitleUnicode:King For A Day (feat. Kellin Quinn)
Artist:Pierce The Veil
ArtistUnicode:Pierce The Veil
Creator:attendant
Version:Insane
Source:
Tags:collide with the sky alternative metal punk post hardcore sleeping sirens english
BeatmapID:2327909
BeatmapSetID:1074059

[Difficulty]
HPDrainRate:5
CircleSize:3.8
OverallDifficulty:7.5
ApproachRate:8.5
SliderMultiplier:1.6
SliderTickRate:1

[Events]
//Background and Video events
0,0,"bg.jpg",0,0
Video,1988,"video.mp4"
//Break Periods
2,41304,42166
2,60286,61668
2,85773,89146
2,134755,135617
2,145527,146274
2,147689,148706
2,149851,150868
2,198796,199658
2,203044,204647
2,207292,208154
2,211540,212667
2,229593,230455
//Storyboard Layer 0 (Background)
//Storyboard Layer 1 (Fail)
//Storyboard Layer 2 (Pass)
//Storyboard Layer 3 (Foreground)
//Storyboard Layer 4 (Overlay)
//Storyboard Sound Samples

[TimingPoints]
8981,265.486725663717,4,2,1,80,1,0
9113,-125,4,2,1,80,0,0
9246,265.486725663717,4,2,4,80,1,0
9378,-100,4,2,21,80,0,0
9511,-100,4,2,4,80,0,0
9644,-125,4,2,4,80,0,0
11237,-125,4,2,1,80,0,0
11635,-125,4,2,4,80,0,0
13361,-125,4,2,1,80,0,0
15750,-125,4,2,21,80,0,0
15882,-125,4,2,1,80,0,0
17874,-125,4,2,21,80,0,0
18006,-125,4,2,4,80,0,0
19732,-125,4,2,1,80,0,0
20130,-125,4,2,4,80,0,0
21856,-111.111111111111,4,2,1,90,0,0
22254,-125,4,2,1,90,0,0
22520,-125,4,2,3,90,0,0
22785,-111.111111111111,4,2,3,90,0,0
23051,-111.111111111111,4,2,1,90,0,0
23582,-100,4,2,2,90,0,0
24113,-100,4,2,1,90,0,0
24378,-100,4,2,2,90,0,0
24644,-100,4,2,3,90,0,0
24909,-100,4,2,2,90,0,0
26104,-100,4,2,7,90,0,0
26502,-111.111111111111,4,2,2,90,0,0
26768,-111.111111111111,4,2,5,90,0,0
28228,-111.111111111111,4,2,7,90,0,0
28626,-111.111111111111,4,2,2,90,0,0
28892,-111.111111111111,4,2,21,90,0,0
29024,-111.111111111111,4,2,5,90,0,0
30352,-111.111111111111,4,2,1,90,0,0
31812,-111.111111111111,4,2,5,90,0,0
32476,-111.111111111111,4,2,7,90,0,0
32741,-111.111111111111,4,2,21,90,0,0
32874,-111.111111111111,4,2,2,90,0,0
33007,-111.111111111111,4,2,4,90,0,0
33404,-111.111111111111,4,2,5,90,0,0
33803,-111.111111111111,4,2,2,90,0,0
34201,-111.111111111111,4,2,4,90,0,0
34334,-166.666666666667,4,2,2,90,0,0
34599,-111.111111111111,4,2,1,90,0,0
34799,-111.111111111111,4,2,1,5,0,0
34864,-111.111111111111,4,2,1,90,0,0
34998,-111.111111111111,4,2,2,90,0,0
35263,-111.111111111111,4,2,5,90,0,0
36723,-111.111111111111,4,2,7,90,0,0
37122,-111.111111111111,4,2,1,90,0,0
37652,-111.111111111111,4,2,4,90,0,0
38847,-111.111111111111,4,2,1,90,0,0
39046,-111.111111111111,4,2,1,5,0,0
39113,-111.111111111111,4,2,1,90,0,0
39245,-111.111111111111,4,2,4,90,0,0
43228,-166.666666666667,4,2,1,80,0,1
43493,-166.666666666667,4,2,21,80,0,1
43758,-166.666666666667,4,2,2,80,0,1
47476,-166.666666666667,4,2,1,80,0,1
47741,-166.666666666667,4,2,21,80,0,1
48006,-166.666666666667,4,2,2,80,0,1
51723,-166.666666666667,4,2,1,80,0,1
51989,-166.666666666667,4,2,21,80,0,1
52253,-166.666666666667,4,2,2,80,0,1
55971,-166.666666666667,4,2,1,80,0,1
56237,-166.666666666667,4,2,21,80,0,1
56501,-166.666666666667,4,2,2,80,0,1
59688,-142.857142857143,4,2,2,80,0,0
60086,-142.857142857143,4,2,1,80,0,0
64069,-142.857142857143,4,2,1,5,0,0
64334,-125,4,2,7,90,0,0
64732,-125,4,2,1,90,0,0
64997,-125,4,2,4,90,0,0
65262,-125,4,2,2,90,0,0
65528,-125,4,2,4,90,0,0
65793,-125,4,2,2,90,0,0
66458,-125,4,2,1,90,0,0
66856,-125,4,2,4,90,0,0
67121,-125,4,2,2,90,0,0
67386,-125,4,2,4,90,0,0
67652,-125,4,2,2,90,0,0
68582,-142.857142857143,4,2,1,70,0,0
77077,-125,4,2,6,80,0,0
77476,-125,4,2,4,80,0,0
79201,-125,4,2,1,80,0,0
79599,-125,4,2,4,80,0,0
81325,-125,4,2,1,80,0,0
81723,-125,4,2,4,80,0,0
83449,-111.111111111111,4,2,6,90,0,0
83847,-111.111111111111,4,2,4,90,0,0
84113,-111.111111111111,4,2,1,90,0,0
84378,-111.111111111111,4,2,2,90,0,0
84644,-111.111111111111,4,2,4,90,0,0
84909,-111.111111111111,4,2,3,90,0,0
85175,-111.111111111111,4,2,2,90,0,0
85573,-111.111111111111,4,2,1,90,0,0
89821,-111.111111111111,4,2,6,90,0,0
90219,-111.111111111111,4,2,1,90,0,0
90484,-111.111111111111,4,2,5,90,0,0
91945,-111.111111111111,4,2,2,90,0,0
92144,-111.111111111111,4,2,2,5,0,0
92210,-111.111111111111,4,2,2,90,0,0
92608,-111.111111111111,4,2,5,90,0,0
93272,-111.111111111111,4,2,2,90,0,0
94069,-111.111111111111,4,2,1,90,0,0
94268,-111.111111111111,4,2,1,5,0,0
94334,-111.111111111111,4,2,1,90,0,0
94467,-111.111111111111,4,2,2,90,0,0
94732,-111.111111111111,4,2,5,90,0,0
96192,-111.111111111111,4,2,1,90,0,0
96392,-111.111111111111,4,2,1,5,0,0
96457,-111.111111111111,4,2,1,90,0,0
97121,-111.111111111111,4,2,5,90,0,0
98316,-111.111111111111,4,2,1,90,0,0
98714,-111.111111111111,4,2,4,90,0,0
100838,-111.111111111111,4,2,5,90,0,0
101104,-111.111111111111,4,2,1,90,0,0
102697,-142.857142857143,4,2,1,80,0,1
102962,-142.857142857143,4,2,21,80,0,1
103227,-142.857142857143,4,2,2,80,0,1
106945,-142.857142857143,4,2,1,80,0,1
107210,-142.857142857143,4,2,21,80,0,1
107475,-142.857142857143,4,2,2,80,0,1
111192,-142.857142857143,4,2,1,80,0,1
111458,-142.857142857143,4,2,21,80,0,1
111722,-142.857142857143,4,2,2,80,0,1
115440,-142.857142857143,4,2,1,80,0,1
115706,-142.857142857143,4,2,21,80,0,1
115970,-142.857142857143,4,2,2,80,0,1
116701,-142.857142857143,4,2,2,5,0,1
116767,-142.857142857143,4,2,2,80,0,1
118626,-142.857142857143,4,2,2,80,0,0
119688,-142.857142857143,4,2,1,80,0,1
119953,-142.857142857143,4,2,21,80,0,1
120218,-142.857142857143,4,2,2,80,0,1
123405,-142.857142857143,4,2,1,80,0,1
124201,-142.857142857143,4,2,21,80,0,1
124466,-142.857142857143,4,2,2,80,0,1
128184,-142.857142857143,4,2,1,80,0,1
128449,-142.857142857143,4,2,21,80,0,1
128714,-142.857142857143,4,2,2,80,0,1
129445,-142.857142857143,4,2,2,5,0,1
129511,-142.857142857143,4,2,2,80,0,1
132431,-142.857142857143,4,2,1,80,0,1
132697,-142.857142857143,4,2,21,80,0,1
132961,-142.857142857143,4,2,4,80,0,1
134555,-142.857142857143,4,2,4,80,0,0
136679,270.27027027027,4,2,1,70,1,0
136679,-166.666666666667,4,2,1,70,0,0
136949,-166.666666666667,4,2,21,70,0,0
137489,-166.666666666667,4,2,1,70,0,0
141273,-166.666666666667,4,2,21,70,0,0
141813,-166.666666666667,4,2,1,70,0,0
143165,-166.666666666667,4,2,1,70,0,1
143435,-166.666666666667,4,2,21,70,0,1
144246,-166.666666666667,4,2,1,70,0,1
144516,-166.666666666667,4,2,1,70,0,0
153976,-166.666666666667,4,2,1,50,0,0
155057,-166.666666666667,4,2,1,55,0,0
155868,-166.666666666667,4,2,22,55,0,0
156137,-166.666666666667,4,2,1,60,0,0
157219,-166.666666666667,4,2,1,65,0,0
158300,-166.666666666667,4,2,1,80,0,0
159381,-125,4,2,1,85,0,0
160462,-125,4,2,1,100,0,0
161543,279.06976744186,4,2,1,65,1,0
161543,-142.857142857143,4,2,1,65,0,0
162624,275.229357798165,4,2,6,80,1,0
162624,-142.857142857143,4,2,6,80,0,0
162899,-142.857142857143,4,2,2,80,0,0
164275,-142.857142857143,4,2,21,80,0,0
165101,-142.857142857143,4,2,2,80,0,0
168679,-142.857142857143,4,2,21,80,0,0
169229,-142.857142857143,4,2,2,80,0,0
171431,-142.857142857143,4,2,1,80,0,0
171981,-142.857142857143,4,2,2,80,0,0
172532,-142.857142857143,4,2,1,80,0,0
173633,-142.857142857143,4,2,2,80,0,0
177211,-142.857142857143,4,2,22,80,0,0
177486,-142.857142857143,4,2,24,80,0,0
178036,-142.857142857143,4,2,3,80,0,0
178312,-142.857142857143,4,2,2,80,0,0
179688,-117.647058823529,4,2,2,100,0,0
179722,-117.647058823529,4,2,10,100,0,0
179963,-117.647058823529,4,2,22,100,0,0
179997,-117.647058823529,4,2,10,100,0,0
180169,-117.647058823529,4,2,11,5,0,0
180238,270.27027027027,4,2,6,90,1,0
180238,-125,4,2,6,90,0,0
180508,-125,4,2,2,90,0,0
182400,-125,4,2,1,90,0,0
189967,-125,4,2,2,90,0,0
191048,-125,4,2,1,90,0,0
191859,-125,4,2,2,90,0,0
192129,-125,4,2,1,90,0,0
193481,-125,4,2,4,90,0,0
193751,-125,4,2,2,90,0,0
194021,-125,4,2,4,90,0,0
194292,-125,4,2,3,90,0,0
194832,-125,4,2,5,90,0,0
195102,-125,4,2,2,90,0,0
195237,-125,4,2,5,90,0,0
195373,-125,4,2,1,90,0,0
195913,-125,4,2,2,90,0,0
197535,265.486725663717,4,2,6,80,1,0
197535,-166.666666666667,4,2,6,80,0,0
197800,-166.666666666667,4,2,4,80,0,0
198066,-166.666666666667,4,2,2,80,0,0
198331,-166.666666666667,4,2,3,80,0,0
198596,-166.666666666667,4,2,3,60,0,0
200720,-166.666666666667,4,2,2,60,0,0
201782,-166.666666666667,4,2,1,80,0,0
202313,-166.666666666667,4,2,2,80,0,0
202844,-166.666666666667,4,2,4,60,0,0
206030,-166.666666666667,4,2,1,80,0,0
206561,-166.666666666667,4,2,2,80,0,0
207092,-166.666666666667,4,2,4,60,0,0
210278,-166.666666666667,4,2,1,80,0,0
210809,-166.666666666667,4,2,2,80,0,0
211340,-166.666666666667,4,2,4,60,0,0
213729,-166.666666666667,4,2,2,60,0,0
214526,-142.857142857143,4,2,1,80,0,1
214791,-142.857142857143,4,2,21,80,0,1
215056,-142.857142857143,4,2,2,80,0,1
218773,-142.857142857143,4,2,1,80,0,1
219038,-142.857142857143,4,2,3,80,0,1
219304,-142.857142857143,4,2,2,80,0,1
220034,-142.857142857143,4,2,2,5,0,1
220100,-142.857142857143,4,2,2,80,0,1
223021,-142.857142857143,4,2,1,80,0,1
223286,-142.857142857143,4,2,3,80,0,1
223552,-142.857142857143,4,2,2,80,0,1
224282,-142.857142857143,4,2,2,5,0,1
224348,-142.857142857143,4,2,2,80,0,1
227269,-142.857142857143,4,2,1,80,0,1
227535,-142.857142857143,4,2,21,80,0,1
227800,-142.857142857143,4,2,23,80,0,1
228065,-142.857142857143,4,2,2,80,0,1
228331,-142.857142857143,4,2,4,80,0,1
228861,-142.857142857143,4,2,2,80,0,1
229393,-142.857142857143,4,2,2,80,0,0
231517,-100,4,2,1,100,0,0
232579,-100,4,2,4,100,0,0

[Colours]
Combo1 : 17,254,176
Combo2 : 173,255,95
Combo3 : 255,88,100
Combo4 : 255,94,55

[HitObjects]
123,15,8981,5,8,3:2:0:0:
123,15,9113,2,0,P|118:110|122:206,1,192,6|8,3:2|1:2,2:0:0:0:
184,272,9644,2,0,P|215:273|247:270,1,64.2346666666667,2|0,2:0|3:2,2:0:0:0:
326,225,9909,1,2,3:2:0:0:
326,225,10042,1,8,1:2:0:0:
257,156,10175,6,0,L|259:75,1,64.2346666666667,2|0,2:0|3:2,2:0:0:0:
342,42,10440,1,2,3:2:0:0:
342,42,10573,1,8,1:2:0:0:
429,110,10706,2,0,L|430:173,1,64.2346666666667,0|0,2:0|3:2,2:0:0:0:
368,326,10971,1,2,3:2:0:0:
407,299,11104,1,8,1:2:0:0:
368,326,11237,6,0,P|305:329|252:369,1,128.469333333334,6|2,3:2|3:2,2:0:0:0:
158,308,11635,2,0,P|159:276|160:244,1,64.2346666666667,10|2,1:2|2:0,2:0:0:0:
139,148,11900,1,2,3:2:0:0:
139,148,12033,1,2,3:2:0:0:
247,66,12166,6,0,L|183:61,1,64.2346666666667,10|0,1:2|2:0,2:0:0:0:
43,98,12431,1,2,3:2:0:0:
43,98,12564,2,0,P|43:129|40:161,1,64.2346666666667,2|8,3:2|1:2,2:0:0:0:
75,260,12830,2,0,P|104:272|129:292,1,64.2346666666667,2|0,2:0|3:2,2:0:0:0:
252,374,13095,1,2,3:2:0:0:
283,351,13228,1,8,1:2:0:0:
252,374,13361,6,0,P|188:372|124:376,1,128.469333333334,6|2,3:2|3:2,2:0:0:0:
256,265,13759,1,10,3:2:0:0:
256,265,13892,2,0,P|255:236|256:201,1,64.2346666666667,2|0,1:2|3:2,2:0:0:0:
293,95,14157,1,2,1:2:0:0:
329,122,14290,1,10,3:2:0:0:
293,95,14422,6,0,L|219:103,1,64.2346666666667,2|0,1:2|3:2,2:0:0:0:
308,10,14688,2,0,L|371:16,1,64.2346666666667,2|8,1:2|3:2,2:0:0:0:
460,103,14953,2,0,P|456:134|455:166,1,64.2346666666667,2|0,1:2|3:2,2:0:0:0:
465,268,15219,1,2,3:2:0:0:
465,268,15352,1,8,3:2:0:0:
338,326,15484,6,0,B|261:295|238:391|164:384,1,192.221866666666,6|10,3:2|3:2,2:0:0:0:
89,362,16015,1,2,1:2:0:0:
47,295,16148,2,0,L|51:219,1,64.2346666666667,2|2,3:2|1:2,2:0:0:0:
152,137,16414,2,0,L|155:200,1,64.2346666666667,10|2,3:2|1:2,2:0:0:0:
267,241,16679,6,0,L|336:237,1,64.2346666666667,2|8,3:2|3:2,2:0:0:0:
338,231,16878,1,8,3:2:0:0:
345,225,16945,1,10,3:2:0:0:
428,265,17077,2,0,L|498:282,1,64.2346666666667,10|8,3:2|3:2,2:0:0:0:
414,172,17343,2,0,L|436:80,1,64.2346666666667,8|4,3:0|3:0,2:0:0:0:
302,20,17608,6,0,P|220:27|146:120,1,192.221866666666,6|10,3:2|1:2,2:0:0:0:
211,178,18139,2,0,P|209:209|210:241,1,64.2346666666667,2|0,2:0|3:2,2:0:0:0:
57,303,18405,2,0,P|58:271|57:239,1,64.2346666666667,2|8,3:2|1:2,2:0:0:0:
164,355,18670,6,0,P|227:356|288:374,1,128.469333333334,2|2,2:0|3:2,2:0:0:0:
387,344,19069,1,10,1:2:0:0:
387,344,19201,2,0,L|389:280,1,64.2346666666667,2|0,2:0|3:2,2:0:0:0:
341,195,19467,1,2,3:2:0:0:
341,195,19599,1,8,1:2:0:0:
466,91,19732,6,0,L|337:96,1,128.469333333334,6|2,3:2|3:2,2:0:0:0:
255,43,20130,1,10,1:2:0:0:
255,43,20263,2,0,P|223:40|191:45,1,64.2346666666667,2|0,2:0|3:2,2:0:0:0:
100,78,20529,1,2,3:2:0:0:
100,78,20661,1,8,1:2:0:0:
45,162,20794,6,0,P|42:193|47:225,1,64.2346666666667,2|0,2:0|3:2,2:0:0:0:
80,317,21060,1,2,3:2:0:0:
80,317,21192,1,8,1:2:0:0:
165,278,21325,2,0,L|245:284,1,64.2346666666667,2|0,2:0|3:2,2:0:0:0:
351,340,21591,1,2,3:2:0:0:
313,369,21723,1,8,1:2:0:0:
351,339,21856,6,0,P|360:268|357:196,1,144.527995605469,6|0,3:2|3:2,2:0:0:0:
293,144,22254,2,0,L|209:142,1,64.2346666666667,8|0,3:2|3:2,2:0:0:0:
127,16,22520,5,14,3:2:0:0:
91,42,22653,1,0,3:2:0:0:
127,16,22785,2,0,L|124:87,1,72.2639978027344,8|0,3:2|3:2,2:0:0:0:
49,210,23051,5,14,3:2:0:0:
13,184,23184,1,0,3:2:0:0:
49,210,23316,2,0,L|46:138,1,72.2639978027344,8|0,3:2|3:2,2:0:0:0:
134,263,23582,6,0,B|175:250|175:250|210:259,1,80.2933333333335,14|0,3:2|3:2,2:0:0:0:
287,150,23847,2,0,B|246:163|246:163|210:153,1,80.2933333333335,8|0,3:2|3:2,2:0:0:0:
318,323,24113,6,0,L|323:243,1,80.2933333333335,14|0,3:2|3:2,2:0:0:0:
427,147,24378,1,12,3:2:0:0:
427,147,24511,1,0,3:2:0:0:
325,48,24644,5,12,3:2:0:0:
298,135,24776,1,0,3:2:0:0:
182,71,24909,5,12,3:2:0:0:
203,161,25042,1,0,3:2:0:0:
193,83,25175,6,0,L|283:87,1,80.2933333333335,8|8,3:2|3:3,2:0:0:0:
282,81,25374,1,4,3:3:0:0:
292,76,25440,2,0,L|382:72,1,80.2933333333335,8|8,3:2|3:2,2:0:0:0:
458,199,25706,1,8,3:2:0:0:
458,199,25838,2,0,P|467:160|464:120,1,80.2933333333335,8|4,3:0|3:0,2:0:0:0:
512,0,26104,5,14,3:2:0:0:
252,0,26502,6,0,P|248:35|251:71,1,72.2639978027344,14|0,3:2|2:0,2:0:0:0:
246,158,26768,1,6,3:2:0:0:
246,158,26900,1,0,3:2:0:0:
274,310,27033,2,0,P|278:274|275:238,1,72.2639978027344,10|0,3:2|2:0,2:0:0:0:
328,120,27299,5,2,3:2:0:0:
328,120,27431,1,0,3:2:0:0:
167,48,27564,2,0,L|250:71,1,72.2639978027344,14|0,3:2|2:0,2:0:0:0:
150,215,27830,2,0,L|156:128,1,72.2639978027344,6|6,3:2|3:2,2:0:0:0:
15,50,28095,1,8,3:2:0:0:
72,111,28228,6,2,B|126:97|164:152|209:144,1,144.527995605469,14|0,3:2|3:2,2:0:0:0:
334,222,28626,2,0,L|97:257,1,216.249593408203,10|0,3:2|3:2,2:0:0:0:
227,360,29157,2,0,L|136:345,1,72.2639978027344,10|0,3:2|2:0,2:0:0:0:
11,272,29422,5,2,3:2:0:0:
11,272,29555,2,0,P|15:237|11:201,1,72.2639978027344,2|12,3:2|3:2,2:0:0:0:
123,102,29821,2,0,P|88:103|52:98,1,72.2639978027344,2|0,2:0|3:2,2:0:0:0:
178,245,30086,2,0,P|142:246|106:252,1,72.2639978027344,6|8,3:2|3:2,2:0:0:0:
260,149,30352,6,0,P|232:88|284:10,1,144.527995605469,6|2,3:2|3:2,2:0:0:0:
446,128,30750,1,8,3:2:0:0:
373,84,30883,2,0,P|348:151|345:223,1,144.527995605469,2|0,2:0|3:2,2:0:0:0:
450,307,31281,2,0,L|360:324,1,72.2639978027344,8|0,3:2|2:0,2:0:0:0:
275,346,31546,1,0,3:2:0:0:
275,346,31679,1,0,3:2:0:0:
152,237,31812,6,0,L|238:250,1,72.2639978027344,14|0,3:2|2:0,2:0:0:0:
66,327,32077,1,6,3:2:0:0:
133,243,32210,1,6,3:2:0:0:
152,370,32343,1,8,3:2:0:0:
51,307,32476,6,0,P|40:236|64:83,1,216.249593408203,14|8,3:2|3:2,2:0:0:0:
207,147,33007,2,0,P|171:146|135:152,1,72.2639978027344,6|0,2:0|3:2,2:0:0:0:
258,48,33272,2,0,P|222:43|187:32,1,72.2639978027344,2|12,3:2|3:2,2:0:0:0:
307,217,33538,6,0,P|316:148|374:82,1,144.527995605469,6|8,2:0|3:0,2:0:0:0:
371,88,33869,1,4,3:0:0:0:
381,85,33936,1,8,3:2:0:0:
446,13,34069,2,0,P|467:41|474:76,1,72.2639978027344,8|14,3:2|3:2,2:0:0:0:
429,164,34334,2,0,P|427:187|428:211,1,48.2687985351563,8|4,3:0|3:0,2:0:0:0:
507,295,34599,6,0,B|438:271|438:328|370:322,1,144.527995605469,6|0,3:2|3:2,2:0:0:0:
265,215,34998,2,0,P|299:222|328:243,1,72.2639978027344,14|0,3:2|2:0,2:0:0:0:
139,248,35263,1,6,3:2:0:0:
139,248,35396,1,2,3:2:0:0:
217,117,35529,2,0,P|220:81|233:47,1,72.2639978027344,8|2,3:2|2:0,2:0:0:0:
75,161,35794,6,0,L|0:173,1,72.2639978027344,0|0,3:2|2:0,2:0:0:0:
130,60,36060,2,0,L|55:48,1,72.2639978027344,10|0,3:2|2:0,2:0:0:0:
233,7,36325,1,6,3:2:0:0:
146,47,36458,2,0,P|144:82|147:118,1,72.2639978027344,6|8,3:2|3:2,2:0:0:0:
306,161,36723,6,0,P|237:173|205:234,1,144.527995605469,14|0,3:2|3:2,2:0:0:0:
296,330,37122,2,0,L|224:334,1,72.2639978027344,10|0,3:2|2:0,2:0:0:0:
97,328,37387,1,2,3:2:0:0:
97,327,37520,2,0,P|98:291|93:255,1,72.2639978027344,2|8,3:2|1:2,2:0:0:0:
62,153,37785,6,0,P|28:165|2:189,1,72.2639978027344,2|0,2:0|3:2,2:0:0:0:
177,154,38051,2,0,P|211:164|238:187,1,72.2639978027344,2|8,3:2|1:2,2:0:0:0:
125,61,38316,2,0,L|129:-12,1,72.2639978027344,2|0,2:0|3:2,2:0:0:0:
226,42,38582,1,2,3:2:0:0:
226,42,38715,2,0,L|299:46,1,72.2639978027344,8|4,1:2|3:2,2:0:0:0:
395,0,38980,6,0,L|387:143,2,144.256795605469,0|8|0,2:0|1:2|3:2,2:0:0:0:
488,39,39644,1,0,3:2:0:0:
488,39,39776,2,0,P|492:74|485:109,1,72.2639978027344,8|0,1:2|2:0,2:0:0:0:
386,236,40042,1,0,3:2:0:0:
386,236,40175,1,0,3:2:0:0:
297,75,40307,6,0,P|277:105|250:127,1,72.2639978027344,10|0,1:2|2:0,2:0:0:0:
245,316,40573,2,0,P|218:291|186:276,1,72.2639978027344,2|0,3:2|3:2,2:0:0:0:
168,175,40838,2,0,P|136:191|100:197,1,72.2639978027344,10|0,1:2|3:2,2:0:0:0:
0,192,41104,1,10,1:2:0:0:
97,85,43228,6,0,B|129:173|59:177|89:271,1,192.342394140625,6|14,3:2|3:2,2:0:0:0:
175,346,44024,1,0,3:2:0:0:
175,346,44290,2,0,L|285:337,1,96.3519970703128,4|2,3:2|3:2,2:0:0:0:
370,247,44821,6,0,P|372:223|377:199,1,48.1759985351563,14|0,3:2|2:0,2:0:0:0:
412,126,45086,1,2,3:2:0:0:
276,178,45352,2,0,P|273:154|268:130,1,48.1759985351563,6|0,3:2|2:0,2:0:0:0:
234,57,45617,1,2,3:2:0:0:
134,175,45883,2,0,P|120:220|116:268,1,96.3519970703128,14|2,3:2|3:2,2:0:0:0:
202,380,46414,5,6,3:2:0:0:
202,380,46679,1,0,3:2:0:0:
312,335,46945,1,14,3:2:0:0:
312,335,47210,1,0,3:2:0:0:
427,351,47476,6,0,P|439:253|421:142,1,192.342394140625,6|12,3:2|3:2,2:0:0:0:
278,72,48272,1,0,3:2:0:0:
278,72,48538,2,0,L|381:56,1,96.3519970703128,4|2,3:2|3:2,2:0:0:0:
233,178,49069,6,0,L|164:173,1,48.1759985351563,14|0,3:2|2:0,2:0:0:0:
102,165,49334,1,2,3:2:0:0:
183,353,49599,2,0,L|114:358,1,48.1759985351563,6|0,3:2|2:0,2:0:0:0:
52,366,49865,1,2,3:2:0:0:
217,264,50130,2,0,P|259:280|302:323,1,96.3519970703128,14|2,3:2|3:2,2:0:0:0:
394,212,50661,6,0,P|395:165|404:117,1,96.3519970703128,6|0,3:2|3:2,2:0:0:0:
274,43,51060,1,2,3:2:0:0:
274,43,51192,2,0,P|273:90|264:138,1,96.3519970703128,12|2,3:2|3:2,2:0:0:0:
94,190,51723,6,0,P|176:203|224:310,1,192.342394140625,4|12,3:2|3:2,2:0:0:0:
353,373,52520,1,0,3:2:0:0:
353,373,52785,2,0,L|358:263,1,96.3519970703128,4|2,3:2|3:2,2:0:0:0:
429,148,53316,6,0,L|434:86,1,48.1759985351563,14|0,3:2|2:0,2:0:0:0:
439,13,53582,1,2,3:2:0:0:
307,175,53847,2,0,L|302:113,1,48.1759985351563,6|0,3:2|2:0,2:0:0:0:
297,40,54113,1,2,3:2:0:0:
169,182,54378,2,0,L|180:86,1,96.3519970703128,14|2,3:2|3:2,2:0:0:0:
85,237,54909,6,0,P|46:269|30:320,1,96.3519970703128,6|0,3:2|3:2,2:0:0:0:
227,268,55307,1,2,3:2:0:0:
227,268,55440,2,0,P|256:305|263:352,1,96.3519970703128,12|2,3:2|3:2,2:0:0:0:
175,169,55971,6,0,P|184:106|109:11,1,192.342394140625,6|12,3:2|3:2,2:0:0:0:
5,139,56768,1,2,3:2:0:0:
5,139,57033,2,0,P|9:186|6:234,1,96.3519970703128,4|2,3:2|3:2,2:0:0:0:
63,341,57564,6,0,L|110:334,1,48.1759985351563,14|0,3:2|2:0,2:0:0:0:
191,323,57830,1,2,3:2:0:0:
114,204,58095,2,0,L|161:210,1,48.1759985351563,6|0,3:2|2:0,2:0:0:0:
242,222,58361,1,2,3:2:0:0:
324,149,58626,2,0,P|325:102|332:54,1,96.3519970703128,14|2,3:2|3:2,2:0:0:0:
148,139,59157,2,0,P|146:186|139:234,1,96.3519970703128,6|0,3:2|3:2,2:0:0:0:
251,244,59555,1,0,2:0:0:0:
251,244,59688,6,0,P|247:271|245:299,1,56.2053316243491,8|8,3:2|3:2,2:0:0:0:
332,149,59953,1,10,3:2:0:0:
255,227,60086,1,4,3:1:0:0:
256,192,62343,12,0,64069,2:0:0:0:
256,64,64334,6,0,P|250:127|255:191,1,128.469333333334,14|0,3:2|3:2,2:0:0:0:
364,136,64732,1,8,3:2:0:0:
364,136,64865,2,0,P|395:138|427:135,1,64.2346666666667,2|0,2:0|1:2,2:0:0:0:
332,216,65130,2,0,P|313:242|302:272,1,64.2346666666667,2|12,2:0|3:2,2:0:0:0:
467,209,65396,6,0,P|487:233|500:262,1,64.2346666666667,2|0,2:0|1:2,2:0:0:0:
390,122,65661,2,0,L|394:47,1,64.2346666666667,2|12,2:0|3:2,2:0:0:0:
277,145,65927,1,0,2:0:0:0:
277,145,66060,1,6,3:2:0:0:
185,182,66192,1,2,2:0:0:0:
186,96,66325,1,8,3:2:0:0:
92,134,66458,6,0,P|97:197|96:261,1,128.469333333334,4|0,3:2|3:2,2:0:0:0:
90,352,66856,1,10,1:2:0:0:
168,334,66989,2,0,L|95:345,1,64.2346666666667,2|4,2:0|3:2,2:0:0:0:
20,239,67254,2,0,L|83:248,1,64.2346666666667,2|8,2:0|1:2,2:0:0:0:
193,134,67520,6,0,P|187:165|187:197,1,64.2346666666667,2|4,2:0|3:2,2:0:0:0:
254,263,67785,1,8,3:2:0:0:
253,272,67852,1,8,3:2:0:0:
252,281,67918,2,0,P|278:298|298:323,1,64.2346666666667,10|8,3:2|3:2,2:0:0:0:
396,283,68184,2,0,P|398:251|409:221,1,64.2346666666667,10|8,3:2|3:0,2:0:0:0:
370,122,68449,1,4,3:0:0:0:
370,122,68582,6,0,P|320:131|270:181,1,112.410663248697,4|0,3:2|3:2,2:0:0:0:
164,181,68980,2,0,P|168:208|168:236,1,56.2053316243491,8|2,3:2|3:2,2:0:0:0:
147,330,69246,1,8,3:0:0:0:
147,330,69378,1,2,3:2:0:0:
23,288,69511,6,0,P|18:260|18:232,1,56.2053316243491,8|2,3:2|3:2,2:0:0:0:
40,139,69776,1,8,3:0:0:0:
40,139,69909,1,2,3:2:0:0:
129,91,70042,2,0,L|195:82,1,56.2053316243491,8|2,3:2|3:2,2:0:0:0:
280,109,70307,1,8,3:0:0:0:
280,109,70440,1,0,3:2:0:0:
362,58,70573,1,8,3:2:0:0:
388,88,70706,6,0,P|392:143|387:199,1,112.410663248697,4|0,3:2|3:2,2:0:0:0:
340,284,71104,2,0,L|273:279,1,56.2053316243491,10|2,3:2|3:2,2:0:0:0:
312,368,71369,1,8,3:0:0:0:
312,368,71502,1,2,3:2:0:0:
144,321,71635,6,0,L|211:326,1,56.2053316243491,8|2,3:2|3:2,2:0:0:0:
178,213,71900,1,8,3:0:0:0:
178,213,72033,1,2,3:2:0:0:
269,153,72166,2,0,L|263:208,1,56.2053316243491,8|2,3:2|3:2,2:0:0:0:
186,131,72431,1,8,3:0:0:0:
186,131,72564,1,0,3:2:0:0:
59,200,72697,1,8,3:2:0:0:
84,164,72830,6,0,P|79:109|89:54,1,112.410663248697,4|0,3:2|3:2,2:0:0:0:
234,27,73228,2,0,L|179:32,1,56.2053316243491,10|2,3:2|3:2,2:0:0:0:
277,118,73493,1,8,3:0:0:0:
277,118,73626,1,2,3:2:0:0:
373,21,73759,6,0,P|368:48|366:76,1,56.2053316243491,8|2,3:2|3:2,2:0:0:0:
360,187,74024,1,8,3:0:0:0:
360,187,74157,1,2,3:2:0:0:
490,93,74290,2,0,P|495:120|497:148,1,56.2053316243491,8|2,3:2|3:2,2:0:0:0:
503,253,74555,1,8,3:0:0:0:
503,253,74688,1,2,3:2:0:0:
427,341,74821,1,8,3:2:0:0:
390,320,74953,6,0,L|259:327,1,112.410663248697,6|2,3:2|3:2,2:0:0:0:
149,280,75352,2,0,P|147:253|148:225,1,56.2053316243491,8|2,3:2|3:2,2:0:0:0:
187,143,75617,1,8,3:0:0:0:
187,143,75750,1,2,3:2:0:0:
241,16,75883,2,0,P|242:43|241:71,1,56.2053316243491,8|2,3:2|3:2,2:0:0:0:
337,173,76148,2,0,P|283:187|250:230,2,112.199729915364,8|10|2,3:0|3:2|3:2,2:0:0:0:
345,176,76746,1,8,3:0:0:0:
353,180,76812,2,0,L|397:185,2,28.1729769232856,8|4|8,3:0|3:0|3:2,2:0:0:0:
406,166,77077,6,0,L|394:293,1,128.469333333334,12|2,3:2|3:2,2:0:0:0:
318,312,77476,1,8,1:2:0:0:
318,312,77608,2,0,P|289:326|266:348,1,64.2346666666667,2|0,2:0|3:2,2:0:0:0:
413,316,77874,2,0,P|443:324|470:341,1,64.2346666666667,2|8,3:2|1:2,2:0:0:0:
409,207,78139,6,0,P|411:175|417:143,1,64.2346666666667,2|0,2:0|3:2,2:0:0:0:
314,224,78405,2,0,P|311:192|305:160,1,64.2346666666667,2|8,2:0|1:2,2:0:0:0:
184,265,78670,1,2,2:0:0:0:
214,292,78803,1,0,3:2:0:0:
183,265,78936,2,0,P|152:267|120:265,1,64.2346666666667,0|10,3:2|1:2,2:0:0:0:
17,172,79201,6,0,P|6:108|18:47,1,128.469333333334,6|0,3:2|3:2,2:0:0:0:
168,25,79599,1,10,1:2:0:0:
167,25,79732,2,0,P|136:28|104:25,1,64.2346666666667,2|0,2:0|3:2,2:0:0:0:
234,159,79998,2,0,P|230:127|233:95,1,64.2346666666667,2|8,2:0|1:2,2:0:0:0:
101,213,80263,2,0,P|162:223|199:274,1,128.469333333334,2|2,2:0|2:0,2:0:0:0:
203,359,80661,1,8,1:2:0:0:
230,378,80794,2,0,P|293:383|356:372,1,128.469333333334,2|0,2:0|3:2,2:0:0:0:
421,241,81192,1,8,1:2:0:0:
354,188,81325,6,0,P|303:242|306:307,1,128.469333333334,4|0,3:2|3:2,2:0:0:0:
437,332,81723,1,10,1:2:0:0:
456,308,81856,2,0,P|454:276|456:244,1,64.2346666666667,2|0,2:0|3:2,2:0:0:0:
361,177,82122,2,0,P|363:145|361:113,1,64.2346666666667,2|8,2:0|1:2,2:0:0:0:
477,22,82387,6,0,P|448:8|416:1,1,64.2346666666667,2|0,2:0|3:2,2:0:0:0:
293,8,82653,2,0,P|263:19|236:36,1,64.2346666666667,2|8,2:0|1:2,2:0:0:0:
166,141,82918,1,2,2:0:0:0:
166,141,83051,1,0,3:2:0:0:
242,202,83184,1,2,3:2:0:0:
203,229,83316,1,8,1:2:0:0:
242,202,83449,6,0,P|251:273|240:344,1,144.527995605469,12|0,3:2|3:2,2:0:0:0:
84,302,83847,2,0,P|119:305|155:301,1,72.2639978027344,12|0,1:2|3:2,2:0:0:0:
28,207,84113,5,14,3:2:0:0:
34,235,84246,1,0,3:2:0:0:
147,157,84378,5,12,3:2:0:0:
145,178,84511,1,0,3:2:0:0:
50,95,84644,5,14,1:2:0:0:
53,108,84776,1,0,3:2:0:0:
133,45,84909,5,12,3:2:0:0:
132,52,85042,1,0,3:2:0:0:
254,118,85175,6,0,P|249:153|253:189,2,72.2639978027345,14|8|4,3:2|3:0|3:0,2:0:0:0:
311,50,85573,1,6,3:1:0:0:
101,182,89821,6,0,P|87:252|100:323,1,144.527995605469,14|2,3:2|3:2,2:0:0:0:
213,359,90219,1,8,3:2:0:0:
213,359,90352,2,0,L|358:353,1,144.527995605469,2|0,2:0|3:2,2:0:0:0:
296,251,90750,2,0,P|332:256|368:259,1,72.2639978027344,8|0,3:2|2:0,2:0:0:0:
461,205,91015,5,0,3:2:0:0:
461,205,91148,1,0,3:2:0:0:
405,124,91281,2,0,P|369:125|333:130,1,72.2639978027344,10|0,3:2|2:0,2:0:0:0:
251,11,91546,1,6,3:2:0:0:
251,11,91679,2,0,P|255:46|253:82,1,72.2639978027344,6|8,3:2|3:2,2:0:0:0:
247,245,91945,6,0,B|189:223|165:288|112:279,1,144.527995605469,6|0,3:2|3:2,2:0:0:0:
40,149,92343,2,0,P|34:113|40:78,1,72.2639978027344,10|0,3:2|2:0,2:0:0:0:
167,28,92608,1,6,3:2:0:0:
167,28,92741,2,0,P|172:63|166:98,1,72.2639978027344,2|8,3:2|3:2,2:0:0:0:
313,158,93007,6,0,P|244:172|211:233,1,144.527995605469,2|8,2:0|3:0,2:0:0:0:
303,347,93405,2,0,P|338:343|374:347,1,72.2639978027344,10|8,3:2|3:2,2:0:0:0:
460,281,93670,1,10,3:2:0:0:
460,281,93803,1,12,3:0:0:0:
396,220,93936,1,12,3:0:0:0:
455,165,94069,6,0,P|439:234|446:306,1,144.527995605469,6|0,3:2|3:2,2:0:0:0:
324,169,94467,2,0,P|328:133|326:97,1,72.2639978027344,14|0,3:2|2:0,2:0:0:0:
376,0,94732,1,6,3:2:0:0:
376,0,94865,1,2,3:2:0:0:
278,27,94998,2,0,P|242:32|207:28,1,72.2639978027344,8|2,3:2|2:0,2:0:0:0:
66,102,95263,6,0,P|101:96|137:102,1,72.2639978027344,0|0,3:2|2:0,2:0:0:0:
223,226,95529,2,0,P|222:190|224:154,1,72.2639978027344,14|0,3:2|2:0,2:0:0:0:
113,292,95794,1,6,3:2:0:0:
113,292,95927,2,0,L|207:301,1,72.2639978027344,6|8,3:2|3:2,2:0:0:0:
328,335,96192,6,0,B|262:317|255:380|197:381,1,144.527995605469,6|2,3:2|3:2,2:0:0:0:
30,330,96591,2,0,P|27:294|31:258,1,72.2639978027344,10|0,3:2|2:0,2:0:0:0:
133,153,96856,1,2,3:2:0:0:
133,153,96989,2,0,L|61:156,1,72.2639978027344,2|12,3:2|3:2,2:0:0:0:
126,54,97254,6,0,L|198:57,1,72.2639978027344,2|4,2:0|3:2,2:0:0:0:
339,105,97520,2,0,P|342:140|334:175,1,72.2639978027344,6|12,3:2|3:2,2:0:0:0:
217,233,97785,2,0,P|213:197|221:162,1,72.2639978027344,2|4,2:0|3:2,2:0:0:0:
380,257,98051,1,6,3:2:0:0:
380,257,98184,1,8,3:2:0:0:
309,304,98316,1,4,3:2:0:0:
350,373,98449,6,0,L|345:229,2,144.256795605469,0|8|0,2:0|1:2|3:2,2:0:0:0:
204,355,99113,1,0,3:2:0:0:
204,355,99246,2,0,L|208:283,1,72.2639978027344,8|0,1:2|2:0,2:0:0:0:
126,179,99511,1,0,3:2:0:0:
151,153,99644,1,0,3:2:0:0:
125,179,99776,6,0,P|89:185|54:180,1,72.2639978027344,10|0,1:2|2:0,2:0:0:0:
137,71,100042,2,0,P|128:37|125:1,1,72.2639978027344,2|0,3:2|3:2,2:0:0:0:
288,22,100307,2,0,P|285:57|275:92,1,72.2639978027344,10|0,1:2|3:2,2:0:0:0:
227,201,100573,6,0,P|287:235|303:303,1,144.527995605469,10|4,3:2|2:0,2:0:0:0:
432,300,100971,1,2,3:2:0:0:
432,300,101104,2,0,P|431:264|437:228,1,72.2639978027344,10|4,3:0|3:0,2:0:0:0:
363,98,101369,2,0,P|363:133|357:169,1,72.2639978027344,8|0,3:2|3:2,2:0:0:0:
305,293,101635,5,10,3:0:0:0:
295,320,101768,1,4,3:0:0:0:
203,319,101900,5,10,3:0:0:0:
203,319,102033,1,4,3:0:0:0:
93,334,102166,5,8,3:2:0:0:
152,45,102697,6,0,B|278:20|241:100|355:111,1,224.39945983073,6|12,3:2|3:2,2:0:0:0:
473,172,103493,1,0,3:2:0:0:
473,172,103759,2,0,P|484:226|473:281,1,112.410663248697,4|2,3:2|3:2,2:0:0:0:
363,354,104290,6,0,P|335:346|308:343,1,56.2053316243491,14|0,3:2|2:0,2:0:0:0:
219,347,104555,1,2,3:2:0:0:
320,219,104821,2,0,P|292:226|265:229,1,56.2053316243491,6|0,3:2|2:0,2:0:0:0:
176,226,105086,1,2,3:2:0:0:
279,120,105352,2,0,P|223:99|161:107,1,112.410663248697,14|2,3:2|3:2,2:0:0:0:
42,138,105883,5,6,3:2:0:0:
42,138,106148,1,0,3:2:0:0:
22,248,106414,1,14,3:2:0:0:
22,248,106679,1,0,3:2:0:0:
120,339,106945,6,0,P|227:335|282:243,1,224.39945983073,6|12,3:2|3:2,2:0:0:0:
208,128,107741,1,0,3:2:0:0:
208,128,108007,2,0,P|224:75|270:46,1,112.410663248697,4|2,3:2|3:2,2:0:0:0:
382,109,108538,6,0,P|381:136|376:164,1,56.2053316243491,14|0,3:2|2:0,2:0:0:0:
352,251,108803,1,2,3:2:0:0:
228,204,109069,2,0,P|228:231|233:259,1,56.2053316243491,6|0,3:2|2:0,2:0:0:0:
258,346,109334,1,2,3:2:0:0:
89,303,109599,2,0,P|92:247|105:192,1,112.410663248697,14|2,3:2|3:2,2:0:0:0:
162,81,110130,6,0,L|287:71,1,112.410663248697,6|0,3:2|3:2,2:0:0:0:
326,223,110529,1,2,3:2:0:0:
326,223,110661,2,0,L|214:231,1,112.410663248697,12|2,3:2|3:2,2:0:0:0:
51,334,111192,6,0,B|103:226|5:234|54:116,1,224.39945983073,4|12,3:2|3:2,2:0:0:0:
144,43,111989,1,0,3:2:0:0:
144,43,112254,2,0,L|255:36,1,112.410663248697,4|2,3:2|3:2,2:0:0:0:
185,144,112785,6,0,L|178:199,1,56.2053316243491,14|0,3:2|2:0,2:0:0:0:
167,280,113051,1,2,3:2:0:0:
285,183,113316,2,0,L|278:127,1,56.2053316243491,6|0,3:2|2:0,2:0:0:0:
267,47,113582,1,2,3:2:0:0:
384,144,113847,2,0,L|370:255,1,112.410663248697,14|2,3:2|3:2,2:0:0:0:
276,364,114378,6,0,P|220:358|164:363,1,112.410663248697,6|0,3:2|3:2,2:0:0:0:
82,216,114776,1,2,3:2:0:0:
82,216,114909,2,0,P|137:221|193:218,1,112.410663248697,12|2,3:2|3:2,2:0:0:0:
298,63,115440,6,0,L|292:299,1,224.39945983073,6|12,3:2|3:2,2:0:0:0:
388,208,116237,1,2,3:2:0:0:
388,208,116502,2,0,P|443:214|499:208,1,112.410663248697,4|2,3:2|3:2,2:0:0:0:
443,86,117033,6,0,P|415:84|387:87,1,56.2053316243491,14|0,3:2|2:0,2:0:0:0:
305,117,117299,1,2,3:2:0:0:
288,6,117564,2,0,P|266:24|250:46,1,56.2053316243491,6|0,3:2|2:0,2:0:0:0:
212,125,117830,1,2,3:2:0:0:
118,62,118095,2,0,P|118:117|130:172,1,112.410663248697,14|2,3:2|3:2,2:0:0:0:
276,270,118626,5,14,3:2:0:0:
276,270,118892,2,0,L|275:307|275:307,3,28.0323547010634,8|4|8|4,3:0|3:0|3:0|3:0,2:0:0:0:
252,245,119157,2,0,P|224:249|196:245,1,56.2053316243491,8|4,3:0|3:0,2:0:0:0:
205,79,119422,2,0,P|232:74|260:78,1,56.2053316243491,8|4,3:0|3:0,2:0:0:0:
227,160,119688,6,0,P|115:161|3:153,1,224.39945983073,6|12,3:2|3:2,2:0:0:0:
108,252,120484,1,0,3:2:0:0:
108,252,120750,2,0,L|103:375,1,112.410663248697,4|2,3:2|3:2,2:0:0:0:
224,320,121281,6,0,L|280:318,1,56.2053316243491,14|0,3:2|2:0,2:0:0:0:
364,311,121546,1,2,3:2:0:0:
266,215,121812,2,0,L|322:217,1,56.2053316243491,6|0,3:2|2:0,2:0:0:0:
406,224,122077,1,2,3:2:0:0:
284,108,122343,2,0,L|160:123,1,112.410663248697,14|2,3:2|3:2,2:0:0:0:
71,22,122874,6,0,P|35:57|16:129,1,112.205329915364,6|0,3:2|3:2,2:0:0:0:
16,115,123272,1,0,3:2:0:0:
16,115,123405,1,14,3:2:0:0:
60,270,123670,1,0,3:2:0:0:
169,241,123936,6,0,B|253:214|292:325|373:309,1,224.39945983073,6|12,3:2|3:2,2:0:0:0:
473,251,124732,1,0,3:2:0:0:
473,251,124998,2,0,P|481:195|475:140,1,112.410663248697,4|2,3:2|3:2,2:0:0:0:
350,52,125529,6,0,L|346:109,1,56.2053316243491,14|0,3:2|2:0,2:0:0:0:
341,195,125794,1,2,3:2:0:0:
237,114,126060,2,0,L|240:171,1,56.2053316243491,6|0,3:2|2:0,2:0:0:0:
246,257,126325,1,2,3:2:0:0:
127,194,126591,2,0,L|118:311,1,112.410663248697,14|2,3:2|3:2,2:0:0:0:
16,189,127122,5,6,3:2:0:0:
20,167,127387,1,8,3:2:0:0:
24,144,127653,1,12,3:2:0:0:
174,45,127918,1,2,3:2:0:0:
174,45,128051,1,0,3:2:0:0:
174,45,128184,6,0,P|275:86|323:184,1,224.39945983073,4|12,3:2|3:2,2:0:0:0:
320,322,128980,1,0,3:2:0:0:
320,322,129246,2,0,L|202:328,1,112.410663248697,4|2,3:2|3:2,2:0:0:0:
62,271,129776,2,0,P|56:243|56:215,1,56.2053316243491,14|0,3:2|2:0,2:0:0:0:
74,129,130042,1,2,3:2:0:0:
202,141,130307,2,0,P|207:168|196:266,1,112.410663248697,6|0,3:2|3:2,2:0:0:0:
247,336,130706,1,2,3:2:0:0:
247,336,130838,6,0,L|372:331,1,112.410663248697,12|2,3:2|3:2,2:0:0:0:
464,224,131369,2,0,P|455:168|463:113,1,112.410663248697,6|0,3:2|3:2,2:0:0:0:
316,63,131768,1,2,3:2:0:0:
316,63,131900,2,0,P|324:118|316:173,1,112.410663248697,12|2,3:2|3:2,2:0:0:0:
182,267,132431,6,0,P|165:156|178:45,1,224.39945983073,6|8,3:2|1:2,2:0:0:0:
90,67,133228,1,0,3:2:0:0:
38,140,133493,1,6,3:2:0:0:
37,229,133759,5,2,3:2:0:0:
87,288,134024,1,14,3:2:0:0:
153,299,134290,1,2,3:2:0:0:
205,279,134555,5,10,3:2:0:0:
253,49,136679,6,0,P|256:192|250:336,1,288.220791210938,6|0,3:2|3:2,2:0:0:0:
153,333,137760,1,8,3:2:0:0:
88,261,138030,1,0,3:2:0:0:
64,228,138165,2,0,P|61:204|63:180,1,48.0959985351561,8|0,3:2|3:2,2:0:0:0:
143,84,138570,2,0,L|144:53,3,24.0479992675781,0|0|0|0,3:2|3:2|3:2|3:2,2:0:0:0:
163,46,138841,6,0,P|210:43|258:45,1,96.1919970703124,8|0,3:2|3:2,2:0:0:0:
287,155,139381,2,0,P|239:157|191:155,1,96.1919970703124,0|0,3:2|3:2,2:0:0:0:
177,250,139922,1,8,3:2:0:0:
238,323,140192,1,0,3:2:0:0:
271,347,140327,2,0,P|294:349|318:347,1,48.0959985351561,8|0,3:2|3:2,2:0:0:0:
442,329,140733,2,0,P|440:317|441:305,3,24.0479992675781,0|0|0|0,3:2|3:2|3:2|3:2,2:0:0:0:
458,287,141003,6,0,P|465:143|463:-1,1,288.220791210938,14|0,3:2|3:2,2:0:0:0:
375,38,142084,1,8,3:2:0:0:
287,0,142354,1,0,3:2:0:0:
245,22,142489,2,0,L|185:23,1,48.0959985351561,8|0,3:2|3:2,2:0:0:0:
144,136,142895,2,0,L|144:167,3,24.0479992675781,0|0|0|0,3:2|3:2|3:2|3:2,2:0:0:0:
131,180,143165,6,0,B|328:143|277:328|470:309,1,384.057588281248,12|10,3:2|3:2,2:0:0:0:
488,184,144516,1,0,3:2:0:0:
458,222,144651,1,10,3:2:0:0:
488,184,144787,2,0,P|488:160|488:136,1,48.0959985351561,8|8,3:2|3:0,2:0:0:0:
365,62,145057,2,0,P|364:85|364:109,1,48.0959985351561,4|4,3:0|3:0,2:0:0:0:
476,35,145327,1,12,3:2:0:0:
256,0,146949,5,10,3:2:0:0:
256,0,147219,2,0,L|254:23,4,24.0479992675781,0|0|0|0|8,3:2|3:2|3:2|3:2|3:2,2:0:0:0:
256,0,149381,6,0,L|254:23,4,24.0479992675781,0|0|0|0|8,3:2|3:2|3:2|3:2|3:2,2:0:0:0:
256,0,151543,6,0,L|254:23,4,24.0479992675781,0|0|0|0|8,3:2|3:2|3:2|3:2|3:2,2:0:0:0:
256,0,152895,5,10,3:2:0:0:
205,106,153165,2,0,P|203:129|205:153,1,48.0959985351561,8|8,3:2|3:2,2:0:0:0:
134,203,153435,2,0,P|135:226|133:250,1,48.0959985351561,10|8,3:2|3:2,2:0:0:0:
176,330,153706,1,8,3:2:0:0:
176,330,153841,1,8,3:2:0:0:
259,309,153976,5,12,3:2:0:0:
259,309,154516,1,10,3:2:0:0:
259,309,155057,1,10,3:2:0:0:
259,308,155597,2,0,P|265:213|258:117,1,192.028794140625,10|8,3:2|3:2,2:0:0:0:
444,153,156678,6,0,P|440:200|442:248,1,96.1919970703124,10|8,3:2|3:2,2:0:0:0:
302,192,157219,2,0,P|305:144|303:96,1,96.1919970703124,10|8,3:2|3:2,2:0:0:0:
160,153,157760,2,0,P|163:200|161:248,1,96.1919970703124,10|8,3:2|3:2,2:0:0:0:
254,358,158300,6,0,L|311:365,1,48.0959985351561,10|0,3:2|3:2,2:0:0:0:
242,275,158570,2,0,L|299:268,1,48.0959985351561,8|0,3:2|3:2,2:0:0:0:
137,374,158841,2,0,L|80:381,1,48.0959985351561,8|0,3:2|3:2,2:0:0:0:
149,291,159111,2,0,L|92:284,1,48.0959985351561,8|0,3:2|3:2,2:0:0:0:
59,192,159381,6,0,L|63:115,1,64.1279999999998,8|0,3:2|3:2,2:0:0:0:
169,155,159651,2,0,L|165:78,1,64.1279999999998,8|0,3:2|3:2,2:0:0:0:
259,129,159922,2,0,L|262:65,1,64.1279999999998,8|0,3:2|3:2,2:0:0:0:
348,105,160192,2,0,L|345:55,3,32.1109333333333,8|0|0|0,3:2|3:2|3:2|3:2,2:0:0:0:
368,124,160462,5,8,3:2:0:0:
255,315,161543,6,0,P|254:287|256:259,2,56.0279982910155,2|2|2,2:0|2:0|2:0,2:0:0:0:
206,174,162101,6,0,B|202:144|202:144|206:118,1,56.0279982910155,2|2,2:0|2:0,2:0:0:0:
299,125,162380,2,0,B|303:155|303:155|298:180,1,56.0279982910155,2|2,2:0|2:0,2:0:0:0:
252,247,162624,6,0,L|257:79,1,168.279994873047,14|0,3:2|3:2,2:0:0:0:
333,45,163174,2,0,P|360:47|388:44,1,56.093331624349,6|0,2:0|2:0,2:0:0:0:
457,101,163449,1,2,3:2:0:0:
457,101,163587,1,0,3:2:0:0:
428,184,163724,2,0,P|391:258|390:342,2,168.07652820638,14|2|2,3:2|2:0|2:0,2:0:0:0:
283,248,165101,6,0,L|225:251,1,56.093331624349,2|0,3:2|2:0,2:0:0:0:
160,312,165376,1,6,2:0:0:0:
160,312,165513,1,0,2:0:0:0:
88,256,165651,2,0,P|89:228|88:200,1,56.093331624349,2|0,3:2|3:2,2:0:0:0:
161,137,165926,2,0,P|216:140|272:137,1,112.186663248697,14|0,3:2|3:2,2:0:0:0:
276,33,166339,1,2,3:2:0:0:
276,33,166477,2,0,P|248:37|220:34,1,56.093331624349,12|0,3:2|2:0,2:0:0:0:
118,59,166752,1,10,3:2:0:0:
118,59,166890,1,8,3:2:0:0:
58,144,167027,6,0,P|61:199|57:255,1,112.186663248697,6|2,3:2|2:0,2:0:0:0:
128,346,167440,1,0,3:2:0:0:
128,346,167578,2,0,P|100:343|72:345,1,56.093331624349,6|0,3:2|2:0,2:0:0:0:
142,254,167853,2,0,P|169:256|197:254,1,56.093331624349,2|0,3:2|2:0,2:0:0:0:
288,249,168128,2,0,P|366:272|409:343,2,168.07652820638,14|2|2,3:2|2:0|2:0,2:0:0:0:
249,158,169229,5,4,3:2:0:0:
252,68,169504,2,0,P|253:54|252:40,4,28.0466658121744,8|8|4|4|12,3:0|3:0|3:0|3:0|3:0,2:0:0:0:
160,71,170055,1,0,3:2:0:0:
159,164,170330,2,0,P|161:219|157:275,1,112.186663248697,10|0,3:1|3:2,2:0:0:0:
158,376,170880,1,10,3:2:0:0:
362,373,171431,6,0,P|417:376|473:372,1,112.186663248697,6|2,3:2|2:0,2:0:0:0:
460,287,171844,1,0,3:2:0:0:
460,287,171981,2,0,B|457:259|457:259|460:231,1,56.093331624349,4|0,2:0|2:0,2:0:0:0:
377,179,172257,2,0,B|380:207|380:207|376:234,1,56.093331624349,2|0,3:2|3:2,2:0:0:0:
309,303,172532,2,0,L|196:307,1,112.186663248697,4|8,3:1|3:2,2:0:0:0:
155,227,172945,2,0,L|42:223,1,112.186663248697,2|0,2:0|2:0,2:0:0:0:
84,139,173357,2,0,B|86:111|86:111|84:83,1,56.093331624349,2|0,3:2|2:0,2:0:0:0:
26,18,173633,5,4,3:2:0:0:
198,57,173908,2,0,P|196:84|196:112,1,56.093331624349,2|0,2:0|3:2,2:0:0:0:
303,137,174183,2,0,P|304:109|304:81,1,56.093331624349,6|0,3:2|2:0,2:0:0:0:
266,1,174458,1,2,3:2:0:0:
266,1,174596,1,0,3:2:0:0:
354,15,174734,2,0,P|393:53|407:106,1,112.186663248697,6|8,3:2|3:2,2:0:0:0:
461,177,175146,1,2,2:0:0:0:
461,177,175284,2,0,P|460:204|462:232,1,56.093331624349,12|0,3:2|2:0,2:0:0:0:
352,274,175559,2,0,P|352:246|350:218,1,56.093331624349,2|0,3:2|2:0,2:0:0:0:
434,334,175835,5,6,3:2:0:0:
287,367,176110,2,0,L|230:365,1,56.093331624349,2|0,2:0|3:2,2:0:0:0:
182,288,176385,2,0,L|125:289,1,56.093331624349,6|0,3:2|2:0,2:0:0:0:
136,202,176660,2,0,B|141:172|141:172|138:146,1,56.093331624349,2|0,3:2|2:0,2:0:0:0:
57,117,176935,2,0,L|237:120,2,168.07652820638,6|2|2,3:2|2:0|2:0,2:0:0:0:
157,10,178036,5,4,3:2:0:0:
292,46,178312,2,0,L|292:11,3,28.1144880343966,8|8|4|4,3:0|3:0|3:0|3:0,2:0:0:0:
267,70,178587,2,0,P|271:125|268:181,1,112.186663248697,4|0,3:2|3:2,2:0:0:0:
375,270,179137,2,0,L|409:272,3,28.1144880343966,10|0|0|0,3:2|3:2|3:2|3:2,2:0:0:0:
350,288,179412,2,0,L|316:290,3,28.1144880343966,10|0|0|0,3:2|3:2|3:2|3:2,2:0:0:0:
356,256,179688,6,2,P|366:137|357:18,1,238.321871206156,14|0,3:2|2:0,2:1:0:0:
357,18,180238,6,0,P|295:21|229:19,1,128.256,14|10,3:2|3:2,2:0:0:0:
197,122,180643,1,2,3:2:0:0:
197,122,180778,2,0,P|228:120|260:123,1,64.1279999999998,2|2,2:0|3:2,2:0:0:0:
201,236,181048,1,10,3:2:0:0:
235,257,181183,1,2,2:0:0:0:
201,236,181319,6,0,B|171:244|171:244|138:236,1,64.1279999999998,2|0,3:2|3:2,2:0:0:0:
19,171,181589,2,0,B|49:179|49:179|81:171,1,64.1279999999998,10|2,3:2|3:2,2:0:0:0:
165,93,181859,2,0,L|233:102,1,64.1279999999998,2|0,2:0|3:2,2:0:0:0:
307,176,182129,2,0,L|375:167,1,64.1279999999998,8|0,3:2|2:0,2:0:0:0:
454,116,182400,5,6,3:2:0:0:
454,116,182535,1,2,3:2:0:0:
489,195,182670,2,0,P|487:226|486:258,1,64.1279999999998,10|2,3:2|3:2,2:0:0:0:
390,346,182940,1,2,2:0:0:0:
390,346,183075,1,0,3:2:0:0:
355,267,183210,2,0,P|356:235|357:203,1,64.1279999999998,10|0,3:2|2:0,2:0:0:0:
255,215,183481,6,0,B|226:221|226:221|192:212,1,64.1279999999998,2|0,3:2|3:2,2:0:0:0:
166,91,183751,2,0,B|195:85|195:85|229:94,1,64.1279999999998,10|0,3:2|3:2,2:0:0:0:
301,139,184021,2,0,L|174:160,1,128.256,2|8,2:0|3:2,2:0:0:0:
34,348,184562,6,0,L|161:357,1,128.256,6|10,3:2|3:2,2:0:0:0:
257,266,184967,1,0,3:2:0:0:
257,266,185102,2,0,B|226:258|226:258|195:266,1,64.1279999999998,2|2,2:0|3:2,2:0:0:0:
250,374,185373,2,0,B|281:382|281:382|311:373,1,64.1279999999998,10|2,3:2|2:0,2:0:0:0:
363,271,185643,6,0,P|363:239|367:207,1,64.1279999999998,2|0,3:2|3:2,2:0:0:0:
427,131,185913,2,0,P|426:99|422:67,1,64.1279999999998,10|0,3:2|3:2,2:0:0:0:
343,19,186183,1,2,2:0:0:0:
343,19,186319,1,0,3:2:0:0:
272,75,186454,1,8,3:2:0:0:
272,75,186589,1,0,2:0:0:0:
319,161,186724,6,0,P|350:158|382:160,1,64.1279999999998,6|0,3:2|3:2,2:0:0:0:
459,267,186994,1,10,3:2:0:0:
459,267,187129,2,0,P|429:322|371:345,1,128.256,2|2,3:2|3:2,2:0:0:0:
276,247,187535,2,0,P|307:249|339:246,1,64.1279999999998,10|2,3:2|2:0,2:0:0:0:
200,360,187805,6,0,B|205:327|205:327|201:296,1,64.1279999999998,2|0,3:2|3:2,2:0:0:0:
78,262,188075,2,0,B|73:295|73:295|76:325,1,64.1279999999998,10|0,3:2|3:2,2:0:0:0:
176,274,188346,2,0,L|179:118,1,128.256,2|10,2:0|3:2,2:0:0:0:
436,57,188886,6,0,L|508:64,2,64.1279999999998,14|2|0,3:2|3:2|3:2,2:0:0:0:
370,131,189292,2,0,L|306:137,2,64.1279999999998,10|0|0,3:2|2:0|3:2,2:0:0:0:
448,220,189697,2,0,L|443:294,1,64.1279999999998,14|2,3:2|3:2,2:0:0:0:
348,347,189967,6,0,P|316:350|284:348,1,64.1279999999998,14|0,3:2|2:0,2:0:0:0:
221,282,190238,2,0,P|189:279|157:283,1,64.1279999999998,2|8,3:2|3:2,2:0:0:0:
56,355,190508,2,0,P|57:291|57:227,1,128.256,2|12,3:2|3:2,2:0:0:0:
177,36,191048,6,0,B|171:70|171:70|176:98,1,64.1279999999998,14|0,3:2|3:2,2:0:0:0:
349,131,191319,2,0,B|355:97|355:97|349:68,1,64.1279999999998,2|8,3:2|3:2,2:0:0:0:
257,159,191589,2,0,L|259:222,1,64.1279999999998,2|0,3:2|3:2,2:0:0:0:
380,310,191859,2,0,L|382:246,1,64.1279999999998,14|0,3:2|3:2,2:0:0:0:
245,308,192129,6,0,P|185:326|157:382,1,128.256,14|2,3:2|3:2,2:0:0:0:
83,290,192535,1,8,3:2:0:0:
83,290,192670,2,0,P|87:226|86:162,1,128.256,2|8,3:2|3:2,2:0:0:0:
251,21,193210,6,0,P|247:52|250:84,1,64.1279999999998,6|8,3:2|3:2,2:0:0:0:
388,131,193481,2,0,P|391:99|388:67,1,64.1279999999998,2|0,1:2|3:2,2:0:0:0:
262,173,193751,2,0,P|233:186|209:207,1,64.1279999999998,14|0,3:2|3:2,2:0:0:0:
386,222,194021,2,0,P|416:231|442:250,1,64.1279999999998,2|8,1:2|3:2,2:0:0:0:
348,327,194292,5,6,3:2:0:0:
348,327,194427,1,8,3:2:0:0:
259,297,194562,1,2,3:2:0:0:
259,297,194697,1,0,3:2:0:0:
189,358,194832,2,0,L|125:366,1,64.1279999999998,14|0,3:2|3:2,2:0:0:0:
53,304,195102,2,0,P|48:272|52:240,1,64.1279999999998,14|12,3:2|3:2,2:0:0:0:
134,152,195373,6,0,L|280:179,1,128.256,6|0,3:2|3:2,2:0:0:0:
350,84,195778,1,8,3:2:0:0:
263,38,195913,2,0,L|137:61,1,128.256,6|0,3:2|3:2,2:0:0:0:
24,121,196319,1,8,3:2:0:0:
24,121,196454,6,0,L|21:152,3,32.0639999999999,2|0|0|0,3:2|3:2|3:2|3:2,2:0:0:0:
37,173,196724,2,0,L|39:204,3,32.0639999999999,0|0|0|0,3:2|3:2|3:2|3:2,2:0:0:0:
23,225,196994,2,0,L|20:256,3,32.0639999999999,10|8|8|8,3:3|3:0|3:0|3:0,2:0:0:0:
39,275,197265,2,0,B|73:284|73:284|101:277,1,64.1279999999998,4|4,3:0|3:0,2:0:0:0:
208,236,197535,6,0,P|255:239|303:237,3,96.110930403646,14|0|4|4,3:2|1:2|3:2|3:2,2:0:0:0:
389,227,198596,1,8,3:2:0:0:
304,236,200720,5,14,3:2:0:0:
304,236,201782,6,0,P|256:239|208:237,3,96.110930403646,4|0|4|0,3:2|3:2|3:2|3:2,2:0:0:0:
123,227,202844,1,14,3:2:0:0:
284,34,205322,6,0,L|284:-2,2,32.1775990234375,0|0|8,3:2|3:2|3:2,2:0:0:0:
197,59,205765,1,0,3:2:0:0:
208,147,206030,6,0,P|255:144|303:146,3,96.110930403646,4|0|4|0,3:2|3:2|3:2|3:2,2:0:0:0:
389,157,207092,1,8,1:2:0:0:
303,146,209216,5,8,3:2:0:0:
303,146,210278,6,0,P|255:144|208:148,3,96.110930403646,4|0|4|0,3:2|3:2|3:2|3:2,2:0:0:0:
123,157,211340,1,8,1:2:0:0:
416,276,213729,6,0,L|415:252,3,24.0277326009115,8|4|10|8,3:0|3:0|3:2|3:2,2:0:0:0:
393,229,213995,2,0,P|345:224|297:228,1,96.3519970703128,8|2,3:2|3:2,2:0:0:0:
144,329,214526,6,0,B|181:221|95:218|137:111,1,224.39945983073,6|4,3:2|3:2,2:0:0:0:
242,32,215322,1,0,3:2:0:0:
242,32,215588,2,0,L|366:25,1,112.410663248697,12|2,3:2|3:2,2:0:0:0:
386,183,216119,6,0,P|389:155|388:127,1,56.2053316243491,6|0,3:2|2:0,2:0:0:0:
306,136,216384,1,2,3:2:0:0:
207,211,216650,2,0,P|203:183|204:155,1,56.2053316243491,6|0,3:2|2:0,2:0:0:0:
287,164,216915,1,2,3:2:0:0:
369,289,217181,2,0,L|238:307,1,112.410663248697,6|2,3:2|3:2,2:0:0:0:
103,250,217711,6,0,P|100:195|105:139,1,112.410663248697,14|0,3:2|3:2,2:0:0:0:
187,51,218242,1,6,3:2:0:0:
286,138,218508,1,8,3:2:0:0:
251,113,218641,1,8,3:2:0:0:
286,138,218773,6,0,P|341:145|396:138,1,112.410663248697,6|4,3:2|3:2,2:0:0:0:
454,293,219304,2,0,P|398:285|343:292,1,112.410663248697,4|0,3:2|3:2,2:0:0:0:
203,362,219835,2,0,L|90:354,1,112.410663248697,12|2,3:2|3:2,2:0:0:0:
62,135,220366,6,0,L|57:211,1,56.2053316243491,6|0,3:2|2:0,2:0:0:0:
122,259,220632,1,2,3:2:0:0:
122,259,220765,1,4,3:0:0:0:
122,259,220897,2,0,P|177:255|233:259,1,112.410663248697,6|2,3:2|3:2,2:0:0:0:
366,297,221428,1,6,3:2:0:0:
366,297,221694,1,2,3:2:0:0:
444,180,221959,6,0,B|460:123|460:123|445:72,1,112.410663248697,6|8,3:2|3:2,2:0:0:0:
445,72,222358,1,10,3:2:0:0:
445,72,222490,1,8,3:0:0:0:
337,35,222756,1,2,3:2:0:0:
337,35,222888,1,4,3:0:0:0:
337,35,223021,6,0,P|351:88|337:141,1,112.410663248697,6|4,3:2|3:2,2:0:0:0:
180,175,223552,2,0,P|165:121|179:68,1,112.410663248697,4|0,3:2|3:2,2:0:0:0:
285,228,224083,2,0,L|282:349,1,112.410663248697,12|2,3:2|3:2,2:0:0:0:
166,311,224614,6,0,P|162:338|166:366,1,56.2053316243491,6|0,3:2|2:0,2:0:0:0:
82,332,224880,1,2,3:2:0:0:
185,169,225145,2,0,P|188:196|184:224,1,56.2053316243491,6|0,3:2|2:0,2:0:0:0:
269,190,225411,1,2,3:2:0:0:
206,76,225676,2,0,L|90:87,1,112.410663248697,6|2,3:2|3:2,2:0:0:0:
269,190,226207,5,14,3:2:0:0:
383,232,226738,1,6,3:2:0:0:
490,161,227269,6,0,P|399:178|260:382,1,336.388256412762,6|0,3:2|3:2,2:0:0:0:
261,364,228331,1,8,1:2:0:0:
160,284,228596,6,0,P|162:228|160:172,2,112.199729915364,2|6|2,3:2|3:2|3:2,2:0:0:0:
86,384,229393,1,10,3:2:0:0:
401,139,231517,6,0,L|397:189,3,40.0462222222222,14|0|0|0,3:2|3:2|3:2|3:2,2:0:0:0:
425,206,231782,2,0,L|429:256,3,40.0462222222222,8|0|0|0,3:2|3:2|3:2|3:2,2:0:0:0:
397,272,232048,2,0,L|332:282,3,40.0462222222222,8|0|0|0,3:2|3:2|3:2|3:2,2:0:0:0:
321,262,232313,2,0,P|281:264|241:258,1,80.2933333333335,8|0,3:2|3:2,2:0:0:0:
124,197,232579,5,12,1:2:0:0:
