osu file format v14

[General]
AudioFilename: audio.mp3
AudioLeadIn: 0
PreviewTime: 26050
Countdown: 0
SampleSet: Soft
StackLeniency: 0.6
Mode: 0
LetterboxInBreaks: 0
WidescreenStoryboard: 1

[Editor]
DistanceSpacing: 1.1
BeatDivisor: 4
GridSize: 32
TimelineZoom: 3.799999

[Metadata]
Title:King For A Day (feat. Kellin Quinn)
TitleUnicode:King For A Day (feat. Kellin Quinn)
Artist:Pierce The Veil
ArtistUnicode:Pierce The Veil
Creator:attendant
Version:Extreme
Source:
Tags:collide with the sky alternative metal punk post hardcore sleeping sirens english
BeatmapID:2278930
BeatmapSetID:1074059

[Difficulty]
HPDrainRate:5
CircleSize:4
OverallDifficulty:9.2
ApproachRate:9.4
SliderMultiplier:1.6
SliderTickRate:1

[Events]
//Background and Video events
0,0,"bg.jpg",0,0
Video,1988,"video.mp4"
//Break Periods
2,41304,42166
2,60286,61803
2,85773,89157
2,134755,135617
2,145527,146409
2,147689,148841
2,149851,151003
2,198796,200180
2,203044,204782
2,207292,208676
2,211540,213189
2,229593,230455
//Storyboard Layer 0 (Background)
//Storyboard Layer 1 (Fail)
//Storyboard Layer 2 (Pass)
//Storyboard Layer 3 (Foreground)
//Storyboard Layer 4 (Overlay)
//Storyboard Sound Samples

[TimingPoints]
8981,265.486725663717,4,2,1,80,1,0
9113,-133.333333333333,4,2,1,80,0,1
9180,-133.333333333333,4,2,1,80,0,0
9246,265.486725663717,4,2,4,80,1,0
9644,-133.333333333333,4,2,4,80,0,0
11237,-133.333333333333,4,2,1,80,0,0
11635,-133.333333333333,4,2,4,80,0,0
13361,-133.333333333333,4,2,1,80,0,0
18007,-133.333333333333,4,2,4,80,0,0
19732,-133.333333333333,4,2,1,80,0,0
20130,-133.333333333333,4,2,4,80,0,0
21856,-133.333333333333,4,2,1,90,0,0
22520,-133.333333333333,4,2,3,90,0,0
23051,-133.333333333333,4,2,1,90,0,0
23582,-133.333333333333,4,2,2,90,0,0
24113,-133.333333333333,4,2,1,90,0,0
24378,-133.333333333333,4,2,2,90,0,0
24644,-133.333333333333,4,2,3,90,0,0
24909,-133.333333333333,4,2,2,90,0,0
25175,-133.333333333333,4,2,1,90,0,0
26104,-133.333333333333,4,2,7,90,0,1
26502,-100,4,2,2,90,0,1
26768,-100,4,2,5,90,0,1
28228,-166.666666666667,4,2,7,90,0,1
28626,-76.9230769230769,4,2,2,90,0,1
28891,-76.9230769230769,4,2,5,90,0,1
29157,-100,4,2,5,90,0,1
30352,-100,4,2,1,90,0,1
31812,-100,4,2,5,90,0,1
32476,-86.9565217391304,4,2,7,90,0,1
32874,-86.9565217391304,4,2,2,90,0,1
33007,-100,4,2,4,90,0,1
33404,-100,4,2,5,90,0,1
33803,-100,4,2,2,90,0,1
34201,-100,4,2,4,90,0,1
34334,-100,4,2,2,90,0,1
34599,-100,4,2,1,90,0,1
34799,-100,4,2,1,5,0,1
34864,-100,4,2,1,90,0,1
34998,-100,4,2,2,90,0,1
35263,-100,4,2,5,90,0,1
36723,-100,4,2,7,90,0,1
37122,-100,4,2,1,90,0,1
37652,-100,4,2,4,90,0,1
38847,-100,4,2,1,90,0,1
39046,-100,4,2,1,5,0,1
39113,-100,4,2,1,90,0,1
39245,-100,4,2,4,90,0,1
41104,-100,4,2,4,90,0,0
43228,-166.666666666667,4,2,1,80,0,1
43294,-166.666666666667,4,2,1,80,0,0
43759,-166.666666666667,4,2,2,80,0,0
47476,-166.666666666667,4,2,1,80,0,0
47741,-166.666666666667,4,2,21,80,0,0
48006,-166.666666666667,4,2,2,80,0,0
51723,-166.666666666667,4,2,1,80,0,0
51989,-166.666666666667,4,2,21,80,0,0
52253,-166.666666666667,4,2,2,80,0,0
55971,-166.666666666667,4,2,1,80,0,0
56237,-166.666666666667,4,2,21,80,0,0
56501,-166.666666666667,4,2,2,80,0,0
60086,-166.666666666667,4,2,1,80,0,0
64268,-166.666666666667,4,2,11,5,0,0
64334,-100,4,2,7,90,0,1
64400,-100,4,2,1,90,0,0
64998,-100,4,2,4,90,0,0
65263,-100,4,2,2,90,0,0
65529,-100,4,2,4,90,0,0
65794,-100,4,2,2,90,0,0
66458,-100,4,2,1,90,0,0
66856,-100,4,2,4,90,0,0
67122,-100,4,2,2,90,0,0
67387,-100,4,2,4,90,0,0
67653,-100,4,2,2,90,0,0
68582,-133.333333333333,4,2,1,70,0,0
76148,-100,4,2,1,70,0,0
76414,-80,4,2,1,70,0,0
76679,-66.6666666666667,4,2,1,70,0,0
76945,-57.1428571428571,4,2,1,70,0,0
77077,-111.111111111111,4,2,6,80,0,0
77476,-111.111111111111,4,2,4,80,0,0
79201,-111.111111111111,4,2,1,80,0,0
79599,-111.111111111111,4,2,4,80,0,0
81325,-111.111111111111,4,2,1,80,0,0
81723,-111.111111111111,4,2,4,80,0,0
83449,-86.9565217391304,4,2,6,90,0,1
83515,-86.9565217391304,4,2,1,90,0,0
83847,-86.9565217391304,4,2,4,90,0,0
84113,-86.9565217391304,4,2,1,90,0,0
84378,-86.9565217391304,4,2,2,90,0,0
84644,-86.9565217391304,4,2,4,90,0,0
84909,-86.9565217391304,4,2,3,90,0,0
85175,-86.9565217391304,4,2,2,90,0,0
85573,-86.9565217391304,4,2,1,90,0,0
89821,-76.9230769230769,4,2,6,90,0,1
90219,-76.9230769230769,4,2,1,90,0,1
90484,-76.9230769230769,4,2,5,90,0,1
90750,-100,4,2,5,90,0,1
91945,-100,4,2,2,90,0,1
92144,-100,4,2,2,5,0,1
92210,-100,4,2,2,90,0,1
92608,-100,4,2,5,90,0,1
93139,-100,4,2,2,90,0,1
94069,-100,4,2,1,90,0,1
94467,-100,4,2,2,90,0,1
94732,-100,4,2,5,90,0,1
96192,-86.9565217391304,4,2,1,90,0,1
96591,-76.9230769230769,4,2,1,90,0,1
97122,-76.9230769230769,4,2,5,90,0,1
97254,-100,4,2,5,90,0,1
98184,-100,4,2,1,90,0,1
98714,-100,4,2,4,90,0,1
100573,-100,4,2,1,90,0,1
100838,-100,4,2,5,90,0,1
100971,-100,4,2,1,90,0,1
102166,-66.6666666666667,4,2,1,90,0,0
102232,-66.6666666666667,4,2,10,80,0,0
102630,-66.6666666666667,4,2,10,5,0,0
102697,-166.666666666667,4,2,1,80,0,1
102763,-166.666666666667,4,2,1,80,0,0
103228,-166.666666666667,4,2,2,80,0,0
106945,-166.666666666667,4,2,1,80,0,0
107210,-166.666666666667,4,2,21,80,0,0
107475,-166.666666666667,4,2,2,80,0,0
111192,-166.666666666667,4,2,1,80,0,0
111458,-166.666666666667,4,2,21,80,0,0
111722,-166.666666666667,4,2,2,80,0,0
115440,-166.666666666667,4,2,1,80,0,0
115706,-166.666666666667,4,2,21,80,0,0
115970,-166.666666666667,4,2,2,80,0,0
119688,-166.666666666667,4,2,1,80,0,1
119754,-166.666666666667,4,2,1,80,0,0
119953,-166.666666666667,4,2,21,80,0,0
120218,-166.666666666667,4,2,2,80,0,0
123405,-166.666666666667,4,2,1,80,0,0
124201,-166.666666666667,4,2,21,80,0,0
124466,-166.666666666667,4,2,2,80,0,0
128184,-166.666666666667,4,2,1,80,0,0
128449,-166.666666666667,4,2,21,80,0,0
128714,-166.666666666667,4,2,2,80,0,0
132431,-166.666666666667,4,2,1,80,0,0
132697,-166.666666666667,4,2,21,80,0,0
132961,-166.666666666667,4,2,4,80,0,0
136679,270.27027027027,4,2,1,70,1,0
136679,-200,4,2,1,70,0,0
143165,-200,4,2,1,70,0,1
143435,-200,4,2,21,70,0,1
143975,-200,4,2,1,70,0,1
144246,-200,4,2,1,70,0,0
144516,-133.333333333333,4,2,1,70,0,0
153976,-200,4,2,1,50,0,0
155057,-200,4,2,1,55,0,0
156138,-200,4,2,1,60,0,0
157219,-200,4,2,1,65,0,0
158300,-66.6666666666667,4,2,1,80,0,0
158570,-80,4,2,1,80,0,0
158841,-100,4,2,1,80,0,0
159111,-133.333333333333,4,2,1,80,0,0
159381,-133.333333333333,4,2,1,85,0,0
160462,-133.333333333333,4,2,1,100,0,0
161543,279.06976744186,4,2,1,65,1,0
161822,-133.333333333333,4,2,1,65,0,0
162031,-133.333333333333,4,2,11,5,0,0
162101,-133.333333333333,4,2,1,65,0,0
162624,275.229357798165,4,2,6,80,1,1
162624,-133.333333333333,4,2,6,80,0,1
162692,-133.333333333333,4,2,1,80,0,0
162899,-133.333333333333,4,2,2,80,0,0
170880,-100,4,2,1,80,0,0
170914,-100,4,2,10,80,0,0
171431,-133.333333333333,4,2,1,80,0,0
171981,-133.333333333333,4,2,2,80,0,0
172532,-133.333333333333,4,2,1,80,0,0
173357,-133.333333333333,4,2,2,80,0,0
177486,-133.333333333333,4,2,1,80,0,0
178036,-133.333333333333,4,2,3,80,0,0
178312,-133.333333333333,4,2,2,80,0,0
179137,-100,4,2,2,80,0,0
179688,-100,4,2,2,100,0,0
180238,270.27027027027,4,2,6,90,1,1
180238,-86.9565217391304,4,2,6,90,0,1
180508,-86.9565217391304,4,2,1,90,0,1
189967,-86.9565217391304,4,2,2,90,0,1
191048,-86.9565217391304,4,2,1,90,0,1
191859,-86.9565217391304,4,2,2,90,0,1
192129,-86.9565217391304,4,2,1,90,0,1
193210,-125,4,2,1,90,0,1
193481,-86.9565217391304,4,2,4,90,0,1
193751,-125,4,2,2,90,0,1
194021,-86.9565217391304,4,2,4,90,0,1
194292,-86.9565217391304,4,2,3,90,0,1
194832,-86.9565217391304,4,2,5,90,0,1
195102,-66.6666666666667,4,2,2,90,0,1
195237,-66.6666666666667,4,2,5,90,0,1
195373,-66.6666666666667,4,2,1,90,0,1
195913,-66.6666666666667,4,2,2,90,0,1
196994,-86.9565217391304,4,2,2,90,0,1
197535,265.486725663717,4,2,6,80,1,0
197535,-166.666666666667,4,2,6,80,0,0
197800,-166.666666666667,4,2,4,80,0,0
198065,-166.666666666667,4,2,2,80,0,0
198331,-166.666666666667,4,2,3,80,0,0
198596,-166.666666666667,4,2,1,60,0,0
200720,-166.666666666667,4,2,2,60,0,0
201782,-166.666666666667,4,2,1,80,0,0
202313,-166.666666666667,4,2,2,80,0,0
202844,-166.666666666667,4,2,4,60,0,0
205322,-166.666666666667,4,2,2,60,0,0
206030,-166.666666666667,4,2,1,80,0,0
206561,-166.666666666667,4,2,2,80,0,0
207092,-166.666666666667,4,2,4,60,0,0
209216,-166.666666666667,4,2,2,60,0,0
209813,-166.666666666667,4,2,11,60,0,0
210145,-166.666666666667,4,2,11,5,0,0
210278,-166.666666666667,4,2,1,80,0,0
210809,-166.666666666667,4,2,2,80,0,0
211340,-166.666666666667,4,2,4,60,0,0
213729,-166.666666666667,4,2,2,60,0,0
214526,-166.666666666667,4,2,1,80,0,1
214592,-166.666666666667,4,2,1,80,0,0
215057,-166.666666666667,4,2,2,80,0,0
218773,-166.666666666667,4,2,1,80,0,0
219039,-166.666666666667,4,2,3,80,0,0
219304,-166.666666666667,4,2,2,80,0,0
223021,-166.666666666667,4,2,1,80,0,0
223287,-166.666666666667,4,2,3,80,0,0
223552,-166.666666666667,4,2,2,80,0,0
227269,-166.666666666667,4,2,1,80,0,0
227535,-166.666666666667,4,2,21,80,0,0
227799,-166.666666666667,4,2,2,80,0,0
228331,-166.666666666667,4,2,4,80,0,0
228862,-166.666666666667,4,2,2,80,0,0
229393,-166.666666666667,4,2,4,80,0,0
231517,-166.666666666667,4,2,1,100,0,1
232579,-83.3333333333333,4,2,4,100,0,0
232844,-83.3333333333333,4,2,4,30,0,0

[Colours]
Combo1 : 17,254,176
Combo2 : 173,255,95
Combo3 : 255,88,100
Combo4 : 255,94,55

[HitObjects]
185,339,8981,5,8,3:2:0:0:
367,180,9113,2,0,L|373:307,1,120.000004577637,6|2,3:2|3:2,2:0:0:0:
243,127,9511,1,8,1:2:0:0:
243,127,9644,6,0,P|273:123|303:126,1,60.3360022888184,2|0,2:0|3:2,2:0:0:0:
163,279,9909,1,2,3:2:0:0:
235,105,10042,1,8,1:2:0:0:
318,308,10175,6,0,P|322:278|319:248,1,60.3360022888184,2|0,2:0|3:2,2:0:0:0:
145,154,10440,1,2,3:2:0:0:
330,233,10573,1,8,1:2:0:0:
79,350,10706,6,0,P|75:320|78:290,1,60.3360022888184,0|0,2:0|3:2,2:0:0:0:
320,274,10971,1,2,3:2:0:0:
138,235,11104,1,8,1:2:0:0:
339,278,11237,6,0,P|346:218|339:159,1,120.220004577637,6|2,3:2|3:2,2:0:0:0:
443,18,11635,2,0,L|383:14,1,60.3360022888184,10|2,1:2|2:0,2:0:0:0:
202,62,11900,2,0,L|261:65,1,60.3360022888184,2|2,3:2|3:2,2:0:0:0:
478,181,12166,6,0,P|481:151|478:121,1,60.3360022888184,10|0,1:2|2:0,2:0:0:0:
226,208,12431,1,2,3:2:0:0:
226,208,12564,2,0,P|222:237|225:267,1,60.3360022888184,2|8,3:2|1:2,2:0:0:0:
383,14,12830,6,0,P|353:10|324:14,1,60.3360022888184,2|0,2:0|3:2,2:0:0:0:
226,208,13095,1,2,3:2:0:0:
478,121,13228,1,8,1:2:0:0:
348,317,13361,6,0,L|353:197,1,120.220004577637,6|2,3:2|3:2,2:0:0:0:
208,306,13759,2,0,L|212:366,1,60.3360022888184,10|2,3:2|1:2,2:0:0:0:
437,322,14024,2,0,L|441:263,1,60.3360022888184,0|2,3:2|1:2,2:0:0:0:
205,247,14290,2,0,L|209:307,1,60.3360022888184,10|2,3:2|1:2,2:0:0:0:
441,263,14555,2,0,L|445:204,1,60.3360022888184,0|2,3:2|1:2,2:0:0:0:
201,187,14821,6,0,L|204:246,1,60.3360022888184,8|2,3:2|1:2,2:0:0:0:
383,102,15086,1,0,3:2:0:0:
335,324,15219,1,2,3:2:0:0:
291,81,15352,1,8,3:2:0:0:
334,343,15484,6,0,P|274:349|215:342,1,120.220004577637,6|2,3:2|3:2,2:0:0:0:
418,180,15883,2,0,P|420:209|417:239,1,60.3360022888184,10|2,3:2|1:2,2:0:0:0:
231,80,16148,2,0,P|260:77|290:80,1,60.3360022888184,2|2,3:2|1:2,2:0:0:0:
125,253,16414,1,10,3:2:0:0:
172,10,16546,1,2,1:2:0:0:
218,225,16679,5,2,3:2:0:0:
88,58,16812,1,8,3:2:0:0:
88,58,16878,1,8,3:2:0:0:
88,58,16945,1,10,3:2:0:0:
290,80,17077,5,10,3:2:0:0:
40,204,17210,1,8,3:2:0:0:
172,10,17343,5,8,3:0:0:0:
228,309,17476,1,4,3:0:0:0:
88,58,17608,6,0,P|147:51|206:58,1,120.220004577637,6|2,3:2|3:2,2:0:0:0:
40,204,18007,1,10,1:2:0:0:
228,309,18139,2,0,L|231:249,1,60.3360022888184,2|0,2:0|3:2,2:0:0:0:
88,58,18405,2,0,L|84:117,1,60.3360022888184,2|8,3:2|1:2,2:0:0:0:
290,80,18670,6,0,L|286:20,1,60.3360022888184,2|0,2:0|3:2,2:0:0:0:
163,179,18936,1,2,3:2:0:0:
351,285,19069,1,10,1:2:0:0:
295,93,19201,2,0,L|298:152,1,60.3360022888184,2|0,2:0|3:2,2:0:0:0:
143,317,19467,1,2,3:2:0:0:
196,95,19599,1,8,1:2:0:0:
291,384,19732,6,0,L|410:377,1,120.220004577637,6|2,3:2|3:2,2:0:0:0:
234,257,20130,1,10,1:2:0:0:
420,198,20263,6,0,L|416:257,1,60.3360022888184,2|0,2:0|3:2,2:0:0:0:
192,154,20529,2,0,L|195:94,1,60.3360022888184,2|8,3:2|1:2,2:0:0:0:
416,257,20794,6,0,L|412:316,1,60.3360022888184,2|0,2:0|3:2,2:0:0:0:
195,94,21060,2,0,L|198:34,1,60.3360022888184,2|8,3:2|1:2,2:0:0:0:
413,317,21325,6,0,L|409:376,1,60.3360022888184,2|0,2:0|3:2,2:0:0:0:
295,96,21591,1,2,3:2:0:0:
252,373,21723,1,8,1:2:0:0:
413,96,21856,6,0,P|353:88|294:95,1,120.220004577637,6|0,3:2|3:2,2:0:0:0:
143,317,22254,2,0,L|139:376,1,60.3360022888184,8|0,3:2|3:2,2:0:0:0:
373,234,22520,5,14,3:2:0:0:
116,180,22653,1,0,3:2:0:0:
399,240,22785,2,0,L|395:299,1,60.3360022888184,8|0,3:2|3:2,2:0:0:0:
294,95,23051,5,14,3:2:0:0:
252,373,23184,1,0,3:2:0:0:
299,68,23316,2,0,L|239:64,1,60.3360022888184,8|0,3:2|3:2,2:0:0:0:
425,248,23582,5,14,3:2:0:0:
143,317,23715,1,0,3:2:0:0:
452,241,23847,2,0,L|510:237,1,60.3360022888184,8|0,3:2|3:2,2:0:0:0:
301,61,24113,5,14,3:2:0:0:
256,285,24246,1,0,3:2:0:0:
210,61,24378,5,12,3:2:0:0:
256,302,24511,1,0,3:2:0:0:
321,40,24644,5,12,3:2:0:0:
256,317,24776,1,0,3:2:0:0:
189,40,24909,5,12,3:2:0:0:
256,334,25042,1,0,3:2:0:0:
342,21,25175,5,8,3:2:0:0:
88,192,25307,1,8,3:3:0:0:
88,192,25374,1,4,3:3:0:0:
88,192,25440,1,8,3:2:0:0:
390,359,25573,5,8,3:2:0:0:
256,141,25706,1,8,3:2:0:0:
121,359,25838,5,8,3:0:0:0:
423,192,25971,1,4,3:0:0:0:
170,21,26104,5,14,3:2:0:0:
399,270,26502,6,0,P|406:230|399:191,1,80.4480000000001,14|0,3:2|2:0,2:0:0:0:
176,140,26768,1,6,3:2:0:0:
409,53,26900,1,0,3:2:0:0:
89,22,27033,2,0,P|81:61|88:100,1,80.4480000000001,10|0,3:2|2:0,2:0:0:0:
319,191,27299,6,0,L|398:195,1,80.4480000000001,2|0,3:2|3:2,2:0:0:0:
176,60,27564,2,0,L|171:139,1,80.4480000000001,14|0,3:2|2:0,2:0:0:0:
428,28,27830,5,6,3:2:0:0:
155,58,27962,1,6,3:2:0:0:
474,120,28095,1,8,3:2:0:0:
134,56,28228,6,2,L|149:150,1,96.1759970703127,14|0,3:2|3:2,2:0:0:0:
319,111,28626,6,0,P|322:26|250:71,1,208.381323811849,10|4,3:2|3:2,2:0:0:0:
354,329,29024,1,0,3:2:0:0:
474,120,29157,2,0,L|479:24,1,80.4480000000001,10|0,3:2|2:0,2:0:0:0:
253,233,29422,5,2,3:2:0:0:
511,307,29555,2,0,L|516:211,1,80.4480000000001,2|12,3:2|3:2,2:0:0:0:
258,26,29821,2,0,L|263:121,1,80.4480000000001,2|0,2:0|3:2,2:0:0:0:
431,4,30086,1,6,3:2:0:0:
352,224,30219,1,8,3:2:0:0:
247,12,30352,6,0,L|257:203,1,160.293333333333,6|2,3:2|3:2,2:0:0:0:
354,329,30750,1,8,3:2:0:0:
70,273,30883,6,0,B|110:258|146:282|146:282|180:306|221:293,1,160.293333333333,2|0,2:0|3:2,2:0:0:0:
24,76,31281,2,0,L|18:175,1,80.4480000000001,8|0,3:2|2:0,2:0:0:0:
210,47,31546,1,0,3:2:0:0:
131,248,31679,1,0,3:2:0:0:
37,88,31812,6,0,L|41:8,1,80.4480000000001,14|0,3:2|2:0,2:0:0:0:
248,141,32077,1,6,3:2:0:0:
44,226,32210,1,6,3:2:0:0:
210,47,32343,1,8,3:2:0:0:
308,292,32476,6,0,B|357:330|357:330|478:317,1,184.337336842855,14|0,3:2|3:2,2:0:0:0:
248,141,32874,1,8,3:2:0:0:
495,80,33007,2,0,P|502:119|495:158,1,80.4480000000001,6|0,2:0|3:2,2:0:0:0:
248,219,33272,2,0,P|240:179|247:140,1,80.4480000000001,2|12,3:2|3:2,2:0:0:0:
391,0,33538,6,0,L|396:95,1,80.4480000000001,6|0,2:0|3:2,2:0:0:0:
308,292,33803,1,8,3:0:0:0:
308,292,33869,1,4,3:0:0:0:
308,292,33936,1,8,3:2:0:0:
502,236,34069,5,8,3:2:0:0:
264,152,34201,1,14,3:2:0:0:
454,340,34334,5,8,3:0:0:0:
391,79,34467,1,4,3:0:0:0:
289,320,34599,6,0,P|274:241|288:163,1,160.293333333333,6|0,3:2|3:2,2:0:0:0:
102,363,34998,2,0,L|197:368,1,80.4480000000001,14|0,3:2|2:0,2:0:0:0:
103,126,35263,1,6,3:2:0:0:
32,294,35396,2,0,L|36:214,2,80.1466666666667,2|8|2,3:2|3:2|2:0,2:0:0:0:
182,130,35794,6,0,L|102:125,1,80.4480000000001,0|0,3:2|3:2,2:0:0:0:
384,236,36060,2,0,L|463:240,1,80.4480000000001,10|0,3:2|3:2,2:0:0:0:
308,71,36325,1,6,3:2:0:0:
230,287,36458,1,6,3:2:0:0:
316,49,36591,1,8,3:2:0:0:
401,343,36723,6,0,L|409:183,1,160.293333333333,14|0,3:2|3:2,2:0:0:0:
232,384,37122,2,0,L|327:389,1,80.4480000000001,10|0,3:2|2:0,2:0:0:0:
195,147,37387,1,2,3:2:0:0:
390,241,37520,2,0,L|310:236,1,80.4480000000001,2|8,3:2|1:2,2:0:0:0:
512,141,37785,6,0,P|519:180|512:219,1,80.4480000000001,2|0,2:0|3:2,2:0:0:0:
315,127,38051,2,0,P|308:88|315:49,1,80.4480000000001,2|8,3:2|1:2,2:0:0:0:
510,8,38316,6,0,L|414:2,1,80.4480000000001,2|0,2:0|3:2,2:0:0:0:
195,147,38582,1,2,3:2:0:0:
390,241,38715,1,8,1:2:0:0:
315,48,38847,1,4,3:2:0:0:
209,291,38980,6,0,L|217:131,2,160.293333333333,2|8|0,2:0|1:2|3:2,2:0:0:0:
269,357,39644,1,0,3:2:0:0:
385,222,39776,2,0,L|289:216,1,80.4480000000001,8|0,1:2|2:0,2:0:0:0:
137,127,40042,2,0,L|216:131,1,80.4480000000001,0|0,3:2|3:2,2:0:0:0:
512,0,40307,6,0,P|473:-7|434:0,1,80.4480000000001,10|0,1:2|2:0,2:0:0:0:
209,291,40573,5,2,3:2:0:0:
258,44,40706,1,0,3:2:0:0:
304,330,40838,5,10,1:2:0:0:
259,23,40971,1,0,3:2:0:0:
16,216,41104,5,10,1:2:0:0:
154,98,43228,6,0,L|148:193,1,96.1759970703127,6|0,3:2|3:2,2:0:0:0:
314,265,43626,1,0,3:2:0:0:
314,265,43759,2,0,L|319:169,1,96.1759970703127,14|0,3:2|3:2,2:0:0:0:
447,90,44290,5,4,3:2:0:0:
447,90,44555,1,2,3:2:0:0:
381,1,44821,1,14,3:2:0:0:
314,169,45086,1,2,3:2:0:0:
444,298,45352,6,0,P|455:251|444:204,1,96.1759970703127,6|2,3:2|3:2,2:0:0:0:
315,257,45750,1,0,2:0:0:0:
315,257,45883,2,0,L|378:260,1,48.2687985351563,14|0,3:2|2:0,2:0:0:0:
243,334,46148,2,0,L|195:336,1,48.2687985351563,2|0,3:2|2:0,2:0:0:0:
196,138,46414,6,0,P|218:184|217:239,1,96.1759970703127,6|0,3:2|3:2,2:0:0:0:
337,78,46812,1,0,3:2:0:0:
337,78,46945,2,0,P|315:120|313:167,1,96.1759970703127,14|0,3:2|3:2,2:0:0:0:
234,27,47476,6,0,P|144:0|54:27,1,192.351994140625,6|12,3:2|3:2,2:0:0:0:
10,126,48272,1,0,3:2:0:0:
106,238,48538,5,4,3:2:0:0:
106,238,48803,1,2,3:2:0:0:
0,301,49069,1,14,3:2:0:0:
139,358,49334,1,2,3:2:0:0:
260,171,49599,6,0,L|254:266,1,96.1759970703127,6|2,3:2|3:2,2:0:0:0:
353,143,49998,1,0,2:0:0:0:
353,143,50130,2,0,L|349:206,1,48.2687985351563,14|0,3:2|2:0,2:0:0:0:
242,65,50396,2,0,L|289:67,1,48.2687985351563,2|0,3:2|2:0,2:0:0:0:
481,22,50661,6,0,L|385:16,1,96.1759970703127,6|0,3:2|3:2,2:0:0:0:
491,165,51060,1,2,3:2:0:0:
491,165,51192,2,0,L|494:101,1,48.2687985351563,12|0,3:2|2:0,2:0:0:0:
350,190,51458,2,0,L|347:237,1,48.2687985351563,2|0,3:2|2:0,2:0:0:0:
495,367,51723,6,0,P|415:304|406:354,1,192.351994140625,4|12,3:2|3:2,2:0:0:0:
314,371,52520,1,0,3:2:0:0:
256,283,52785,5,4,3:2:0:0:
256,283,53051,1,2,3:2:0:0:
191,384,53316,1,14,3:2:0:0:
153,247,53582,1,2,3:2:0:0:
211,58,53847,6,0,P|257:46|304:58,1,96.1759970703127,6|2,3:2|3:2,2:0:0:0:
258,187,54246,1,0,2:0:0:0:
258,187,54378,2,0,L|261:122,1,48.2687985351563,14|0,3:2|2:0,2:0:0:0:
345,244,54644,2,0,L|342:291,1,47.9071985351563,2|0,3:2|2:0,2:0:0:0:
130,297,54909,6,0,L|225:302,1,96.1759970703127,6|0,3:2|3:2,2:0:0:0:
110,144,55307,1,2,3:2:0:0:
110,144,55440,2,0,L|113:79,1,48.2687985351563,12|0,3:2|2:0,2:0:0:0:
11,227,55706,2,0,L|8:274,1,48.2687985351563,2|0,3:2|2:0,2:0:0:0:
109,365,55971,6,0,B|155:341|201:365|201:365|247:388|293:365,1,192.351994140625,6|12,3:2|3:2,2:0:0:0:
373,311,56768,1,2,3:2:0:0:
260,204,57033,5,4,3:2:0:0:
260,204,57299,1,2,3:2:0:0:
380,136,57564,1,14,3:2:0:0:
221,81,57830,1,2,3:2:0:0:
74,224,58095,6,0,L|79:128,1,96.1759970703127,6|2,3:2|3:2,2:0:0:0:
163,20,58493,1,0,2:0:0:0:
163,20,58626,2,0,L|99:23,1,48.2687985351563,14|0,3:2|2:0,2:0:0:0:
221,81,58892,2,0,L|284:84,1,48.2687985351563,2|0,3:2|2:0,2:0:0:0:
410,13,59157,6,0,P|421:59|410:105,1,96.1759970703127,6|0,3:2|3:2,2:0:0:0:
241,180,59555,1,2,3:2:0:0:
241,180,59688,5,8,3:2:0:0:
437,242,59821,1,8,3:2:0:0:
332,59,59953,1,10,3:2:0:0:
256,288,60086,1,4,3:1:0:0:
256,192,62343,12,0,64268,2:0:0:0:
154,78,64334,6,0,P|172:12|227:53,1,160.293333333333,14|0,3:2|3:2,2:0:0:0:
59,241,64732,2,0,L|64:145,1,80.4480000000001,8|2,3:2|2:0,2:0:0:0:
313,124,64998,2,0,L|308:220,1,80.4480000000001,0|2,1:2|2:0,2:0:0:0:
63,161,65263,6,0,L|67:81,1,80.4480000000001,12|2,3:2|2:0,2:0:0:0:
309,204,65529,2,0,L|305:284,1,80.4480000000001,0|2,1:2|2:0,2:0:0:0:
142,60,65794,6,0,P|180:50|218:60,1,80.4480000000001,12|2,3:2|2:0,2:0:0:0:
59,241,66060,1,6,3:2:0:0:
12,66,66192,1,2,2:0:0:0:
64,259,66325,1,8,3:2:0:0:
142,60,66458,6,0,L|133:219,1,160.293333333333,4|0,3:2|3:2,2:0:0:0:
384,22,66856,2,0,L|288:17,1,80.4480000000001,10|2,1:2|2:0,2:0:0:0:
211,241,67122,2,0,L|307:246,1,80.4480000000001,4|2,3:2|2:0,2:0:0:0:
304,18,67387,6,0,L|208:13,1,80.4480000000001,8|2,1:2|2:0,2:0:0:0:
291,245,67653,2,0,L|387:250,1,80.4480000000001,4|8,3:2|3:2,2:0:0:0:
371,250,67852,1,8,3:2:0:0:
371,250,67918,1,10,3:2:0:0:
253,135,68051,5,8,3:2:0:0:
165,362,68184,1,10,3:2:0:0:
165,135,68316,5,8,3:0:0:0:
253,362,68449,1,4,3:0:0:0:
341,135,68582,6,0,P|355:77|341:19,1,120.220004577637,4|0,3:2|3:2,2:0:0:0:
170,223,68980,1,8,3:2:0:0:
170,223,69113,2,0,L|233:226,1,60.3360022888184,2|8,3:2|3:0,2:0:0:0:
169,134,69378,2,0,L|232:137,1,60.3360022888184,2|8,3:2|3:2,2:0:0:0:
409,322,69644,6,0,L|345:318,1,60.3360022888184,2|8,3:2|3:0,2:0:0:0:
418,234,69909,2,0,L|354:230,1,60.3360022888184,2|8,3:2|3:2,2:0:0:0:
229,226,70175,5,2,3:2:0:0:
229,226,70307,1,8,3:0:0:0:
350,319,70440,1,0,3:2:0:0:
350,319,70573,1,8,3:2:0:0:
460,141,70706,6,0,L|332:134,1,120.220004577637,4|0,3:2|3:2,2:0:0:0:
172,21,71104,1,10,3:2:0:0:
172,21,71237,2,0,L|168:80,1,60.3360022888184,2|8,3:2|3:0,2:0:0:0:
337,194,71502,2,0,L|340:134,1,60.3360022888184,2|8,3:2|3:2,2:0:0:0:
168,80,71768,6,0,L|164:139,1,60.3360022888184,2|8,3:2|3:0,2:0:0:0:
340,134,72033,2,0,L|343:74,1,60.3360022888184,2|8,3:2|3:2,2:0:0:0:
172,234,72299,5,2,3:2:0:0:
172,234,72431,1,8,3:0:0:0:
303,296,72564,1,0,3:2:0:0:
303,296,72697,1,8,3:2:0:0:
82,380,72830,6,0,P|67:322|81:264,1,120.220004577637,4|0,3:2|3:2,2:0:0:0:
175,174,73228,1,10,3:2:0:0:
175,174,73361,2,0,L|171:236,1,60.3360022888184,2|8,3:2|3:0,2:0:0:0:
137,67,73626,2,0,L|140:3,1,60.3360022888184,2|8,3:2|3:2,2:0:0:0:
258,188,73892,6,0,L|254:251,1,60.3360022888184,2|8,3:2|3:0,2:0:0:0:
221,62,74157,2,0,L|224:-1,1,60.3360022888184,2|8,3:2|3:2,2:0:0:0:
347,209,74422,5,2,3:2:0:0:
347,209,74555,1,8,3:0:0:0:
313,58,74688,1,2,3:2:0:0:
313,58,74821,1,8,3:2:0:0:
489,105,74953,6,0,L|483:224,1,120.220004577637,6|2,3:2|3:2,2:0:0:0:
368,339,75352,1,8,3:2:0:0:
368,339,75484,2,0,L|371:275,1,60.3360022888184,2|8,3:2|3:0,2:0:0:0:
248,215,75750,2,0,L|311:218,1,60.3360022888184,2|8,3:2|3:2,2:0:0:0:
359,96,76015,1,2,3:2:0:0:
359,96,76148,6,0,P|320:86|282:96,1,80.4480000000001,8|2,3:0|3:2,2:0:0:0:
152,217,76414,6,0,P|199:228|247:215,1,100.56,10|2,3:2|3:2,2:0:0:0:
146,56,76679,6,0,P|88:42|30:57,1,120.672004577637,2|8,3:2|3:0,2:0:0:0:
30,57,76878,1,4,3:0:0:0:
30,57,76945,6,0,L|33:126,1,70.392000667572,8|0,3:2|2:0,2:0:0:0:
109,296,77077,6,0,L|116:152,1,144.263995605469,12|2,3:2|3:2,2:0:0:0:
282,95,77476,1,8,1:2:0:0:
282,95,77608,2,0,L|278:166,1,72.4031978027344,2|0,2:0|3:2,2:0:0:0:
141,15,77874,2,0,L|212:18,1,72.4031978027344,2|8,3:2|1:2,2:0:0:0:
449,118,78139,6,0,L|377:114,1,72.4031978027344,2|0,2:0|3:2,2:0:0:0:
206,163,78405,2,0,L|277:166,1,72.4031978027344,2|8,2:0|1:2,2:0:0:0:
462,253,78670,1,2,2:0:0:0:
377,118,78803,5,0,3:2:0:0:
326,280,78936,1,0,3:2:0:0:
292,81,79069,1,10,1:2:0:0:
327,296,79201,6,0,P|257:312|188:295,1,144.263995605469,6|0,3:2|3:2,2:0:0:0:
111,134,79599,1,10,1:2:0:0:
111,134,79732,2,0,L|105:229,1,72.4031978027344,2|0,2:0|3:2,2:0:0:0:
292,81,79998,2,0,L|297:176,1,72.4031978027344,2|8,2:0|1:2,2:0:0:0:
146,31,80263,6,0,L|217:27,1,72.4031978027344,2|0,2:0|3:2,2:0:0:0:
449,118,80529,2,0,L|377:114,1,72.4031978027344,2|8,2:0|1:2,2:0:0:0:
205,242,80794,1,2,2:0:0:0:
406,350,80927,5,0,3:2:0:0:
348,208,81060,1,0,3:2:0:0:
301,383,81192,1,8,1:2:0:0:
348,192,81325,6,0,L|188:200,1,144.263995605469,4|0,3:2|3:2,2:0:0:0:
59,127,81723,1,10,1:2:0:0:
59,127,81856,2,0,P|94:120|129:126,1,72.4031978027344,2|0,2:0|3:2,2:0:0:0:
3,285,82122,2,0,P|-4:249|1:214,1,72.4031978027344,2|8,2:0|1:2,2:0:0:0:
171,345,82387,6,0,L|75:339,1,72.4031978027344,2|0,2:0|3:2,2:0:0:0:
258,282,82653,2,0,L|329:278,1,72.4031978027344,2|8,2:0|1:2,2:0:0:0:
126,220,82918,1,2,2:0:0:0:
216,110,83051,5,0,3:2:0:0:
171,345,83184,1,2,3:2:0:0:
125,75,83316,1,8,1:2:0:0:
172,363,83449,6,0,P|84:383|-4:360,1,184.337336842855,12|0,3:2|3:2,2:0:0:0:
255,37,83847,5,12,1:2:0:0:
351,289,83980,1,0,3:2:0:0:
255,19,84113,5,14,3:2:0:0:
255,315,84246,1,0,3:2:0:0:
255,1,84378,5,12,3:2:0:0:
159,289,84511,1,0,3:2:0:0:
359,26,84644,5,14,1:2:0:0:
255,333,84776,1,0,3:2:0:0:
150,26,84909,5,12,3:2:0:0:
255,351,85042,1,0,3:2:0:0:
370,10,85175,5,14,3:2:0:0:
68,231,85307,1,4,3:0:0:0:
442,231,85440,1,8,3:0:0:0:
140,10,85573,1,6,3:1:0:0:
101,10,89821,6,0,B|67:68|67:68|96:204,1,208.381323811849,14|2,3:2|3:2,2:0:0:0:
248,349,90219,1,8,3:2:0:0:
269,114,90352,2,0,P|209:53|192:136,1,208.381323811849,2|0,2:0|3:2,2:0:0:0:
427,231,90750,2,0,L|347:226,1,80.4480000000001,8|0,3:2|2:0,2:0:0:0:
44,303,91015,2,0,L|123:307,1,80.4480000000001,0|0,3:2|3:2,2:0:0:0:
196,56,91281,6,0,L|190:151,1,80.4480000000001,10|0,3:2|2:0,2:0:0:0:
451,93,91546,1,6,3:2:0:0:
164,49,91679,1,6,3:2:0:0:
490,105,91812,1,8,3:2:0:0:
490,105,91878,1,2,3:2:0:0:
490,105,91945,6,0,P|509:181|490:258,1,160.293333333333,6|0,3:2|3:2,2:0:0:0:
297,29,92343,2,0,L|392:34,1,80.4480000000001,10|0,3:2|2:0,2:0:0:0:
256,256,92608,1,6,3:2:0:0:
162,47,92741,2,0,L|156:142,1,80.4480000000001,2|8,3:2|3:2,2:0:0:0:
376,33,93007,6,0,L|381:128,1,80.4480000000001,2|0,2:0|3:2,2:0:0:0:
412,252,93272,1,8,3:0:0:0:
266,138,93405,5,10,3:2:0:0:
490,42,93538,1,8,3:2:0:0:
266,42,93670,5,10,3:2:0:0:
490,138,93803,1,12,3:0:0:0:
266,234,93936,1,12,3:0:0:0:
512,138,94069,6,0,L|520:297,1,160.293333333333,6|0,3:2|3:2,2:0:0:0:
283,223,94467,2,0,L|278:302,1,80.4480000000001,14|0,3:2|2:0,2:0:0:0:
385,143,94732,1,6,3:2:0:0:
438,361,94865,2,0,P|398:367|359:360,2,80.1466666666667,2|8|2,3:2|3:2|2:0,2:0:0:0:
512,167,95263,6,0,P|518:206|511:245,1,80.4480000000001,0|0,3:2|3:2,2:0:0:0:
360,48,95529,2,0,P|399:41|438:48,1,80.4480000000001,14|0,3:2|2:0,2:0:0:0:
283,223,95794,1,6,3:2:0:0:
229,47,95927,1,6,3:2:0:0:
289,241,96060,1,8,3:2:0:0:
343,23,96192,6,0,P|255:1|167:23,1,184.337336842855,6|2,3:2|3:2,2:0:0:0:
295,259,96591,2,0,P|372:221|299:174,1,208.381323811849,10|2,3:2|3:2,2:0:0:0:
114,287,96989,1,2,3:2:0:0:
162,125,97122,1,12,3:2:0:0:
290,338,97254,6,0,L|295:242,1,80.4480000000001,2|4,2:0|3:2,2:0:0:0:
19,86,97520,2,0,L|14:182,1,80.4480000000001,6|12,3:2|3:2,2:0:0:0:
295,259,97785,6,0,L|300:163,1,80.4480000000001,2|4,2:0|3:2,2:0:0:0:
14,259,98051,1,6,3:2:0:0:
290,338,98184,1,8,3:2:0:0:
162,125,98316,1,4,3:2:0:0:
116,367,98449,6,0,L|107:207,2,160.293333333333,2|8|0,2:0|1:2|3:2,2:0:0:0:
28,352,99113,1,0,3:2:0:0:
281,209,99246,2,0,L|201:204,1,80.4480000000001,8|0,1:2|2:0,2:0:0:0:
0,131,99511,2,0,L|79:126,1,80.4480000000001,0|0,3:2|3:2,2:0:0:0:
319,27,99776,6,0,P|325:66|318:105,1,80.4480000000001,10|0,1:2|2:0,2:0:0:0:
80,205,100042,2,0,P|73:165|80:126,1,80.4480000000001,2|0,3:2|3:2,2:0:0:0:
335,27,100307,2,0,P|341:66|334:105,1,80.4480000000001,10|0,1:2|3:2,2:0:0:0:
167,10,100573,6,0,L|161:105,1,80.4480000000001,10|0,3:2|3:2,2:0:0:0:
184,223,100838,1,4,2:0:0:0:
184,223,100971,1,2,3:2:0:0:
376,72,101104,6,0,L|280:66,1,80.4480000000001,10|4,3:0|3:0,2:0:0:0:
162,89,101369,1,8,3:2:0:0:
162,89,101502,1,0,3:2:0:0:
318,201,101635,5,10,3:0:0:0:
318,201,101768,1,4,3:0:0:0:
296,67,101900,1,10,3:0:0:0:
296,67,102033,1,4,3:0:0:0:
213,224,102166,6,2,L|183:222,14,30.0388582872664,10|8|0|0|0|0|0|0|0|0|0|0|0|0|0,3:2|3:2|2:0|2:0|2:0|2:0|2:0|2:0|2:0|2:0|2:0|2:0|2:0|2:0|2:0,2:1:0:0:
248,244,102697,6,0,L|343:249,1,96.1759970703127,6|0,3:2|3:2,2:0:0:0:
290,64,103095,1,0,3:2:0:0:
290,64,103228,2,0,L|194:69,1,96.1759970703127,12|0,3:2|3:2,2:0:0:0:
41,181,103759,5,4,3:2:0:0:
41,181,104024,1,2,3:2:0:0:
90,35,104290,1,14,3:2:0:0:
144,152,104555,1,2,3:2:0:0:
62,317,104821,6,0,L|158:322,1,96.1759970703127,6|2,3:2|3:2,2:0:0:0:
231,267,105219,1,0,2:0:0:0:
231,267,105352,2,0,L|235:203,1,48.2687985351563,14|0,3:2|2:0,2:0:0:0:
318,328,105617,2,0,L|316:376,1,48.2687985351563,2|0,3:2|2:0,2:0:0:0:
454,189,105883,6,0,P|407:177|361:188,1,96.1759970703127,6|0,3:2|3:2,2:0:0:0:
509,361,106281,1,0,3:2:0:0:
509,361,106414,2,0,P|520:314|509:268,1,96.1759970703127,14|0,3:2|3:2,2:0:0:0:
259,246,106945,6,0,P|166:266|72:248,1,192.351994140625,6|12,3:2|3:2,2:0:0:0:
6,191,107741,1,0,3:2:0:0:
128,86,108007,5,4,3:2:0:0:
128,86,108272,1,2,3:2:0:0:
199,192,108538,1,14,3:2:0:0:
248,54,108803,1,2,3:2:0:0:
440,31,109069,6,0,L|435:127,1,96.1759970703127,6|2,3:2|3:2,2:0:0:0:
478,231,109467,1,0,2:0:0:0:
478,231,109599,2,0,L|414:234,1,48.2687985351563,14|0,3:2|2:0,2:0:0:0:
291,144,109865,2,0,L|354:147,1,48.2687985351563,2|0,3:2|2:0,2:0:0:0:
318,366,110130,6,0,L|312:270,1,96.1759970703127,6|0,3:2|3:2,2:0:0:0:
205,206,110529,1,2,3:2:0:0:
205,206,110661,2,0,L|201:269,1,48.2687985351563,12|0,3:2|2:0,2:0:0:0:
122,361,110927,2,0,L|119:313,1,48.2687985351563,2|0,3:2|2:0,2:0:0:0:
52,135,111192,6,0,P|80:59|138:115,1,192.351994140625,4|12,3:2|3:2,2:0:0:0:
37,260,111989,1,0,3:2:0:0:
122,361,112254,5,4,3:2:0:0:
122,361,112520,1,2,3:2:0:0:
175,240,112785,1,14,3:2:0:0:
222,378,113051,1,2,3:2:0:0:
403,315,113316,6,0,P|415:268|404:222,1,96.1759970703127,6|2,3:2|3:2,2:0:0:0:
270,264,113715,1,0,2:0:0:0:
270,264,113847,2,0,L|333:267,1,48.2687985351563,14|0,3:2|2:0,2:0:0:0:
242,144,114113,2,0,L|178:147,1,48.2687985351563,2|0,3:2|2:0,2:0:0:0:
354,9,114378,6,0,P|364:55|353:102,1,96.1759970703127,6|0,3:2|3:2,2:0:0:0:
222,55,114776,1,2,3:2:0:0:
222,55,114909,2,0,L|285:58,1,48.2687985351563,12|0,3:2|2:0,2:0:0:0:
400,99,115175,2,0,L|352:101,1,48.2687985351563,2|0,3:2|3:2,2:0:0:0:
182,170,115440,6,0,B|249:206|249:206|364:191,1,192.351994140625,6|12,3:2|3:2,2:0:0:0:
482,177,116237,1,2,3:2:0:0:
427,325,116502,5,4,3:2:0:0:
427,325,116768,1,2,3:2:0:0:
369,210,117033,1,14,3:2:0:0:
331,357,117299,1,2,3:2:0:0:
196,321,117564,6,0,L|100:315,1,96.1759970703127,6|2,3:2|3:2,2:0:0:0:
47,193,117962,1,0,2:0:0:0:
47,193,118095,2,0,L|43:256,1,48.2687985351563,14|0,3:2|2:0,2:0:0:0:
125,132,118361,2,0,L|127:84,1,48.2687985351563,2|0,3:2|2:0,2:0:0:0:
29,13,118626,5,14,3:2:0:0:
29,13,118892,2,0,L|27:44,3,24.0138659342448,8|4|8|4,3:0|3:0|3:0|3:0,2:0:0:0:
51,0,119157,6,0,B|74:0|74:0|97:2,1,48.2687985351563,8|4,3:0|3:0,2:0:0:0:
172,137,119422,2,0,B|147:137|147:137|124:134,1,48.2687985351563,8|4,3:0|3:0,2:0:0:0:
305,7,119688,6,0,L|295:199,1,192.351994140625,6|12,3:2|3:2,2:0:0:0:
429,145,120484,1,0,3:2:0:0:
417,253,120750,5,4,3:2:0:0:
417,253,121015,1,2,3:2:0:0:
336,104,121281,1,14,3:2:0:0:
281,280,121546,1,2,3:2:0:0:
147,324,121812,6,0,L|51:318,1,96.1759970703127,6|2,3:2|3:2,2:0:0:0:
177,175,122210,1,0,2:0:0:0:
177,175,122343,2,0,L|173:238,1,48.2687985351563,14|0,3:2|2:0,2:0:0:0:
45,101,122608,2,0,L|47:53,1,48.2687985351563,2|0,3:2|2:0,2:0:0:0:
296,28,122874,6,0,L|200:23,1,96.1759970703127,6|0,3:2|3:2,2:0:0:0:
305,150,123272,1,0,3:2:0:0:
305,150,123405,2,0,L|400:155,1,96.1759970703127,14|0,3:2|3:2,2:0:0:0:
496,305,123936,6,0,B|447:287|404:317|404:317|362:346|313:330,1,192.351994140625,6|12,3:2|3:2,2:0:0:0:
202,296,124732,1,0,3:2:0:0:
123,229,124998,5,4,3:2:0:0:
123,229,125263,1,2,3:2:0:0:
64,356,125529,1,14,3:2:0:0:
30,184,125794,1,2,3:2:0:0:
192,65,126060,6,0,L|96:59,1,96.1759970703127,6|2,3:2|3:2,2:0:0:0:
213,155,126458,1,0,2:0:0:0:
213,155,126591,2,0,L|209:218,1,48.2687985351563,14|0,3:2|2:0,2:0:0:0:
295,50,126856,2,0,L|297:2,1,48.2687985351563,2|0,3:2|2:0,2:0:0:0:
449,186,127122,6,0,P|402:195|356:185,2,96.1759970703127,6|8|12,3:2|3:2|3:2,2:0:0:0:
466,27,127918,1,2,3:2:0:0:
466,27,128051,1,0,3:2:0:0:
466,27,128184,6,0,P|417:90|385:17,1,192.351994140625,4|12,3:2|3:2,2:0:0:0:
292,48,128980,1,0,3:2:0:0:
325,201,129246,5,4,3:2:0:0:
325,201,129511,1,2,3:2:0:0:
378,75,129776,1,14,3:2:0:0:
429,213,130042,1,2,3:2:0:0:
338,366,130307,6,0,L|242:360,1,96.1759970703127,6|0,3:2|3:2,2:0:0:0:
196,232,130706,1,2,3:2:0:0:
196,232,130838,2,0,L|192:295,1,48.2687985351563,12|0,3:2|2:0,2:0:0:0:
74,356,131104,2,0,L|76:308,1,48.2687985351563,2|0,3:2|2:0,2:0:0:0:
138,114,131369,6,0,P|184:103|230:113,1,96.1759970703127,6|0,3:2|3:2,2:0:0:0:
64,219,131768,1,2,3:2:0:0:
64,219,131900,2,0,L|60:155,1,48.2687985351563,12|0,3:2|2:0,2:0:0:0:
6,31,132166,2,0,L|8:78,1,48.2687985351563,2|0,3:2|2:0,2:0:0:0:
132,9,132431,6,0,P|225:-8|319:7,1,192.351994140625,6|8,3:2|1:2,2:0:0:0:
273,233,133228,1,0,3:2:0:0:
378,173,133493,5,6,3:2:0:0:
378,173,133759,1,2,3:2:0:0:
440,80,134024,1,14,3:2:0:0:
487,228,134290,1,2,3:2:0:0:
363,337,134555,1,10,3:2:0:0:
191,126,136679,6,0,L|95:120,1,80.0799999999999,6|0,3:2|3:2,2:0:0:0:
283,195,137219,2,0,L|362:199,1,80.0799999999999,0|0,3:2|3:2,2:0:0:0:
192,50,137760,2,0,P|182:88|191:126,1,80.0799999999999,8|0,3:2|3:2,2:0:0:0:
191,127,138165,1,8,3:2:0:0:
191,127,138300,1,0,3:2:0:0:
375,60,138570,2,0,L|376:28,3,20.0693333333333,0|0|0|0,3:2|3:2|3:2|3:2,2:0:0:0:
383,76,138841,6,0,L|379:156,1,80.0799999999999,8|0,3:2|3:2,2:0:0:0:
184,301,139381,2,0,L|188:221,1,80.0799999999999,0|0,3:2|3:2,2:0:0:0:
418,345,139922,2,0,P|379:354|341:345,1,80.0799999999999,8|0,3:2|3:2,2:0:0:0:
340,345,140327,1,8,3:2:0:0:
340,345,140462,1,0,3:2:0:0:
203,144,140733,1,0,3:2:0:0:
203,144,140800,1,0,3:2:0:0:
203,144,140868,1,0,3:2:0:0:
203,144,140935,1,0,3:2:0:0:
203,144,141003,6,0,L|107:139,1,80.0799999999999,14|0,3:2|3:2,2:0:0:0:
316,258,141543,2,0,L|396:262,1,80.0799999999999,0|0,3:2|3:2,2:0:0:0:
152,368,142084,2,0,P|142:329|151:291,1,80.0799999999999,8|0,3:2|3:2,2:0:0:0:
152,290,142489,1,8,3:2:0:0:
152,290,142624,1,0,3:2:0:0:
356,144,142895,1,0,3:2:0:0:
356,144,142962,1,0,3:2:0:0:
356,144,143030,1,0,3:2:0:0:
356,144,143097,1,0,3:2:0:0:
356,144,143165,6,0,P|315:56|268:141,1,240.24,12|0,3:2|3:2,2:0:0:0:
372,350,144246,1,10,3:2:0:0:
372,350,144516,6,0,L|375:290,1,60.0600022888183,0|10,3:2|3:2,2:0:0:0:
147,142,144787,2,0,L|150:201,1,60.0600022888183,8|8,3:2|3:0,2:0:0:0:
372,94,145057,2,0,L|368:34,1,60.0600022888183,4|4,3:0|3:0,2:0:0:0:
263,188,145327,5,12,3:2:0:0:
256,0,146949,5,10,3:2:0:0:
256,0,147219,2,0,L|253:30,4,30.0599990844727,0|0|0|0|8,3:2|3:2|3:2|3:2|3:2,2:0:0:0:
256,0,149381,6,0,L|253:30,4,30.0599990844727,0|0|0|0|8,3:2|3:2|3:2|3:2|3:2,2:0:0:0:
256,0,151543,6,0,L|253:30,4,30.0599990844727,0|0|0|0|8,3:2|3:2|3:2|3:2|3:2,2:0:0:0:
256,0,152895,5,10,3:2:0:0:
434,66,153165,2,0,L|430:129,1,60.0600022888183,8|8,3:2|3:2,2:0:0:0:
304,221,153435,2,0,L|307:161,1,60.0600022888183,10|8,3:2|3:2,2:0:0:0:
423,269,153706,2,0,L|419:328,1,60.0600022888183,8|8,3:2|3:2,2:0:0:0:
182,384,153976,6,0,P|176:344|183:305,1,80.0799999999999,12|8,3:2|3:2,2:0:0:0:
42,171,154516,6,0,L|37:267,1,80.0799999999999,10|8,3:2|3:2,2:0:0:0:
56,163,155057,2,0,L|50:258,1,80.0799999999999,10|8,3:2|3:2,2:0:0:0:
69,154,155597,2,0,L|64:250,1,80.0799999999999,10|8,3:2|3:2,2:0:0:0:
184,145,156138,5,8,3:2:0:0:
184,145,156408,1,8,3:2:0:0:
469,171,156678,6,0,L|474:267,1,80.0799999999999,10|8,3:2|3:2,2:0:0:0:
456,163,157219,2,0,L|461:258,1,80.0799999999999,10|8,3:2|3:2,2:0:0:0:
442,154,157760,2,0,L|447:250,1,79.7839999999999,10|8,3:2|3:2,2:0:0:0:
336,32,158300,6,0,L|395:35,3,60.2080022888183,10|0|0|0,3:2|3:2|3:2|3:2,2:0:0:0:
192,96,158570,6,0,L|142:102,3,50.1733333333333,8|0|0|0,3:2|3:2|3:2|3:2,2:0:0:0:
304,160,158841,6,0,L|342:168,3,40.1386666666666,8|0|0|0,3:2|3:2|3:2|3:2,2:0:0:0:
224,224,159111,6,0,L|195:233,3,30.1040011444092,8|0|0|0,3:2|3:2|3:2|3:2,2:0:0:0:
331,271,159381,5,8,3:2:0:0:
344,301,159449,1,0,3:2:0:0:
340,333,159516,1,0,3:2:0:0:
326,359,159584,1,0,3:2:0:0:
303,376,159651,5,8,3:2:0:0:
278,381,159719,1,0,3:2:0:0:
256,378,159787,1,0,3:2:0:0:
236,368,159854,1,0,3:2:0:0:
222,355,159922,5,8,3:2:0:0:
214,339,159989,1,0,3:2:0:0:
209,326,160057,1,0,3:2:0:0:
208,312,160124,1,0,3:2:0:0:
208,301,160192,5,8,3:2:0:0:
210,291,160260,1,0,3:2:0:0:
213,283,160327,1,0,3:2:0:0:
216,279,160395,1,0,3:2:0:0:
218,275,160462,5,8,3:2:0:0:
218,275,161543,5,2,2:0:0:0:
302,243,161682,1,2,2:0:0:0:
149,112,161822,6,0,P|138:154|149:197,1,90.1300034332276,2|0,2:0|2:0,2:0:0:0:
156,208,162101,1,2,2:0:0:0:
216,62,162240,1,2,2:0:0:0:
113,105,162380,5,2,2:0:0:0:
258,165,162519,1,2,2:0:0:0:
84,93,162624,6,0,L|74:272,1,180.368006866455,14|0,3:2|3:2,2:0:0:0:
209,356,163174,2,0,L|145:359,1,60.2680022888184,6|0,2:0|2:0,2:0:0:0:
285,299,163449,2,0,L|344:302,1,60.2680022888184,2|0,3:2|3:2,2:0:0:0:
202,79,163724,6,0,P|179:163|202:250,1,180.368006866455,14|2,3:2|2:0,2:0:0:0:
398,31,164275,2,0,L|270:24,1,120.100004577637,4|2,3:2|2:0,2:0:0:0:
279,25,164825,5,4,2:0:0:0:
486,186,165101,2,0,L|489:122,1,60.2680022888184,2|0,3:2|2:0,2:0:0:0:
398,260,165376,2,0,L|394:319,1,60.2680022888184,6|0,2:0|2:0,2:0:0:0:
489,126,165651,2,0,L|492:62,1,60.2680022888184,2|0,3:2|3:2,2:0:0:0:
394,319,165926,6,0,L|266:312,1,120.100004577637,14|0,3:2|3:2,2:0:0:0:
160,198,166339,1,2,3:2:0:0:
160,198,166477,2,0,L|279:204,1,120.100004577637,12|10,3:2|3:2,2:0:0:0:
279,204,166890,1,8,3:2:0:0:
90,14,167027,6,0,P|74:70|90:128,1,120.100004577637,6|2,3:2|2:0,2:0:0:0:
252,4,167440,1,0,3:2:0:0:
252,4,167578,2,0,L|188:0,1,60.2680022888184,6|0,3:2|2:0,2:0:0:0:
328,74,167853,2,0,L|387:77,1,60.2680022888184,2|0,3:2|2:0,2:0:0:0:
209,285,168128,6,0,L|219:93,1,180.368006866455,14|2,3:2|2:0,2:0:0:0:
65,17,168679,2,0,L|58:136,1,120.100004577637,4|2,3:2|2:0,2:0:0:0:
59,307,169229,5,4,3:2:0:0:
59,307,169504,2,0,L|27:305,4,30.0250011444092,8|8|4|4|12,3:0|3:0|3:0|3:0|3:0,2:0:0:0:
59,307,170055,1,0,3:2:0:0:
151,359,170330,2,0,B|208:344|208:344|266:359,1,120.100004577637,10|0,3:1|3:2,2:0:0:0:
267,359,170880,6,2,L|268:339,14,20.0270476190476,10|0|0|0|0|0|0|0|0|0|0|0|0|0|0,3:2|2:0|2:0|2:0|2:0|2:0|2:0|2:0|2:0|2:0|2:0|2:0|2:0|2:0|2:0,2:1:0:0:
278,375,171431,6,0,L|341:372,1,60.2680022888184,6|0,3:2|2:0,2:0:0:0:
170,251,171706,2,0,L|106:254,1,60.2680022888184,2|0,2:0|3:2,2:0:0:0:
337,372,171981,2,0,L|401:369,1,60.7040022888184,4|0,2:0|2:0,2:0:0:0:
110,254,172257,2,0,L|46:257,1,60.2680022888184,2|0,3:2|3:2,2:0:0:0:
321,147,172532,6,0,L|328:275,1,120.100004577637,4|8,3:1|3:2,2:0:0:0:
116,134,172945,1,2,2:0:0:0:
116,134,173082,2,0,L|109:261,1,120.100004577637,4|2,2:1|3:2,2:0:0:0:
227,120,173633,5,4,3:2:0:0:
227,120,173908,2,0,L|230:56,1,60.2680022888184,2|0,2:0|3:2,2:0:0:0:
331,209,174183,2,0,L|327:273,1,60.2680022888184,6|0,3:2|2:0,2:0:0:0:
230,60,174458,2,0,L|233:-3,1,60.2680022888184,2|0,3:2|3:2,2:0:0:0:
328,269,174734,6,0,L|200:263,1,120.100004577637,6|8,3:2|3:2,2:0:0:0:
426,82,175146,1,2,2:0:0:0:
426,82,175284,2,0,L|420:202,1,120.100004577637,12|2,3:2|3:2,2:0:0:0:
336,363,175835,5,6,3:2:0:0:
336,363,176110,2,0,L|399:366,1,60.2680022888184,2|0,2:0|3:2,2:0:0:0:
212,266,176385,2,0,L|148:269,1,60.2680022888184,6|0,3:2|2:0,2:0:0:0:
395,366,176660,2,0,L|458:369,1,60.2680022888184,2|0,3:2|2:0,2:0:0:0:
323,53,176935,6,0,L|316:181,1,120.100004577637,6|8,3:2|3:2,2:0:0:0:
512,10,177348,1,2,2:0:0:0:
512,10,177486,2,0,P|455:-5|397:10,1,120.100004577637,4|2,2:1|2:0,2:0:0:0:
219,140,178036,5,4,3:2:0:0:
219,140,178312,2,0,L|221:85,4,30.0250011444092,8|8|4|4|4,3:0|3:0|3:0|3:0|3:2,2:0:0:0:
219,140,178862,1,0,3:2:0:0:
395,298,179137,6,0,L|434:303,3,40.0817777777778,10|0|0|0,3:2|3:2|3:2|3:2,2:0:0:0:
228,307,179412,2,0,L|188:312,3,40.0817777777778,10|0|0|0,3:2|3:2|3:2|3:2,2:0:0:0:
334,145,179688,5,14,3:2:0:0:
318,87,179757,1,2,3:3:0:0:
268,52,179825,1,2,3:2:0:0:
208,58,179894,1,2,3:3:0:0:
166,100,179963,1,10,3:2:0:0:
160,159,180032,1,2,3:3:0:0:
196,209,180101,1,2,3:2:0:0:
254,224,180169,1,2,3:3:0:0:
307,199,180238,6,0,P|350:187|394:199,1,92.0920017547607,14|0,3:2|3:2,2:0:0:0:
500,369,180508,1,10,3:2:0:0:
221,304,180643,6,0,L|404:313,1,184.184003509522,2|2,3:2|3:2,2:0:0:0:
138,221,181048,2,0,L|143:130,1,92.0920017547607,10|2,3:2|2:0,2:0:0:0:
309,304,181319,6,0,P|265:315|220:304,1,92.0920017547607,2|0,3:2|3:2,2:0:0:0:
396,147,181589,2,0,P|408:190|397:235,1,92.0920017547607,10|2,3:2|3:2,2:0:0:0:
165,59,181859,5,2,2:0:0:0:
220,304,181994,1,0,3:2:0:0:
270,44,182129,5,8,3:2:0:0:
219,334,182265,1,0,0:2:0:0:
396,147,182400,6,0,L|301:141,1,92.0920017547607,6|2,3:2|3:2,2:0:0:0:
125,368,182670,2,0,L|217:364,1,92.0920017547607,10|2,3:2|3:2,2:0:0:0:
467,221,182940,5,2,2:0:0:0:
220,274,183075,1,0,3:2:0:0:
475,333,183210,5,10,3:2:0:0:
190,273,183346,1,0,3:2:0:0:
401,55,183481,6,0,L|395:150,1,92.0920017547607,2|0,3:2|3:2,2:0:0:0:
164,364,183751,2,0,L|160:272,1,92.0920017547607,10|0,3:2|3:2,2:0:0:0:
222,46,184021,5,2,2:0:0:0:
267,282,184156,1,0,3:2:0:0:
305,15,184292,5,8,3:2:0:0:
269,309,184427,1,0,2:0:0:0:
491,159,184562,6,0,P|503:115|492:70,1,92.0920017547607,6|0,3:2|3:2,2:0:0:0:
230,62,184832,1,10,3:2:0:0:
316,306,184967,1,0,3:2:0:0:
318,62,185102,6,0,P|274:50|229:61,1,92.0920017547607,2|2,2:0|3:2,2:0:0:0:
385,179,185373,1,10,3:2:0:0:
97,232,185508,1,2,2:0:0:0:
414,174,185643,6,0,P|425:218|413:262,1,92.0920017547607,2|0,3:2|3:2,2:0:0:0:
126,132,185913,2,0,P|114:87|126:43,1,92.0920017547607,10|0,3:2|3:2,2:0:0:0:
316,306,186183,5,2,2:0:0:0:
219,24,186319,1,0,3:2:0:0:
214,304,186454,5,8,3:2:0:0:
311,22,186589,1,0,2:0:0:0:
29,159,186724,5,6,3:2:0:0:
29,159,186859,2,0,L|34:254,1,92.0920017547607,0|10,3:2|3:2,2:0:0:0:
219,24,187129,2,0,P|175:12|130:23,1,92.0920017547607,2|0,3:2|2:0,2:0:0:0:
222,202,187400,1,2,3:2:0:0:
406,20,187535,2,0,L|400:115,1,92.0920017547607,10|2,3:2|2:0,2:0:0:0:
122,304,187805,6,0,L|213:299,1,92.0920017547607,2|0,3:2|3:2,2:0:0:0:
492,116,188075,2,0,L|400:111,1,92.0920017547607,10|0,3:2|3:2,2:0:0:0:
219,24,188346,5,2,2:0:0:0:
315,301,188481,1,2,3:2:0:0:
311,22,188616,5,10,3:2:0:0:
213,299,188751,1,2,3:2:0:0:
470,121,188886,5,14,3:2:0:0:
222,202,189021,1,2,3:2:0:0:
498,112,189156,1,0,3:2:0:0:
224,25,189292,6,0,P|200:113|222:203,1,184.184003509522,10|0,3:2|3:2,2:0:0:0:
403,22,189697,2,0,L|307:16,1,92.0920017547607,14|2,3:2|3:2,2:0:0:0:
29,211,189967,6,0,L|120:206,1,92.0920017547607,14|0,3:2|3:2,2:0:0:0:
338,340,190238,2,0,L|246:335,1,92.0920017547607,2|8,3:2|3:2,2:0:0:0:
114,28,190508,6,0,P|102:72|113:117,1,92.0920017547607,2|0,3:2|3:2,2:0:0:0:
382,252,190778,2,0,P|394:208|384:164,1,92.0920017547607,12|0,3:2|3:2,2:0:0:0:
62,344,191048,6,0,L|245:334,1,184.184003509522,14|2,3:2|3:2,2:0:0:0:
121,211,191454,1,8,3:2:0:0:
388,71,191589,2,0,L|382:166,1,92.0920017547607,2|0,3:2|3:2,2:0:0:0:
112,116,191859,2,0,L|116:24,1,92.0920017547607,14|0,3:2|3:2,2:0:0:0:
382,252,192129,6,0,P|294:276|204:254,1,184.184003509522,14|2,3:2|3:2,2:0:0:0:
384,72,192535,1,8,3:2:0:0:
113,24,192670,2,0,L|204:28,1,92.0920017547607,2|0,3:2|3:2,2:0:0:0:
473,247,192940,2,0,L|381:251,1,92.0920017547607,8|0,3:2|3:2,2:0:0:0:
84,329,193210,6,0,L|147:332,1,64.0639999999999,6|8,3:2|3:2,2:0:0:0:
473,159,193481,6,0,L|377:164,1,92.0920017547607,2|0,1:2|3:2,2:0:0:0:
147,332,193751,6,0,L|210:335,1,64.0639999999999,14|0,3:2|3:2,2:0:0:0:
381,163,194021,6,0,L|285:168,1,92.0920017547607,2|8,1:2|3:2,2:0:0:0:
58,329,194292,5,6,3:2:0:0:
0,95,194427,1,8,3:2:0:0:
60,350,194562,5,2,3:2:0:0:
103,30,194697,1,0,3:2:0:0:
62,371,194832,6,0,P|106:381|151:372,1,92.0920017547607,14|0,3:2|3:2,2:0:0:0:
220,30,195102,6,0,P|161:19|102:30,1,120.120004577637,14|12,3:2|3:2,2:0:0:0:
315,362,195373,5,6,3:2:0:0:
194,42,195508,1,8,3:2:0:0:
194,362,195643,5,0,3:2:0:0:
315,42,195778,1,8,3:2:0:0:
321,378,195913,5,6,3:2:0:0:
189,26,196048,1,8,3:2:0:0:
189,378,196183,5,0,3:2:0:0:
321,26,196319,1,8,3:2:0:0:
424,256,196454,5,2,3:2:0:0:
411,244,196521,1,0,3:2:0:0:
397,234,196589,1,0,3:2:0:0:
381,227,196656,1,0,3:2:0:0:
364,223,196724,1,0,3:2:0:0:
347,223,196792,1,0,3:2:0:0:
330,225,196859,1,0,3:2:0:0:
314,231,196927,1,0,3:2:0:0:
298,239,196994,6,0,L|305:193,3,46.159467544047,10|8|8|8,3:3|3:0|3:0|3:0,2:0:0:0:
212,337,197265,2,0,L|219:382,3,46.159467544047,4|4|4|4,3:0|3:0|3:0|3:0,2:0:0:0:
122,259,197535,6,0,P|111:212|122:166,1,96.1759970703127,14|0,3:2|1:2,2:0:0:0:
193,80,198065,1,4,3:2:0:0:
193,80,198331,1,4,3:2:0:0:
77,16,198596,1,8,3:2:0:0:
435,16,200720,5,14,3:2:0:0:
435,16,201782,6,0,P|447:62|436:108,1,96.1759970703127,4|0,3:2|3:2,2:0:0:0:
356,244,202313,1,4,3:2:0:0:
356,244,202579,1,0,3:2:0:0:
242,99,202844,1,14,3:2:0:0:
250,98,205322,5,0,3:2:0:0:
250,98,205411,1,0,3:2:0:0:
250,98,205499,2,0,L|241:193,1,96.1759970703127,8|0,3:2|3:2,2:0:0:0:
242,195,206030,6,0,P|288:183|334:195,1,96.1759970703127,4|0,3:2|3:2,2:0:0:0:
434,274,206561,1,4,3:2:0:0:
434,274,206827,1,0,3:2:0:0:
493,124,207092,1,8,1:2:0:0:
493,124,209216,5,8,3:2:0:0:
493,124,209747,2,0,B|516:194|469:194|493:265,1,144.083195605469,4|0,3:2|2:0,2:0:0:0:
448,351,210278,6,0,P|402:362|355:351,1,96.1759970703127,4|0,3:2|3:2,2:0:0:0:
254,231,210809,1,4,3:2:0:0:
254,231,211074,1,0,3:2:0:0:
387,113,211340,1,8,1:2:0:0:
393,117,213729,6,0,L|369:115,4,24.0439992675781,8|4|10|8|8,3:0|3:0|3:2|3:2|3:2,2:0:0:0:
498,57,214260,1,2,3:2:0:0:
498,57,214526,6,0,L|492:152,1,96.1759970703127,6|0,3:2|3:2,2:0:0:0:
364,211,214924,1,0,3:2:0:0:
364,211,215057,2,0,L|369:115,1,96.1759970703127,4|0,3:2|3:2,2:0:0:0:
266,109,215588,5,12,3:2:0:0:
266,109,215853,1,2,3:2:0:0:
218,2,216119,1,6,3:2:0:0:
173,146,216384,1,2,3:2:0:0:
225,268,216650,6,0,L|129:262,1,96.1759970703127,6|2,3:2|3:2,2:0:0:0:
28,166,217048,1,0,2:0:0:0:
28,166,217181,2,0,L|25:213,1,48.2687985351563,6|0,3:2|2:0,2:0:0:0:
98,78,217446,2,0,L|100:30,1,48.2687985351563,2|0,3:2|2:0,2:0:0:0:
265,144,217711,6,0,P|218:156|172:145,1,96.1759970703127,14|0,3:2|3:2,2:0:0:0:
183,14,218110,1,0,3:2:0:0:
183,14,218242,2,0,P|230:2|276:13,1,96.1759970703127,6|8,3:2|3:2,2:0:0:0:
333,67,218641,1,8,3:2:0:0:
333,67,218773,5,6,3:2:0:0:
381,269,219039,1,4,3:2:0:0:
179,317,219304,1,4,3:2:0:0:
131,115,219570,1,0,3:2:0:0:
260,195,219835,5,12,3:2:0:0:
260,195,220101,1,2,3:2:0:0:
422,242,220366,1,6,3:2:0:0:
272,338,220632,1,2,3:2:0:0:
272,338,220765,1,4,3:0:0:0:
272,338,220897,6,0,L|176:332,1,96.1759970703127,6|2,3:2|3:2,2:0:0:0:
38,216,221296,1,0,3:2:0:0:
38,216,221428,2,0,L|133:210,1,96.1759970703127,6|2,3:2|3:2,2:0:0:0:
296,3,221959,6,0,L|290:98,1,96.1759970703127,6|8,3:2|3:2,2:0:0:0:
382,167,222358,1,10,3:2:0:0:
382,167,222490,2,0,L|385:103,1,48.2687985351563,8|0,3:0|2:0,2:0:0:0:
240,191,222756,1,2,3:2:0:0:
240,191,222888,1,4,3:0:0:0:
240,191,223021,5,6,3:2:0:0:
72,165,223287,1,4,3:2:0:0:
214,359,223552,1,4,3:2:0:0:
46,333,223818,1,0,3:2:0:0:
143,262,224083,5,12,3:2:0:0:
143,262,224349,1,2,3:2:0:0:
339,179,224614,1,6,3:2:0:0:
154,113,224880,1,2,3:2:0:0:
45,180,225145,6,0,L|50:85,1,96.1759970703127,6|2,3:2|3:2,2:0:0:0:
159,17,225543,1,0,2:0:0:0:
159,17,225676,2,0,L|153:112,1,96.1759970703127,6|2,3:2|3:2,2:0:0:0:
391,40,226207,6,0,P|344:29|298:40,1,96.1759970703127,14|0,3:2|3:2,2:0:0:0:
317,323,226738,2,0,P|363:333|409:322,1,96.1759970703127,6|0,3:2|3:2,2:0:0:0:
232,157,227269,6,0,P|161:186|229:222,1,192.351994140625,6|4,3:2|3:2,2:0:0:0:
392,88,228065,1,0,3:2:0:0:
392,88,228331,5,8,1:2:0:0:
82,195,228596,1,2,3:2:0:0:
394,291,228862,1,6,3:2:0:0:
199,29,229127,1,2,3:2:0:0:
205,356,229393,1,10,3:2:0:0:
216,323,231517,5,14,3:2:0:0:
247,350,231583,1,0,3:2:0:0:
287,358,231650,1,0,3:2:0:0:
326,345,231716,1,0,3:2:0:0:
353,314,231782,1,8,3:2:0:0:
360,272,231849,1,0,3:2:0:0:
346,234,231915,1,0,3:2:0:0:
314,207,231981,1,0,3:2:0:0:
274,200,232048,5,8,3:2:0:0:
245,229,232114,1,0,3:2:0:0:
206,242,232181,1,0,3:2:0:0:
166,235,232247,1,0,3:2:0:0:
134,212,232313,1,8,3:2:0:0:
115,175,232380,1,0,3:2:0:0:
116,135,232446,1,0,3:2:0:0:
134,100,232512,1,0,3:2:0:0:
168,76,232579,6,0,B|213:53|258:78|258:78|303:103|351:83,1,192.351994140625,12|0,1:2|2:0,2:0:0:0:
