osu file format v14

[General]
AudioFilename: audio.mp3
AudioLeadIn: 0
PreviewTime: 26050
Countdown: 0
SampleSet: Soft
StackLeniency: 0.6
Mode: 0
LetterboxInBreaks: 0
WidescreenStoryboard: 1

[Editor]
DistanceSpacing: 1.1
BeatDivisor: 4
GridSize: 32
TimelineZoom: 5.699996

[Metadata]
Title:King For A Day (feat. Kellin Quinn)
TitleUnicode:King For A Day (feat. Kellin Quinn)
Artist:Pierce The Veil
ArtistUnicode:Pierce The Veil
Creator:attendant
Version:Extra
Source:
Tags:collide with the sky alternative metal punk post hardcore sleeping sirens english
BeatmapID:2255188
BeatmapSetID:1074059

[Difficulty]
HPDrainRate:5.5
CircleSize:4.2
OverallDifficulty:8.8
ApproachRate:9.2
SliderMultiplier:2
SliderTickRate:1

[Events]
//Background and Video events
0,0,"bg.jpg",0,0
Video,1988,"video.mp4"
//Break Periods
2,41304,42166
2,60286,61773
2,85773,89157
2,134755,135617
2,145527,146379
2,147689,148811
2,149851,150973
2,198796,200150
2,203044,204752
2,207292,208646
2,211540,213159
2,229593,230455
//Storyboard Layer 0 (Background)
//Storyboard Layer 1 (Fail)
//Storyboard Layer 2 (Pass)
//Storyboard Layer 3 (Foreground)
//Storyboard Layer 4 (Overlay)
//Storyboard Sound Samples

[TimingPoints]
8981,265.486725663717,4,2,1,80,1,0
9113,-125,4,2,1,80,0,0
9246,265.486725663717,4,2,4,80,1,0
9644,-125,4,2,4,80,0,0
11237,-125,4,2,1,80,0,0
11635,-125,4,2,4,80,0,0
13361,-125,4,2,1,80,0,0
18007,-125,4,2,4,80,0,0
19732,-125,4,2,1,80,0,0
20130,-125,4,2,4,80,0,0
21856,-125,4,2,1,90,0,0
22520,-125,4,2,3,90,0,0
23051,-125,4,2,1,90,0,0
23582,-125,4,2,2,90,0,0
24113,-125,4,2,1,90,0,0
24378,-125,4,2,2,90,0,0
24644,-125,4,2,3,90,0,0
24909,-125,4,2,2,90,0,0
26104,-125,4,2,7,90,0,1
26502,-111.111111111111,4,2,2,90,0,1
26768,-111.111111111111,4,2,5,90,0,1
28228,-111.111111111111,4,2,7,90,0,1
28626,-111.111111111111,4,2,2,90,0,1
28892,-111.111111111111,4,2,21,90,0,1
29024,-111.111111111111,4,2,5,90,0,1
30352,-111.111111111111,4,2,1,90,0,1
31812,-111.111111111111,4,2,5,90,0,1
32476,-111.111111111111,4,2,7,90,0,1
32874,-111.111111111111,4,2,2,90,0,1
33007,-111.111111111111,4,2,4,90,0,1
33404,-111.111111111111,4,2,5,90,0,1
33803,-111.111111111111,4,2,2,90,0,1
34201,-111.111111111111,4,2,4,90,0,1
34334,-222.222222222222,4,2,2,90,0,1
34599,-111.111111111111,4,2,1,90,0,1
34799,-111.111111111111,4,2,1,5,0,1
34864,-111.111111111111,4,2,1,90,0,1
34998,-111.111111111111,4,2,2,90,0,1
35263,-111.111111111111,4,2,5,90,0,1
36723,-111.111111111111,4,2,7,90,0,1
37122,-111.111111111111,4,2,1,90,0,1
37653,-111.111111111111,4,2,4,90,0,1
38847,-111.111111111111,4,2,1,90,0,1
39046,-111.111111111111,4,2,1,5,0,1
39112,-111.111111111111,4,2,1,90,0,1
39246,-111.111111111111,4,2,4,90,0,1
41104,-111.111111111111,4,2,4,90,0,0
43228,-166.666666666667,4,2,1,80,0,0
43759,-166.666666666667,4,2,2,80,0,0
47476,-166.666666666667,4,2,1,80,0,0
48007,-166.666666666667,4,2,2,80,0,0
51723,-166.666666666667,4,2,1,80,0,0
52254,-166.666666666667,4,2,2,80,0,0
55971,-166.666666666667,4,2,1,80,0,0
56502,-166.666666666667,4,2,2,80,0,0
60086,-166.666666666667,4,2,1,80,0,0
64268,-166.666666666667,4,2,11,5,0,0
64334,-125,4,2,7,90,0,0
64732,-125,4,2,1,90,0,0
64997,-125,4,2,4,90,0,0
65262,-125,4,2,2,90,0,0
65529,-125,4,2,4,90,0,0
65794,-125,4,2,2,90,0,0
66458,-125,4,2,1,90,0,0
66856,-125,4,2,4,90,0,0
67122,-125,4,2,2,90,0,0
67387,-125,4,2,4,90,0,0
67652,-125,4,2,2,90,0,0
68582,-166.666666666667,4,2,1,70,0,0
77077,-142.857142857143,4,2,6,80,0,0
77476,-142.857142857143,4,2,4,80,0,0
79201,-142.857142857143,4,2,1,80,0,0
79599,-142.857142857143,4,2,4,80,0,0
81325,-142.857142857143,4,2,1,80,0,0
81723,-142.857142857143,4,2,4,80,0,0
83449,-142.857142857143,4,2,6,90,0,0
83847,-142.857142857143,4,2,4,90,0,0
84113,-142.857142857143,4,2,1,90,0,0
84378,-142.857142857143,4,2,2,90,0,0
84644,-142.857142857143,4,2,4,90,0,0
84909,-142.857142857143,4,2,3,90,0,0
85175,-142.857142857143,4,2,2,90,0,0
85573,-142.857142857143,4,2,1,90,0,0
89821,-111.111111111111,4,2,6,90,0,1
90219,-111.111111111111,4,2,2,90,0,1
90484,-111.111111111111,4,2,5,90,0,1
91945,-111.111111111111,4,2,2,90,0,1
92144,-111.111111111111,4,2,2,5,0,1
92210,-111.111111111111,4,2,2,90,0,1
92608,-111.111111111111,4,2,5,90,0,1
93272,-111.111111111111,4,2,2,90,0,1
94069,-111.111111111111,4,2,1,90,0,1
94268,-111.111111111111,4,2,1,5,0,1
94334,-111.111111111111,4,2,1,90,0,1
94467,-111.111111111111,4,2,2,90,0,1
94732,-111.111111111111,4,2,5,90,0,1
96192,-111.111111111111,4,2,1,90,0,1
96392,-111.111111111111,4,2,1,5,0,1
96457,-111.111111111111,4,2,1,90,0,1
96790,-111.111111111111,4,2,1,5,0,1
96856,-111.111111111111,4,2,1,90,0,1
97121,-111.111111111111,4,2,5,90,0,1
98316,-111.111111111111,4,2,1,90,0,1
98715,-111.111111111111,4,2,4,90,0,1
100838,-111.111111111111,4,2,5,90,0,1
101104,-111.111111111111,4,2,1,90,0,1
102166,-250,4,2,1,90,0,0
102232,-250,4,2,10,80,0,0
102630,-250,4,2,11,5,0,0
102697,-166.666666666667,4,2,1,80,0,0
103228,-166.666666666667,4,2,2,80,0,0
106945,-166.666666666667,4,2,1,80,0,0
107476,-166.666666666667,4,2,2,80,0,0
111192,-166.666666666667,4,2,1,80,0,0
111723,-166.666666666667,4,2,2,80,0,0
115440,-166.666666666667,4,2,1,80,0,0
115971,-166.666666666667,4,2,2,80,0,0
119688,-166.666666666667,4,2,1,80,0,0
120219,-166.666666666667,4,2,2,80,0,0
123405,-166.666666666667,4,2,1,80,0,0
124467,-166.666666666667,4,2,2,80,0,0
128184,-166.666666666667,4,2,1,80,0,0
128715,-166.666666666667,4,2,2,80,0,0
132431,-166.666666666667,4,2,1,80,0,0
132962,-166.666666666667,4,2,4,80,0,0
136679,270.27027027027,4,2,1,70,1,0
136679,-166.666666666667,4,2,1,70,0,0
136949,-166.666666666667,4,2,21,70,0,0
137489,-166.666666666667,4,2,1,70,0,0
141273,-166.666666666667,4,2,21,70,0,0
141813,-166.666666666667,4,2,1,70,0,0
143165,-166.666666666667,4,2,1,70,0,1
143435,-166.666666666667,4,2,21,70,0,1
143975,-166.666666666667,4,2,1,70,0,1
144246,-166.666666666667,4,2,1,70,0,0
153976,-166.666666666667,4,2,1,50,0,0
154516,-500,4,2,1,50,0,0
154787,-500,4,2,22,50,0,0
155056,-500,4,2,1,55,0,0
155327,-500,4,2,22,55,0,0
155597,-500,4,2,1,55,0,0
156138,-500,4,2,1,60,0,0
156949,-500,4,2,22,60,0,0
157218,-500,4,2,1,65,0,0
157489,-500,4,2,22,65,0,0
157759,-500,4,2,1,65,0,0
158300,-500,4,2,1,80,0,0
159381,-166.666666666667,4,2,1,85,0,0
159651,-133.333333333333,4,2,1,85,0,0
159922,-111.111111111111,4,2,1,85,0,0
160462,-500,4,2,1,100,0,0
161543,279.06976744186,4,2,1,65,1,0
162624,275.229357798165,4,2,6,80,1,0
162624,-142.857142857143,4,2,6,80,0,0
162899,-142.857142857143,4,2,2,80,0,0
170915,-142.857142857143,4,2,10,80,0,0
171361,-142.857142857143,4,2,11,5,0,0
171431,-142.857142857143,4,2,1,80,0,0
171981,-142.857142857143,4,2,2,80,0,0
172532,-142.857142857143,4,2,1,80,0,0
173632,-142.857142857143,4,2,2,80,0,0
177486,-142.857142857143,4,2,1,80,0,0
178036,-142.857142857143,4,2,3,80,0,0
178312,-142.857142857143,4,2,2,80,0,0
179137,-100,4,2,2,80,0,0
179688,-100,4,2,2,100,0,0
180238,270.27027027027,4,2,6,90,1,1
180508,-100,4,2,1,90,0,1
189967,-100,4,2,2,90,0,1
191048,-100,4,2,1,90,0,1
191859,-100,4,2,2,90,0,1
192129,-100,4,2,1,90,0,1
193481,-100,4,2,4,90,0,1
193751,-100,4,2,2,90,0,1
194021,-100,4,2,4,90,0,1
194292,-100,4,2,3,90,0,1
194832,-100,4,2,5,90,0,1
195102,-100,4,2,2,90,0,1
195237,-100,4,2,5,90,0,1
195373,-100,4,2,1,90,0,1
195913,-100,4,2,2,90,0,1
197535,265.486725663717,4,2,6,80,1,0
197800,-100,4,2,4,80,0,0
198065,-100,4,2,2,80,0,0
198331,-100,4,2,3,80,0,0
198596,-100,4,2,3,60,0,0
200720,-100,4,2,2,60,0,0
201782,-100,4,2,1,80,0,0
202312,-100,4,2,2,80,0,0
202844,-100,4,2,4,60,0,0
206030,-100,4,2,1,80,0,0
206560,-100,4,2,2,80,0,0
207092,-100,4,2,4,60,0,0
209747,-333.333333333333,4,2,4,60,0,0
209813,-333.333333333333,4,2,11,60,0,0
210145,-333.333333333333,4,2,11,5,0,0
210278,-100,4,2,1,80,0,0
210808,-100,4,2,2,80,0,0
211340,-100,4,2,4,60,0,0
213729,-100,4,2,2,60,0,0
214526,-166.666666666667,4,2,1,80,0,0
215057,-166.666666666667,4,2,2,80,0,0
218773,-166.666666666667,4,2,1,80,0,0
219038,-166.666666666667,4,2,3,80,0,0
219304,-166.666666666667,4,2,2,80,0,0
223021,-166.666666666667,4,2,1,80,0,0
223286,-166.666666666667,4,2,3,80,0,0
223552,-166.666666666667,4,2,2,80,0,0
227269,-166.666666666667,4,2,1,80,0,0
227800,-166.666666666667,4,2,2,80,0,0
228331,-166.666666666667,4,2,4,80,0,0
228862,-166.666666666667,4,2,2,80,0,0
229393,-166.666666666667,4,2,4,80,0,0
231517,-166.666666666667,4,2,1,100,0,0
232048,-111.111111111111,4,2,1,100,0,0
232579,-200,4,2,4,100,0,0
232844,-200,4,2,4,30,0,0
232977,-200,4,2,4,50,0,0
233143,-200,4,2,4,30,0,0

[Colours]
Combo1 : 17,254,176
Combo2 : 173,255,95
Combo3 : 255,88,100
Combo4 : 255,94,55

[HitObjects]
105,162,8981,5,8,3:2:0:0:
38,194,9113,2,0,B|124:184|114:234|190:229,1,160,6|2,3:2|3:2,2:0:0:0:
226,70,9511,1,8,1:2:0:0:
226,70,9644,2,0,L|177:148,1,80.2933333333335,2|0,2:0|3:2,2:0:0:0:
366,104,9909,2,0,L|322:22,1,80.2933333333335,2|8,3:2|1:2,2:0:0:0:
267,208,10175,6,0,L|359:210,1,80.2933333333335,2|0,2:0|3:2,2:0:0:0:
393,377,10440,2,0,L|313:374,1,80.2933333333335,2|8,3:2|1:2,2:0:0:0:
446,259,10706,2,0,P|465:293|476:332,1,80.2933333333335,0|0,2:0|3:2,2:0:0:0:
306,283,10971,2,0,P|325:248|354:220,1,80.2933333333335,2|8,3:2|1:2,2:0:0:0:
511,178,11237,6,0,P|502:98|510:19,1,160.586666666666,6|2,3:2|3:2,2:0:0:0:
432,148,11635,2,0,P|392:150|352:145,1,80.2933333333335,10|2,1:2|2:0,2:0:0:0:
348,17,11900,1,2,3:2:0:0:
427,23,12033,1,2,3:2:0:0:
279,73,12166,2,0,B|181:65,1,80.4480000000001,10|0,1:2|2:0,2:0:0:0:
273,165,12431,5,2,3:2:0:0:
273,165,12564,2,0,L|285:257,1,80.2933333333335,2|8,3:2|1:2,2:0:0:0:
110,257,12830,2,0,P|124:220|153:192,1,80.2933333333335,2|0,2:0|3:2,2:0:0:0:
233,331,13095,2,0,P|193:336|155:325,1,80.2933333333335,2|8,3:2|1:2,2:0:0:0:
283,243,13361,6,0,P|359:254|399:320,1,160.586666666666,6|2,3:2|3:2,2:0:0:0:
401,187,13759,1,10,3:2:0:0:
401,187,13892,2,0,P|404:147|403:107,1,80.2933333333335,2|0,1:2|3:2,2:0:0:0:
494,40,14157,1,2,1:2:0:0:
420,9,14290,1,10,3:2:0:0:
508,35,14422,2,0,P|504:74|505:114,1,80.2933333333335,2|0,1:2|3:2,2:0:0:0:
394,263,14688,6,0,P|387:223|400:186,1,80.2933333333335,2|8,1:2|3:2,2:0:0:0:
512,311,14953,2,0,L|421:346,1,80.2933333333335,2|0,1:2|3:2,2:0:0:0:
291,351,15219,2,0,L|365:379,1,80.2933333333335,2|8,3:2|3:2,2:0:0:0:
310,207,15484,6,0,B|236:190|239:252|159:245,1,160.586666666666,6|2,3:2|3:2,2:0:0:0:
239,128,15883,2,0,P|237:88|224:51,1,80.2933333333335,10|2,3:2|1:2,2:0:0:0:
54,147,16148,2,0,P|55:186|69:224,1,80.2933333333335,2|2,3:2|1:2,2:0:0:0:
146,105,16414,1,10,3:2:0:0:
77,65,16546,1,2,1:2:0:0:
157,122,16679,5,2,3:2:0:0:
88,161,16812,1,8,3:2:0:0:
88,161,16878,1,8,3:2:0:0:
88,161,16945,1,10,3:2:0:0:
108,242,17077,1,10,3:2:0:0:
177,203,17210,1,8,3:2:0:0:
285,265,17343,2,0,L|273:346,1,80.2933333333335,8|4,3:0|3:0,2:0:0:0:
442,340,17608,6,0,P|436:262|373:217,1,160.586666666666,6|2,3:2|3:2,2:0:0:0:
467,174,18007,1,10,1:2:0:0:
329,99,18139,2,0,L|395:143,1,80.2933333333335,2|0,2:0|3:2,2:0:0:0:
250,229,18405,2,0,L|254:149,1,80.2933333333335,2|8,3:2|1:2,2:0:0:0:
398,284,18670,6,0,L|319:300,1,80.2933333333335,2|0,2:0|3:2,2:0:0:0:
241,311,18936,1,2,3:2:0:0:
318,327,19069,1,10,1:2:0:0:
235,227,19201,2,0,P|234:187|243:148,1,80.2933333333335,2|0,2:0|3:2,2:0:0:0:
106,255,19467,2,0,P|106:294|97:333,1,80.2933333333335,2|8,3:2|1:2,2:0:0:0:
162,143,19732,6,0,B|82:128|86:182|9:178,1,160.586666666666,6|2,3:2|3:2,2:0:0:0:
118,62,20130,1,10,1:2:0:0:
0,26,20263,2,0,P|19:60|44:91,1,80.2933333333335,2|0,2:0|3:2,2:0:0:0:
213,140,20529,2,0,P|173:139|133:145,1,80.2933333333335,2|8,3:2|1:2,2:0:0:0:
7,267,20794,2,0,P|27:232|41:195,1,80.2933333333335,2|0,2:0|3:2,2:0:0:0:
211,303,21060,2,0,P|190:337|176:374,1,80.2933333333335,2|8,3:2|1:2,2:0:0:0:
132,251,21325,6,0,B|213:243|204:296|280:299,1,160.586666666666,2|2,2:0|3:2,2:0:0:0:
238,193,21723,1,8,1:2:0:0:
104,341,21856,6,0,P|36:302|22:225,1,160.586666666666,6|0,3:2|3:2,2:0:0:0:
137,87,22254,2,0,L|138:166,1,80.2933333333335,8|0,3:2|3:2,2:0:0:0:
334,224,22520,6,0,L|332:144,1,80.2933333333335,14|0,3:2|3:2,2:0:0:0:
414,260,22785,1,8,3:2:0:0:
334,224,22918,1,0,3:2:0:0:
296,346,23051,6,0,L|366:384,1,80.2933333333335,14|0,3:2|3:2,2:0:0:0:
296,346,23316,1,8,3:2:0:0:
225,382,23449,1,0,3:2:0:0:
255,266,23582,6,0,L|186:307,1,80.2933333333335,14|0,3:2|3:2,2:0:0:0:
122,353,23847,1,8,3:2:0:0:
34,252,23980,1,0,3:2:0:0:
112,268,24113,5,14,3:2:0:0:
40,332,24246,1,0,3:2:0:0:
4,243,24378,1,12,3:2:0:0:
76,179,24511,1,0,3:2:0:0:
32,34,24644,5,12,3:2:0:0:
143,116,24776,1,0,3:2:0:0:
129,38,24909,1,12,3:2:0:0:
16,111,25042,1,0,3:2:0:0:
78,190,25175,5,8,3:2:0:0:
157,151,25307,1,8,3:3:0:0:
157,151,25374,1,4,3:3:0:0:
157,151,25440,1,8,3:2:0:0:
259,241,25573,1,8,3:2:0:0:
287,162,25706,5,8,3:2:0:0:
255,97,25838,1,8,3:0:0:0:
300,40,25971,1,4,3:0:0:0:
512,0,26104,5,14,3:2:0:0:
362,102,26502,6,0,L|265:80,1,90.3299972534183,14|0,3:2|2:0,2:0:0:0:
457,242,26768,2,0,L|430:156,1,90.3299972534183,6|0,3:2|3:2,2:0:0:0:
504,3,27033,2,0,L|442:69,1,89.9999972534181,10|0,3:2|2:0,2:0:0:0:
386,2,27299,5,2,3:2:0:0:
458,29,27431,1,0,3:2:0:0:
322,81,27564,2,0,P|293:46|281:3,1,90.3299972534183,14|0,3:2|2:0,2:0:0:0:
268,141,27830,1,6,3:2:0:0:
322,81,27962,1,6,3:2:0:0:
334,236,28095,1,8,3:2:0:0:
334,236,28161,1,2,3:2:0:0:
334,236,28228,6,2,B|244:216|253:285|164:277,1,180.659994506836,14|0,3:2|3:2,2:0:0:0:
8,60,28626,2,0,P|136:68|186:186,1,270.311991760254,10|0,3:2|3:2,2:0:0:0:
20,221,29157,2,0,L|118:210,1,90.3299972534183,10|0,3:2|2:0,2:0:0:0:
36,300,29422,5,2,3:2:0:0:
102,140,29555,2,0,L|12:150,1,90.3299972534183,2|12,3:2|3:2,2:0:0:0:
126,17,29821,2,0,P|159:45|176:87,1,90.3299972534183,2|0,2:0|3:2,2:0:0:0:
11,75,30086,2,0,P|19:31|46:-3,1,90.3299972534183,6|8,3:2|3:2,2:0:0:0:
191,180,30352,6,0,L|369:200,1,180.659994506836,6|2,3:2|3:2,2:0:0:0:
335,118,30750,1,8,3:2:0:0:
373,2,30883,2,0,P|289:27|252:106,1,180.659994506836,2|0,2:0|3:2,2:0:0:0:
453,158,31281,2,0,L|435:67,1,90.3299972534183,8|0,3:2|2:0,2:0:0:0:
512,63,31546,1,0,3:2:0:0:
380,192,31679,1,0,3:2:0:0:
512,242,31812,6,0,L|494:330,1,90.3299972534183,14|0,3:2|2:0,2:0:0:0:
430,258,32077,1,6,3:2:0:0:
326,307,32210,1,6,3:2:0:0:
278,245,32343,1,8,3:2:0:0:
278,245,32409,1,2,3:2:0:0:
278,245,32476,6,0,P|190:250|132:316,1,180.659994506836,14|0,3:2|3:2,2:0:0:0:
278,245,32874,1,8,3:2:0:0:
168,108,33007,2,0,P|200:138|241:157,1,90.3299972534183,6|0,2:0|3:2,2:0:0:0:
75,231,33272,2,0,P|84:187|81:142,1,90.3299972534183,2|12,3:2|3:2,2:0:0:0:
278,245,33538,6,0,P|268:288|271:333,1,90.3299972534183,6|0,2:0|3:2,2:0:0:0:
160,358,33803,1,8,3:0:0:0:
160,358,33869,1,4,3:0:0:0:
160,358,33936,1,8,3:2:0:0:
89,318,34069,1,8,3:2:0:0:
157,275,34201,1,14,3:2:0:0:
56,226,34334,6,0,B|51:205|51:205|55:182,1,45.251998626709,8|4,3:0|3:0,2:0:0:0:
261,66,34599,6,0,P|229:150|141:175,1,180.659994506836,6|0,3:2|3:2,2:0:0:0:
105,5,34998,2,0,P|151:9|198:11,1,90.3299972534183,14|0,3:2|2:0,2:0:0:0:
180,86,35263,1,6,3:2:0:0:
63,136,35396,2,0,P|34:101|30:57,1,90.3299972534183,2|8,3:2|3:2,2:0:0:0:
148,176,35661,6,0,L|132:355,1,180.659994506836,2|0,2:0|3:2,2:0:0:0:
302,237,36060,2,0,P|275:201|233:188,1,90.3299972534183,10|0,3:2|3:2,2:0:0:0:
222,267,36325,1,6,3:2:0:0:
221,359,36458,2,0,P|265:354|297:324,1,90.3299972534183,6|8,3:2|3:2,2:0:0:0:
297,324,36657,1,2,3:2:0:0:
297,324,36723,6,0,B|363:317|363:317|397:346|397:346|465:341,1,180.659994506836,14|0,3:2|3:2,2:0:0:0:
422,140,37122,2,0,P|337:160|306:241,1,180.659994506836,10|2,3:2|3:2,2:0:0:0:
422,140,37520,1,2,3:2:0:0:
356,97,37653,1,8,1:2:0:0:
502,27,37785,6,0,P|498:71|498:116,1,90.3299972534183,2|0,2:0|3:2,2:0:0:0:
268,111,38051,2,0,P|271:66|271:21,1,90.3299972534183,2|8,3:2|1:2,2:0:0:0:
390,118,38316,2,0,L|382:317,1,180.659994506836,2|2,2:0|3:2,2:0:0:0:
305,237,38715,1,8,1:2:0:0:
184,316,38847,6,0,B|92:302|104:366|13:356,1,180.659994506836,4|0,3:2|3:2,2:0:0:0:
128,127,39246,2,0,L|194:187,1,90.3299972534183,8|0,1:2|2:0,2:0:0:0:
24,254,39511,2,0,L|43:166,1,90.3299972534183,0|0,3:2|3:2,2:0:0:0:
187,279,39776,2,0,L|101:306,1,90.3299972534183,8|0,1:2|2:0,2:0:0:0:
116,224,40042,1,0,3:2:0:0:
198,360,40175,1,0,3:2:0:0:
355,216,40307,6,0,P|378:177|386:133,1,90.3299972534183,10|0,1:2|2:0,2:0:0:0:
186,278,40573,2,0,P|229:264|274:265,1,90.3299972534183,2|0,3:2|3:2,2:0:0:0:
411,378,40838,2,0,P|377:349|356:310,1,90.3299972534183,10|0,1:2|3:2,2:0:0:0:
319,82,41104,5,10,1:2:0:0:
375,119,43228,6,0,B|296:112|296:112|262:133,1,120.439996337891,6|0,3:2|3:2,2:0:0:0:
437,181,43626,1,0,3:2:0:0:
437,181,43759,2,0,P|462:127|449:70,2,120.213996337891,14|0|4,3:2|3:2|3:2,2:0:0:0:
323,203,44555,2,0,L|312:322,2,120.213996337891,2|14|2,3:2|3:2|3:2,2:0:0:0:
266,73,45352,6,0,L|260:136,1,60.2199981689454,6|0,3:2|2:0,2:0:0:0:
178,107,45617,2,0,L|183:170,1,60.2199981689454,2|0,3:2|2:0,2:0:0:0:
100,141,45883,2,0,L|94:204,1,60.2199981689454,14|0,3:2|2:0,2:0:0:0:
12,175,46148,2,0,L|17:238,1,60.2199981689454,2|0,3:2|2:0,2:0:0:0:
171,236,46414,2,0,P|128:277|70:283,1,120.439996337891,6|0,3:2|3:2,2:0:0:0:
93,57,46945,2,0,P|149:73|184:120,1,120.439996337891,14|0,3:2|3:2,2:0:0:0:
6,115,47476,6,0,L|17:242,1,120.439996337891,6|0,3:2|3:2,2:0:0:0:
171,236,47874,1,0,3:2:0:0:
171,236,48007,2,0,L|159:363,2,120.213996337891,12|0|4,3:2|3:2|3:2,2:0:0:0:
323,203,48803,2,0,B|355:200|355:200|407:217|407:217|440:214,2,120.213996337891,2|14|2,3:2|3:2|3:2,2:0:0:0:
392,86,49599,6,0,P|408:110|415:139,1,60.2199981689454,6|0,3:2|2:0,2:0:0:0:
251,119,49865,2,0,P|263:92|285:71,1,60.2199981689454,2|0,3:2|2:0,2:0:0:0:
351,223,50130,2,0,P|321:225|292:216,1,60.2199981689454,14|0,3:2|2:0,2:0:0:0:
370,3,50396,2,0,P|399:0|428:9,1,60.2199981689454,2|0,3:2|2:0,2:0:0:0:
512,38,50661,2,0,L|500:165,1,120.439996337891,6|0,3:2|3:2,2:0:0:0:
450,217,51060,1,2,3:2:0:0:
450,217,51192,2,0,L|455:280,1,60.2199981689454,12|0,3:2|2:0,2:0:0:0:
371,260,51458,2,0,L|365:323,1,60.2199981689454,2|0,3:2|2:0,2:0:0:0:
265,141,51723,6,0,P|323:136|372:169,1,120.439996337891,4|0,3:2|3:2,2:0:0:0:
190,322,52122,1,0,3:2:0:0:
190,322,52254,2,0,B|183:243|183:243|204:209,2,120.213996337891,12|0|4,3:2|3:2|3:2,2:0:0:0:
128,76,53051,2,0,B|134:154|134:154|113:188,2,120.213996337891,2|14|2,3:2|3:2|3:2,2:0:0:0:
232,0,53847,6,0,L|237:63,1,60.2199981689454,6|0,3:2|2:0,2:0:0:0:
317,68,54113,2,0,L|311:131,1,60.2199981689454,2|0,3:2|2:0,2:0:0:0:
395,154,54378,2,0,P|411:178|418:207,1,60.2199981689454,14|0,3:2|2:0,2:0:0:0:
330,213,54644,2,0,P|313:237|306:266,1,60.2199981689454,2|0,3:2|2:0,2:0:0:0:
242,182,54909,2,0,B|209:184|209:184|157:167|157:167|124:170,1,120.439996337891,6|0,3:2|3:2,2:0:0:0:
140,317,55307,1,2,3:2:0:0:
140,317,55440,2,0,L|145:253,1,60.2199981689454,12|0,3:2|2:0,2:0:0:0:
55,342,55706,2,0,L|60:278,1,60.2199981689454,2|0,3:2|2:0,2:0:0:0:
21,151,55971,6,0,L|32:23,1,120.439996337891,6|0,3:2|3:2,2:0:0:0:
203,91,56369,1,0,3:2:0:0:
203,91,56502,2,0,P|177:144|124:170,2,120.213996337891,12|2|4,3:2|3:2|3:2,2:0:0:0:
361,16,57299,2,0,B|355:94|355:94|376:128,2,120.213996337891,2|14|2,3:2|3:2|3:2,2:0:0:0:
508,195,58095,6,0,L|446:178,1,60.2199981689454,6|0,3:2|2:0,2:0:0:0:
462,265,58361,2,0,L|400:248,1,60.2199981689454,2|0,3:2|2:0,2:0:0:0:
240,298,58626,2,0,L|301:281,1,60.2199981689454,14|0,3:2|2:0,2:0:0:0:
286,368,58892,2,0,L|347:351,1,60.2199981689454,2|0,3:2|2:0,2:0:0:0:
273,149,59157,2,0,P|219:174|193:227,1,120.439996337891,6|0,3:2|3:2,2:0:0:0:
203,373,59555,1,2,3:2:0:0:
157,304,59688,5,8,3:2:0:0:
82,333,59821,1,8,3:2:0:0:
193,226,59953,5,10,3:2:0:0:
35,190,60086,1,4,3:1:0:0:
256,192,62343,12,0,64268,2:0:0:0:
187,88,64334,6,0,B|267:76|265:135|336:134,1,160.586666666666,14|0,3:2|3:2,2:0:0:0:
303,207,64732,1,8,3:2:0:0:
163,223,64865,2,0,P|191:195|227:177,1,80.2933333333335,2|0,2:0|1:2,2:0:0:0:
255,345,65130,2,0,P|216:334|183:311,1,80.2933333333335,2|12,2:0|3:2,2:0:0:0:
335,228,65396,5,2,2:0:0:0:
363,328,65529,1,0,1:2:0:0:
457,286,65661,1,2,2:0:0:0:
429,186,65794,1,12,3:2:0:0:
380,247,65927,5,2,2:0:0:0:
439,195,66060,1,6,3:2:0:0:
353,59,66192,1,2,2:0:0:0:
294,111,66325,1,8,3:2:0:0:
486,129,66458,6,0,P|466:206|456:285,1,160.586666666666,4|0,3:2|3:2,2:0:0:0:
380,247,66856,1,10,1:2:0:0:
230,292,66989,5,2,2:0:0:0:
147,260,67122,1,4,3:2:0:0:
205,194,67254,1,2,2:0:0:0:
288,226,67387,1,8,1:2:0:0:
144,352,67520,2,0,P|142:312|135:272,1,80.2933333333335,2|4,2:0|3:2,2:0:0:0:
94,122,67785,5,8,3:2:0:0:
94,122,67852,1,8,3:2:0:0:
94,122,67918,1,10,3:2:0:0:
118,49,68051,5,8,3:2:0:0:
246,30,68184,1,10,3:2:0:0:
276,120,68316,1,8,3:0:0:0:
196,96,68449,1,4,3:0:0:0:
328,51,68582,6,0,P|382:80|425:133,1,120.439996337891,4|0,3:2|3:2,2:0:0:0:
450,196,68980,2,0,P|432:220|416:246,1,60.2199981689454,8|2,3:2|3:2,2:0:0:0:
400,336,69246,1,8,3:0:0:0:
400,336,69378,1,2,3:2:0:0:
296,223,69511,2,0,P|293:252|292:282,1,60.2199981689454,8|2,3:2|3:2,2:0:0:0:
321,369,69776,1,8,3:0:0:0:
321,369,69909,1,2,3:2:0:0:
209,290,70042,5,8,3:2:0:0:
110,335,70175,1,2,3:2:0:0:
136,259,70307,1,8,3:0:0:0:
182,364,70440,1,0,3:2:0:0:
292,282,70573,1,8,3:2:0:0:
198,198,70706,6,0,P|143:172|84:165,1,120.439996337891,4|0,3:2|3:2,2:0:0:0:
165,38,71104,2,0,P|174:66|178:96,1,60.2199981689454,10|2,3:2|3:2,2:0:0:0:
90,84,71369,1,8,3:0:0:0:
90,84,71502,1,2,3:2:0:0:
276,80,71635,2,0,P|266:108|262:138,1,60.2199981689454,8|2,3:2|3:2,2:0:0:0:
351,126,71900,1,8,3:0:0:0:
351,126,72033,1,2,3:2:0:0:
292,282,72166,5,8,3:2:0:0:
390,225,72299,1,2,3:2:0:0:
313,202,72431,1,8,3:0:0:0:
368,308,72564,1,0,3:2:0:0:
485,277,72697,1,8,3:2:0:0:
512,372,72830,6,0,B|464:369|464:369|445:387|445:387|399:384,1,120.439996337891,4|0,3:2|3:2,2:0:0:0:
292,282,73228,2,0,P|262:286|234:297,1,60.2199981689454,10|2,3:2|3:2,2:0:0:0:
313,202,73493,1,8,3:0:0:0:
313,202,73626,1,2,3:2:0:0:
163,195,73759,2,0,P|192:199|220:210,1,60.2199981689454,8|2,3:2|3:2,2:0:0:0:
142,115,74024,1,8,3:0:0:0:
142,115,74157,1,2,3:2:0:0:
360,63,74290,5,8,3:2:0:0:
226,122,74422,1,2,3:2:0:0:
261,51,74555,1,8,3:0:0:0:
368,142,74688,1,2,3:2:0:0:
417,6,74821,1,8,3:2:0:0:
360,63,74953,6,0,P|348:121|343:181,1,120.439996337891,6|2,3:2|3:2,2:0:0:0:
162,197,75352,2,0,P|188:211|213:227,1,60.2199981689454,8|2,3:2|3:2,2:0:0:0:
280,285,75617,1,8,3:0:0:0:
280,285,75750,1,2,3:2:0:0:
307,141,75883,2,0,P|322:166|335:193,1,60.2199981689454,8|2,3:2|3:2,2:0:0:0:
389,290,76148,5,8,3:0:0:0:
375,366,76281,1,2,3:2:0:0:
199,303,76414,5,10,3:2:0:0:
213,227,76546,1,2,3:2:0:0:
290,309,76679,6,0,L|283:352,3,30.0346657511395,2|0|8|4,3:2|3:2|3:0|3:0,2:0:0:0:
294,292,76945,1,8,3:2:0:0:
293,170,77077,6,0,B|227:158|220:203|161:206,1,140.513329060873,12|2,3:2|3:2,2:0:0:0:
235,90,77476,1,8,1:2:0:0:
109,74,77608,2,0,P|131:101|158:123,1,70.2566645304363,2|0,2:0|3:2,2:0:0:0:
39,222,77874,2,0,P|61:194|88:172,1,70.2566645304363,2|8,3:2|1:2,2:0:0:0:
199,303,78139,5,2,2:0:0:0:
141,356,78272,1,0,3:2:0:0:
79,306,78405,1,2,2:0:0:0:
137,253,78538,1,8,1:2:0:0:
77,187,78670,5,2,2:0:0:0:
162,165,78803,1,0,3:2:0:0:
260,250,78936,1,0,3:2:0:0:
276,329,79069,1,10,1:2:0:0:
337,280,79201,6,0,B|413:265|411:310|474:314,1,140.513329060873,6|0,3:2|3:2,2:0:0:0:
463,228,79599,1,10,1:2:0:0:
394,135,79732,2,0,L|386:204,1,70.2566645304363,2|0,2:0|3:2,2:0:0:0:
487,113,79998,2,0,L|494:43,1,70.2566645304363,2|8,2:0|1:2,2:0:0:0:
369,37,80263,5,2,2:0:0:0:
295,6,80396,1,0,3:2:0:0:
241,66,80529,1,2,2:0:0:0:
315,97,80661,1,8,1:2:0:0:
242,173,80794,5,2,2:0:0:0:
159,198,80927,1,0,3:2:0:0:
256,298,81060,1,0,3:2:0:0:
133,369,81192,1,8,1:2:0:0:
170,303,81325,6,0,P|232:332|273:388,1,140.513329060873,4|0,3:2|3:2,2:0:0:0:
264,252,81723,1,10,1:2:0:0:
389,280,81856,2,0,P|359:298|326:310,1,70.2566645304363,2|0,2:0|3:2,2:0:0:0:
356,133,82122,2,0,P|386:149|414:171,1,70.2566645304363,2|8,2:0|1:2,2:0:0:0:
246,236,82387,6,0,P|245:201|250:166,1,70.2566645304363,2|0,2:0|3:2,2:0:0:0:
332,217,82653,1,2,2:0:0:0:
277,85,82785,1,8,1:2:0:0:
356,133,82918,1,2,2:0:0:0:
432,6,83051,1,0,3:2:0:0:
354,45,83184,1,2,3:2:0:0:
511,158,83316,1,8,1:2:0:0:
447,98,83449,6,0,P|431:167|425:236,1,140.513329060873,12|0,3:2|3:2,2:0:0:0:
298,303,83847,5,12,1:2:0:0:
223,351,83980,1,0,3:2:0:0:
174,251,84113,5,14,3:2:0:0:
302,307,84246,1,0,3:2:0:0:
337,199,84378,5,12,3:2:0:0:
178,255,84511,1,0,3:2:0:0:
134,153,84644,5,14,1:2:0:0:
341,203,84776,1,0,3:2:0:0:
370,96,84909,5,12,3:2:0:0:
138,157,85042,1,0,3:2:0:0:
312,37,85175,5,14,3:2:0:0:
450,138,85307,5,8,3:0:0:0:
512,91,85440,1,4,3:0:0:0:
453,49,85573,1,6,3:1:0:0:
77,194,89821,6,0,B|167:163|161:246|238:247,1,180.659994506836,14|2,3:2|3:2,2:0:0:0:
199,56,90219,2,0,P|206:100|207:145,1,90.3299972534183,8|2,3:2|2:0,2:0:0:0:
366,43,90484,2,0,P|323:27|284:5,1,90.3299972534183,4|0,3:2|3:2,2:0:0:0:
292,193,90750,2,0,P|326:164|365:141,1,90.3299972534183,8|0,3:2|2:0,2:0:0:0:
404,330,91015,1,0,3:2:0:0:
332,286,91148,1,0,3:2:0:0:
311,384,91281,6,0,P|277:355|238:332,1,90.3299972534183,10|0,3:2|2:0,2:0:0:0:
162,346,91546,1,6,3:2:0:0:
332,286,91679,1,6,3:2:0:0:
210,246,91812,1,8,3:2:0:0:
210,246,91878,1,2,3:2:0:0:
210,246,91945,6,0,B|121:232|123:300|44:301,1,180.659994506836,6|0,3:2|3:2,2:0:0:0:
108,109,92343,2,0,P|148:127|175:163,1,90.3299972534183,10|0,3:2|2:0,2:0:0:0:
25,220,92608,1,6,3:2:0:0:
8,140,92741,2,0,P|14:96|16:51,1,90.3299972534183,2|8,3:2|3:2,2:0:0:0:
252,4,93007,2,0,P|245:48|243:93,1,90.3299972534183,2|0,2:0|3:2,2:0:0:0:
332,77,93272,5,8,3:0:0:0:
175,163,93405,5,10,3:2:0:0:
340,227,93538,1,8,3:2:0:0:
297,160,93670,1,10,3:2:0:0:
174,293,93803,5,12,3:0:0:0:
217,360,93936,1,12,3:0:0:0:
299,326,94069,6,0,B|367:317|367:317|413:343|413:343|471:337,1,180.659994506836,6|0,3:2|3:2,2:0:0:0:
470,172,94467,2,0,L|460:271,1,90.3299972534183,14|0,3:2|2:0,2:0:0:0:
403,127,94732,1,6,3:2:0:0:
470,172,94865,1,2,3:2:0:0:
309,227,94998,2,0,L|318:137,1,90.3299972534183,8|2,3:2|2:0,2:0:0:0:
227,189,95263,6,0,P|145:161|123:77,2,180.320994506836,0|14|6,3:2|3:2|3:2,2:0:0:0:
176,19,95927,1,6,3:2:0:0:
46,104,96060,1,8,3:2:0:0:
46,104,96126,1,2,3:2:0:0:
46,104,96192,6,0,L|56:284,1,180.659994506836,6|2,3:2|3:2,2:0:0:0:
134,189,96591,2,0,P|215:216|237:300,1,180.659994506836,10|2,3:2|3:2,2:0:0:0:
127,362,96989,2,0,P|135:317|138:272,1,90.3299972534183,2|12,3:2|3:2,2:0:0:0:
342,225,97254,6,0,P|333:269|330:314,1,90.3299972534183,2|4,2:0|3:2,2:0:0:0:
284,157,97520,1,6,3:2:0:0:
342,225,97653,1,12,3:2:0:0:
413,53,97785,1,2,2:0:0:0:
325,69,97918,1,4,3:2:0:0:
438,216,98051,1,6,3:2:0:0:
468,132,98184,1,8,3:2:0:0:
376,142,98316,6,0,B|280:132|301:202|212:202,1,180.659994506836,4|0,3:2|3:2,2:0:0:0:
183,33,98715,2,0,P|220:57|243:95,1,90.3299972534183,8|0,1:2|2:0,2:0:0:0:
56,172,98980,1,0,3:2:0:0:
70,85,99113,1,0,3:2:0:0:
141,144,99246,2,0,L|130:233,1,90.3299972534183,8|0,1:2|2:0,2:0:0:0:
44,364,99511,1,0,3:2:0:0:
8,287,99644,1,0,3:2:0:0:
199,288,99776,6,0,P|207:332|209:377,1,90.3299972534183,10|0,1:2|2:0,2:0:0:0:
310,142,100042,2,0,P|271:165|237:195,1,90.3299972534183,2|0,3:2|3:2,2:0:0:0:
56,172,100307,2,0,P|95:193|138:207,1,90.3299972534183,10|0,1:2|3:2,2:0:0:0:
397,222,100573,5,10,3:2:0:0:
323,265,100706,5,0,3:2:0:0:
405,311,100838,1,4,2:0:0:0:
490,176,100971,5,0,3:2:0:0:
397,222,101104,1,10,3:0:0:0:
339,159,101237,1,4,3:0:0:0:
418,123,101369,5,8,3:2:0:0:
501,273,101502,1,0,3:2:0:0:
323,265,101635,1,10,3:0:0:0:
330,367,101768,5,4,3:0:0:0:
265,326,101900,1,10,3:0:0:0:
191,365,102033,1,4,3:0:0:0:
58,269,102166,6,2,B|152:254|152:254|191:275,1,140.061333333333,10|0,3:2|2:0,2:1:0:0:
175,291,102697,6,0,L|186:163,1,120.439996337891,6|0,3:2|3:2,2:0:0:0:
245,90,103095,1,0,3:2:0:0:
245,90,103228,2,0,B|166:83|166:83|132:104,2,120.213996337891,12|0|4,3:2|3:2|3:2,2:0:0:0:
307,152,104024,2,0,P|332:98|319:41,2,120.213996337891,2|14|2,3:2|3:2|3:2,2:0:0:0:
403,189,104821,6,0,L|464:172,1,60.2199981689454,6|0,3:2|2:0,2:0:0:0:
413,265,105086,2,0,L|474:248,1,60.2199981689454,2|0,3:2|2:0,2:0:0:0:
326,259,105352,2,0,L|264:242,1,60.2199981689454,14|0,3:2|2:0,2:0:0:0:
316,335,105617,2,0,L|254:318,1,60.2199981689454,2|0,3:2|2:0,2:0:0:0:
136,368,105883,2,0,B|104:365|104:365|52:382|52:382|19:379,1,120.439996337891,6|0,3:2|3:2,2:0:0:0:
96,183,106414,2,0,P|152:199|187:246,1,120.439996337891,14|0,3:2|3:2,2:0:0:0:
0,282,106945,6,0,L|11:154,1,120.439996337891,6|0,3:2|3:2,2:0:0:0:
142,61,107343,1,0,3:2:0:0:
142,61,107476,2,0,B|109:58|109:58|57:75|57:75|25:72,2,120.213996337891,12|0|4,3:2|3:2|3:2,2:0:0:0:
224,141,108272,2,0,B|303:134|303:134|337:155,2,120.213996337891,2|14|2,3:2|3:2|3:2,2:0:0:0:
163,262,109069,6,0,P|145:237|136:209,1,60.2199981689454,6|0,3:2|2:0,2:0:0:0:
220,199,109334,2,0,P|216:169|223:140,1,60.2199981689454,2|0,3:2|2:0,2:0:0:0:
287,262,109599,2,0,P|269:286|260:314,1,60.2199981689454,14|0,3:2|2:0,2:0:0:0:
344,325,109865,2,0,P|340:354|347:383,1,60.2199981689454,2|0,3:2|2:0,2:0:0:0:
505,239,110130,2,0,L|377:227,1,120.439996337891,6|0,3:2|3:2,2:0:0:0:
465,87,110529,1,2,3:2:0:0:
465,87,110661,2,0,P|440:69|412:60,1,60.2199981689454,12|0,3:2|2:0,2:0:0:0:
402,144,110927,2,0,P|372:140|343:147,1,60.2199981689454,2|0,3:2|2:0,2:0:0:0:
271,30,111192,6,0,L|143:18,1,120.439996337891,4|0,3:2|3:2,2:0:0:0:
156,147,111591,1,0,3:2:0:0:
156,147,111723,2,0,B|123:144|123:144|71:161|71:161|39:158,2,120.213996337891,12|0|4,3:2|3:2|3:2,2:0:0:0:
146,359,112520,2,0,P|89:342|54:294,2,120.213996337891,2|14|2,3:2|3:2|3:2,2:0:0:0:
232,274,113316,6,0,L|226:337,1,60.2199981689454,6|0,3:2|2:0,2:0:0:0:
325,283,113582,2,0,L|320:224,1,60.2199981689454,2|0,3:2|2:0,2:0:0:0:
408,174,113847,2,0,L|402:237,1,60.2199981689454,14|0,3:2|2:0,2:0:0:0:
501,183,114113,2,0,L|496:124,1,60.2199981689454,2|0,3:2|2:0,2:0:0:0:
362,18,114378,2,0,P|420:8|471:37,1,120.439996337891,6|0,3:2|3:2,2:0:0:0:
292,138,114776,1,2,3:2:0:0:
292,138,114909,2,0,L|297:78,1,60.2199981689454,12|0,3:2|2:0,2:0:0:0:
224,4,115175,2,0,L|218:63,1,60.2199981689454,2|0,3:2|3:2,2:0:0:0:
201,260,115440,6,0,B|122:253|122:253|88:274,1,120.439996337891,6|0,3:2|3:2,2:0:0:0:
277,372,115838,1,0,3:2:0:0:
277,372,115971,2,0,L|288:244,2,120.213996337891,12|2|4,3:2|3:2|3:2,2:0:0:0:
501,183,116768,2,0,L|490:302,2,120.213996337891,2|14|2,3:2|3:2|3:2,2:0:0:0:
467,34,117564,6,0,P|485:57|496:85,1,60.2199981689454,6|0,3:2|2:0,2:0:0:0:
414,102,117830,2,0,P|418:131|414:161,1,60.2199981689454,2|0,3:2|2:0,2:0:0:0:
281,1,118095,2,0,P|261:23|250:51,1,60.2199981689454,14|0,3:2|2:0,2:0:0:0:
334,69,118361,2,0,P|328:98|332:128,1,60.2199981689454,2|0,3:2|2:0,2:0:0:0:
239,186,118626,2,0,P|202:139|145:127,1,120.439996337891,14|8,3:2|3:0,2:0:0:0:
128,148,118958,1,4,3:0:0:0:
132,152,119024,2,0,L|128:193,2,30.1099990844727,8|4|8,3:0|3:0|3:0,2:0:0:0:
63,79,119290,1,4,3:0:0:0:
9,144,119422,1,8,3:0:0:0:
9,144,119555,1,4,3:0:0:0:
39,319,119688,6,0,B|72:316|72:316|124:333|124:333|156:330,1,120.439996337891,6|0,3:2|3:2,2:0:0:0:
233,211,120086,1,0,3:2:0:0:
233,211,120219,2,0,P|175:203|130:241,2,120.213996337891,12|0|4,3:2|3:2|3:2,2:0:0:0:
302,376,121015,2,0,L|312:256,2,120.213996337891,2|14|2,3:2|3:2|3:2,2:0:0:0:
474,248,121812,6,0,L|468:311,1,60.2199981689454,6|0,3:2|2:0,2:0:0:0:
398,211,122077,2,0,L|392:274,1,60.2199981689454,2|0,3:2|2:0,2:0:0:0:
306,101,122343,2,0,L|311:164,1,60.2199981689454,14|0,3:2|2:0,2:0:0:0:
382,64,122608,2,0,L|387:127,1,60.2199981689454,2|0,3:2|2:0,2:0:0:0:
254,24,122874,2,0,B|175:17|175:17|141:38,1,120.439996337891,6|0,3:2|3:2,2:0:0:0:
192,222,123272,1,0,3:2:0:0:
192,222,123405,2,0,L|203:94,1,120.439996337891,14|0,3:2|3:2,2:0:0:0:
55,39,123803,1,0,3:2:0:0:
55,39,123936,6,0,L|44:158,1,120.439996337891,6|0,3:2|3:2,2:0:0:0:
137,302,124467,2,0,B|104:299|104:299|52:316|52:316|20:313,2,120.213996337891,12|0|4,3:2|3:2|3:2,2:0:0:0:
304,355,125263,2,0,P|311:297|273:252,2,120.213996337891,2|14|2,3:2|3:2|3:2,2:0:0:0:
471,259,126060,6,0,L|465:322,1,60.2199981689454,6|0,3:2|2:0,2:0:0:0:
395,230,126325,2,0,L|389:293,1,60.2199981689454,2|0,3:2|2:0,2:0:0:0:
320,168,126591,2,0,P|343:149|371:138,1,60.2199981689454,14|0,3:2|2:0,2:0:0:0:
344,58,126856,2,0,P|373:53|403:58,1,60.2199981689454,2|0,3:2|2:0,2:0:0:0:
504,138,127122,5,6,3:2:0:0:
494,148,127387,5,8,3:2:0:0:
484,158,127653,5,12,3:2:0:0:
491,23,127918,5,2,3:2:0:0:
491,23,128051,1,0,3:2:0:0:
491,23,128184,2,0,L|363:34,1,120.439996337891,4|0,3:2|3:2,2:0:0:0:
284,129,128582,1,0,3:2:0:0:
284,129,128715,2,0,L|403:118,2,120.213996337891,12|0|4,3:2|3:2|3:2,2:0:0:0:
230,297,129511,2,0,B|197:294|197:294|145:311|145:311|113:308,2,120.213996337891,2|14|2,3:2|3:2|3:2,2:0:0:0:
48,114,130307,6,0,L|58:233,1,120.439996337891,6|0,3:2|3:2,2:0:0:0:
134,104,130706,1,2,3:2:0:0:
134,104,130838,2,0,L|139:167,1,60.2199981689454,12|0,3:2|2:0,2:0:0:0:
55,25,131104,2,0,L|114:19,1,60.2199981689454,2|0,3:2|2:0,2:0:0:0:
58,233,131369,2,0,L|48:114,1,120.439996337891,6|0,3:2|3:2,2:0:0:0:
144,223,131768,1,2,3:2:0:0:
144,223,131900,2,0,L|138:159,1,60.2199981689454,12|0,3:2|2:0,2:0:0:0:
105,306,132166,2,0,L|52:342,1,60.2199981689454,2|0,3:2|2:0,2:0:0:0:
197,299,132431,6,0,B|230:296|230:296|282:313|282:313|314:310,1,120.439996337891,6|0,3:2|3:2,2:0:0:0:
394,194,132830,1,0,3:2:0:0:
394,194,132962,2,0,P|336:186|291:224,2,120.213996337891,8|0|6,1:2|3:2|3:2,2:0:0:0:
403,45,133759,1,2,3:2:0:0:
318,0,134024,1,14,3:2:0:0:
245,141,134290,1,2,3:2:0:0:
330,96,134555,1,10,3:2:0:0:
509,46,136679,6,0,B|357:-44|349:164|182:140,1,360.275989013672,6|0,3:2|3:2,2:0:0:0:
189,140,137760,5,8,3:2:0:0:
105,47,138030,1,0,3:2:0:0:
105,47,138165,2,0,P|112:76|115:105,1,60.1199981689452,8|0,3:2|3:2,2:0:0:0:
45,246,138570,2,0,L|12:257,3,30.0599990844727,0|0|0|0,3:2|3:2|3:2|3:2,2:0:0:0:
64,258,138841,6,0,L|207:273,1,120.239996337891,8|0,3:2|3:2,2:0:0:0:
183,270,139381,1,0,3:2:0:0:
253,220,139651,1,0,3:2:0:0:
338,281,139922,5,8,3:2:0:0:
452,208,140192,1,0,3:2:0:0:
452,208,140327,2,0,P|444:237|441:266,1,60.1199981689452,8|0,3:2|3:2,2:0:0:0:
383,129,140733,2,0,L|388:97,3,30.0599990844727,0|0|0|0,3:2|3:2|3:2|3:2,2:0:0:0:
369,145,141003,6,0,B|217:55|209:263|42:239,1,360.275989013672,14|0,3:2|3:2,2:0:0:0:
49,239,142084,5,8,3:2:0:0:
151,314,142354,1,0,3:2:0:0:
151,314,142489,2,0,P|158:343|161:372,1,60.1199981689452,8|0,3:2|3:2,2:0:0:0:
262,271,142895,2,0,L|257:239,3,30.0599990844727,0|0|0|0,3:2|3:2|3:2|3:2,2:0:0:0:
247,293,143165,6,0,P|89:227|69:56,1,360.275989013672,12|0,3:2|3:2,2:0:0:0:
69,56,144246,5,10,3:2:0:0:
232,76,144516,1,0,3:2:0:0:
232,76,144651,1,10,3:2:0:0:
320,39,144787,2,0,P|313:68|315:97,1,60.1199981689452,8|8,3:2|3:0,2:0:0:0:
145,141,145057,2,0,P|151:111|149:82,1,60.1199981689452,4|4,3:0|3:0,2:0:0:0:
304,232,145327,5,12,3:2:0:0:
256,0,146949,5,10,3:2:0:0:
256,0,147219,2,0,L|254:32,4,30.0599990844727,0|0|0|0|8,3:2|3:2|3:2|3:2|3:2,2:0:0:0:
256,0,149381,6,0,L|254:32,4,30.0599990844727,0|0|0|0|8,3:2|3:2|3:2|3:2|3:2,2:0:0:0:
256,0,151543,6,0,L|254:32,4,30.0599990844727,0|0|0|0|8,3:2|3:2|3:2|3:2|3:2,2:0:0:0:
256,0,152895,5,10,3:2:0:0:
256,0,153165,5,8,3:2:0:0:
225,96,153300,1,8,3:2:0:0:
133,20,153435,5,10,3:2:0:0:
154,144,153570,1,8,3:2:0:0:
32,94,153706,5,8,3:2:0:0:
116,221,153841,1,8,3:2:0:0:
5,205,153976,5,12,3:2:0:0:
5,205,154246,1,8,3:2:0:0:
5,205,154516,6,0,L|-1:293,2,80.0119999999998,10|10|10,3:2|3:2|3:2,2:0:0:0:
79,186,155868,1,8,3:2:0:0:
150,212,156138,1,8,3:2:0:0:
222,190,156408,1,8,3:2:0:0:
299,215,156678,6,0,L|294:135,2,80.0119999999998,10|10|10,3:2|3:2|3:2,2:0:0:0:
240,269,158030,1,8,3:2:0:0:
13,113,158300,5,10,3:2:0:0:
69,59,158435,1,0,3:2:0:0:
88,176,158570,5,8,3:2:0:0:
160,154,158706,1,0,3:2:0:0:
155,256,158841,5,8,3:2:0:0:
227,287,158976,1,0,3:2:0:0:
233,208,159111,5,8,3:2:0:0:
68,291,159246,1,0,3:2:0:0:
77,147,159381,6,0,P|82:160|87:175,1,29.9999990844727,8|0,3:2|3:2,0:0:0:0:
144,284,159516,2,0,P|149:270|154:255,1,29.9999990844727,0|0,3:2|3:2,0:0:0:0:
135,93,159651,6,0,P|147:107|156:123,1,37.5000014305115,8|0,3:2|3:2,0:0:0:0:
207,330,159787,2,0,P|219:315|228:299,1,37.5000014305115,0|0,3:2|3:2,0:0:0:0:
308,149,159922,6,0,L|312:94,3,44.999998626709,8|0|0|0,3:2|3:2|3:2|3:2,0:0:0:0:
390,244,160192,5,8,3:2:0:0:
401,260,160260,1,0,3:2:0:0:
408,283,160327,1,0,3:2:0:0:
410,313,160395,1,0,3:2:0:0:
399,346,160462,5,8,3:2:0:0:
248,5,161543,5,2,2:0:0:0:
248,5,161682,1,2,2:0:0:0:
279,81,161822,1,2,2:0:0:0:
279,81,162101,5,2,2:0:0:0:
253,157,162240,1,2,2:0:0:0:
301,243,162380,1,2,2:0:0:0:
236,384,162519,1,2,2:0:0:0:
265,314,162624,6,0,B|168:287|173:377|69:364,1,210.349993591309,14|0,3:2|3:2,2:0:0:0:
111,283,163174,5,6,2:0:0:0:
235,384,163312,1,0,2:0:0:0:
184,239,163449,5,2,3:2:0:0:
145,375,163587,1,0,3:2:0:0:
170,75,163724,6,0,P|227:111|239:177,1,140.233329060873,14|0,3:2|2:0,2:0:0:0:
32,219,164137,2,0,P|34:151|86:107,1,140.233329060873,2|0,2:0|2:0,2:0:0:0:
167,230,164550,2,0,L|152:372,1,140.233329060873,2|4,2:0|2:0,2:0:0:0:
318,319,165101,5,2,3:2:0:0:
324,302,165238,1,0,2:0:0:0:
388,363,165376,5,6,2:0:0:0:
243,289,165513,1,0,2:0:0:0:
248,368,165651,5,2,3:2:0:0:
402,279,165789,1,0,3:2:0:0:
269,128,165926,6,0,L|252:286,1,140.233329060873,14|0,3:2|3:2,2:0:0:0:
347,185,166339,5,2,3:2:0:0:
176,216,166477,1,12,3:2:0:0:
176,216,166752,5,10,3:2:0:0:
269,128,166890,1,8,3:2:0:0:
107,43,167027,6,0,P|101:77|97:112,1,70.1166645304362,6|0,3:2|2:0,2:0:0:0:
196,26,167302,5,2,2:0:0:0:
194,44,167440,1,0,3:2:0:0:
35,168,167578,5,6,3:2:0:0:
177,123,167715,1,0,2:0:0:0:
66,86,167853,5,2,3:2:0:0:
128,244,167990,1,0,2:0:0:0:
177,123,168128,6,0,P|243:145|292:194,1,140.233329060873,14|0,3:2|2:0,2:0:0:0:
440,32,168541,2,0,P|373:53|324:102,1,140.233329060873,2|0,2:0|2:0,2:0:0:0:
372,314,168954,2,0,L|386:174,1,140.233329060873,2|4,2:0|3:2,2:0:0:0:
485,151,169504,6,0,L|488:116,3,35.1431100429958,8|8|4|4,3:0|3:0|3:0|3:0,2:0:0:0:
493,165,169779,1,12,3:0:0:0:
501,179,170055,1,0,3:2:0:0:
502,325,170330,6,0,P|450:319|348:349,1,140.233329060873,10|0,3:1|3:2,2:0:0:0:
365,339,170880,6,2,B|327:305|277:325|277:325|239:286|239:286|199:323|150:310,1,245.331325856527,10|0,3:2|2:0,2:1:0:0:
181,324,171431,6,0,L|167:156,1,140.233329060873,6|2,3:2|2:0,2:0:0:0:
107,134,171844,1,0,3:2:0:0:
189,99,171981,5,4,2:0:0:0:
94,220,172119,1,0,2:0:0:0:
272,178,172257,5,2,3:2:0:0:
92,127,172394,1,0,3:2:0:0:
196,83,172532,6,0,L|184:222,1,140.233329060873,4|8,3:1|3:2,2:0:0:0:
272,178,172945,2,0,P|338:194|375:251,1,140.233329060873,2|0,2:0|2:0,2:0:0:0:
179,311,173357,2,0,P|160:245|191:184,1,140.233329060873,2|4,3:2|3:2,2:0:0:0:
191,184,173908,5,2,2:0:0:0:
192,171,174046,1,0,3:2:0:0:
132,116,174183,5,6,3:2:0:0:
286,104,174321,1,0,2:0:0:0:
157,35,174458,5,2,3:2:0:0:
301,114,174596,1,0,3:2:0:0:
250,8,174734,6,0,L|106:24,1,140.233329060873,6|8,3:2|3:2,2:0:0:0:
230,171,175146,1,2,2:0:0:0:
248,91,175284,2,0,L|319:99,1,70.1166645304362,12|0,3:2|2:0,2:0:0:0:
155,132,175559,2,0,L|294:116,1,140.233329060873,2|6,3:2|3:2,2:0:0:0:
294,116,176110,5,2,2:0:0:0:
296,136,176247,1,0,3:2:0:0:
359,196,176385,5,6,3:2:0:0:
199,269,176523,1,0,2:0:0:0:
223,189,176660,5,2,3:2:0:0:
380,279,176798,1,0,2:0:0:0:
291,348,176935,6,0,B|228:324|215:373|157:374,1,140.233329060873,6|8,3:2|3:2,2:0:0:0:
78,199,177348,2,0,P|112:200|173:280,1,140.233329060873,2|0,2:0|2:0,2:0:0:0:
0,384,177761,2,0,P|7:314|5:234,1,140.233329060873,2|4,2:0|3:2,2:0:0:0:
5,244,178312,6,0,L|8:209,3,35.1431100429958,8|8|4|4,3:0|3:0|3:0|3:0,2:0:0:0:
13,258,178587,1,4,3:2:0:0:
21,272,178862,1,0,3:2:0:0:
204,114,179137,6,0,P|201:89|194:65,3,50.2044444444444,10|0|0|0,3:2|3:2|3:2|3:2,2:0:0:0:
142,201,179412,2,0,P|135:224|132:249,3,50.2044444444444,10|0|0|0,3:2|3:2|3:2|3:2,2:0:0:0:
245,217,179688,5,14,3:2:0:0:
261,213,179757,1,2,3:3:0:0:
277,209,179825,1,2,3:2:0:0:
293,205,179894,1,2,3:3:0:0:
325,223,179963,1,10,3:2:0:0:
341,227,180032,1,2,3:3:0:0:
357,231,180101,1,2,3:2:0:0:
373,235,180169,1,2,3:3:0:0:
409,222,180238,6,0,P|410:173|416:123,1,100.2,14|0,3:2|3:2,2:0:0:0:
421,236,180508,1,10,3:2:0:0:
293,205,180643,2,0,P|291:254|285:304,1,100.2,2|0,3:2|2:0,2:0:0:0:
205,272,180913,5,2,3:2:0:0:
371,330,181048,1,10,3:2:0:0:
236,376,181183,1,2,2:0:0:0:
299,282,181319,6,0,P|292:331|291:381,1,100.2,2|0,3:2|3:2,2:0:0:0:
105,306,181589,2,0,P|103:256|97:206,1,100.2,10|2,3:2|3:2,2:0:0:0:
275,152,181859,6,0,P|273:246|187:286,1,200.4,2|8,2:0|3:2,2:0:0:0:
275,152,182265,1,0,2:0:0:0:
355,139,182400,6,0,L|460:156,1,100.2,6|2,3:2|3:2,2:0:0:0:
334,53,182670,1,10,3:2:0:0:
355,139,182805,1,2,3:2:0:0:
183,193,182940,6,0,L|78:210,1,100.2,2|0,2:0|3:2,2:0:0:0:
204,107,183210,1,10,3:2:0:0:
183,193,183346,1,0,2:0:0:0:
299,281,183481,6,0,P|304:233|280:190,1,100.2,2|0,3:2|3:2,2:0:0:0:
92,290,183751,2,0,P|86:338|110:381,1,100.2,10|0,3:2|3:2,2:0:0:0:
196,206,184021,6,0,B|90:184|106:270|20:279,1,200.4,2|8,2:0|3:2,2:0:0:0:
189,304,184427,1,0,2:0:0:0:
21,175,184562,6,0,L|31:53,1,100.2,6|0,3:2|3:2,2:0:0:0:
125,194,184832,1,10,3:2:0:0:
120,118,184967,1,0,3:2:0:0:
28,261,185102,6,0,L|38:383,1,100.2,2|2,2:0|3:2,2:0:0:0:
189,304,185373,1,10,3:2:0:0:
28,261,185508,1,2,2:0:0:0:
138,207,185643,6,0,B|217:201|217:201|246:238|246:238|319:236,2,200.03,2|10|2,3:2|3:2|2:0,2:0:0:0:
306,112,186319,1,0,3:2:0:0:
216,6,186454,2,0,P|216:55|210:105,1,100.2,8|0,3:2|2:0,2:0:0:0:
367,170,186724,5,6,3:2:0:0:
435,128,186859,2,0,P|434:78|440:28,1,100.2,0|10,3:2|3:2,2:0:0:0:
494,190,187129,2,0,P|494:239|488:289,1,100.2,2|0,3:2|2:0,2:0:0:0:
298,268,187400,5,2,3:2:0:0:
380,342,187535,1,10,3:2:0:0:
296,355,187670,1,2,2:0:0:0:
388,259,187805,6,0,P|338:251|288:256,1,100.2,2|0,3:2|3:2,2:0:0:0:
206,109,188075,2,0,P|255:116|305:111,1,100.2,10|0,3:2|3:2,2:0:0:0:
175,275,188346,6,0,P|179:175|172:75,1,200.4,2|10,2:0|3:2,2:0:0:0:
175,275,188751,1,2,3:2:0:0:
103,320,188886,5,14,3:2:0:0:
49,257,189021,1,2,3:2:0:0:
121,212,189156,1,0,3:2:0:0:
197,381,189292,6,0,P|282:328|377:298,1,200.4,10|0,3:2|3:2,2:0:0:0:
256,182,189697,2,0,P|302:199|351:209,1,100.2,14|2,3:2|3:2,2:0:0:0:
512,172,189967,6,0,P|482:211|436:231,1,100.2,14|0,3:2|3:2,2:0:0:0:
439,41,190238,2,0,P|445:90|427:136,1,100.2,2|8,3:2|3:2,2:0:0:0:
199,49,190508,6,0,P|287:14|357:79,1,200.4,2|12,3:2|3:2,2:0:0:0:
342,162,190913,1,0,3:2:0:0:
151,222,191048,6,0,P|153:172|150:122,1,100.2,14|0,3:2|3:2,2:0:0:0:
344,259,191319,2,0,P|341:308|344:358,1,100.2,2|8,3:2|3:2,2:0:0:0:
256,195,191589,1,2,3:2:0:0:
344,259,191724,1,0,3:2:0:0:
233,346,191859,2,0,L|123:327,1,100.2,14|0,3:2|3:2,2:0:0:0:
56,125,192129,6,0,P|147:148|162:241,2,200.03,14|2|2,3:2|3:2|3:2,2:0:0:0:
60,205,192805,1,0,3:2:0:0:
159,52,192940,2,0,L|49:33,1,100.2,8|0,3:2|3:2,2:0:0:0:
222,106,193210,5,6,3:2:0:0:
318,45,193346,1,8,3:2:0:0:
301,122,193481,1,2,1:2:0:0:
242,28,193616,1,0,3:2:0:0:
388,91,193751,6,0,L|397:206,1,100.2,14|0,3:2|3:2,2:0:0:0:
210,283,194021,2,0,L|202:183,1,100.2,2|8,1:2|3:2,2:0:0:0:
394,299,194292,6,0,L|276:262,1,100.2,6|8,3:2|3:2,2:0:0:0:
177,384,194562,2,0,L|272:354,1,100.2,2|0,3:2|3:2,2:0:0:0:
508,204,194832,5,14,3:2:0:0:
424,71,194967,1,0,3:2:0:0:
512,109,195102,1,14,3:2:0:0:
419,165,195237,1,12,3:2:0:0:
384,279,195373,5,6,3:2:0:0:
304,273,195508,1,8,3:2:0:0:
263,336,195643,1,0,3:2:0:0:
143,173,195778,5,8,3:2:0:0:
183,248,195913,1,6,3:2:0:0:
311,111,196048,5,8,3:2:0:0:
267,180,196183,1,0,3:2:0:0:
194,106,196319,1,8,3:2:0:0:
264,3,196454,5,2,3:2:0:0:
264,3,196521,2,0,L|260:52,2,50.0999999999998,0|0|0,3:2|3:2|3:2,2:0:0:0:
350,80,196724,1,0,3:2:0:0:
350,80,196792,2,0,L|311:112,2,50.0999999999998,0|0|0,3:2|3:2|3:2,2:0:0:0:
356,195,196994,5,10,3:3:0:0:
356,195,197062,2,0,L|306:191,2,50.0999999999998,8|8|8,3:0|3:0|3:0,2:0:0:0:
424,269,197265,1,4,3:0:0:0:
424,269,197332,2,0,L|473:272,2,50.0999999999998,4|4|4,3:0|3:0|3:0,2:0:0:0:
339,321,197535,6,0,B|236:296|246:371|154:377,2,200.356666666667,14|0|4,3:2|1:2|3:2,2:0:0:0:
454,370,198331,1,4,3:2:0:0:
454,370,198596,1,8,3:2:0:0:
454,370,200720,5,14,3:2:0:0:
454,370,201782,6,0,P|458:270|470:170,2,200.356666666667,4|0|4,3:2|3:2|3:2,2:0:0:0:
342,173,202579,1,0,3:2:0:0:
342,173,202844,1,14,3:2:0:0:
244,98,205322,5,0,3:2:0:0:
244,98,205411,1,0,3:2:0:0:
244,98,205499,1,8,3:2:0:0:
266,174,205765,1,0,3:2:0:0:
266,174,206030,6,0,B|205:168|205:168|142:212|142:212|80:210,2,200.356666666667,4|0|4,3:2|3:2|3:2,2:0:0:0:
394,70,206827,1,0,3:2:0:0:
394,70,207092,1,8,1:2:0:0:
394,70,209216,5,8,3:2:0:0:
394,70,209747,2,0,P|351:61|306:64,1,90.1039972534183,4|0,3:2|2:0,2:0:0:0:
250,121,210278,6,0,B|154:87|144:160|59:156,2,200.356666666667,4|0|4,3:2|3:2|3:2,2:0:0:0:
285,269,211074,1,0,3:2:0:0:
285,269,211340,1,8,1:2:0:0:
148,90,213729,6,0,L|152:31,3,50.0577777777778,8|4|10|8,3:0|3:0|3:2|3:2,2:0:0:0:
163,108,213995,1,8,3:2:0:0:
106,196,214260,1,2,3:2:0:0:
106,196,214526,6,0,P|161:214|190:266,1,120.439996337891,6|0,3:2|3:2,2:0:0:0:
319,98,214924,1,0,3:2:0:0:
319,98,215057,2,0,P|263:116|234:168,1,120.439996337891,4|0,3:2|3:2,2:0:0:0:
267,368,215588,1,12,3:2:0:0:
267,368,215853,2,0,L|282:225,2,120.213996337891,2|6|2,3:2|3:2|3:2,2:0:0:0:
436,334,216650,6,0,L|371:297,1,60.2199981689454,6|0,3:2|2:0,2:0:0:0:
473,258,216915,2,0,L|408:221,1,60.2199981689454,2|0,3:2|2:0,2:0:0:0:
323,171,217181,2,0,L|388:134,1,60.2199981689454,6|0,3:2|2:0,2:0:0:0:
286,95,217446,2,0,L|351:58,1,60.2199981689454,2|0,3:2|2:0,2:0:0:0:
505,36,217711,2,0,L|487:154,1,120.439996337891,14|0,3:2|3:2,2:0:0:0:
323,171,218242,2,0,L|340:289,1,120.439996337891,6|8,3:2|3:2,2:0:0:0:
289,350,218641,1,8,3:2:0:0:
142,301,218773,6,0,B|86:313|86:313|75:320|75:320|27:332,3,120.138663004557,6|4|4|0,3:2|3:2|3:2|3:2,2:0:0:0:
197,180,219835,1,12,3:2:0:0:
118,85,220101,2,0,P|143:31|194:1,2,120.213996337891,2|6|2,3:2|3:2|3:2,2:0:0:0:
118,85,220765,1,4,3:0:0:0:
89,166,220897,6,0,L|24:191,1,60.2199981689454,6|0,3:2|2:0,2:0:0:0:
142,234,221163,2,0,L|198:255,1,60.2199981689454,2|0,3:2|3:2,2:0:0:0:
254,99,221428,2,0,L|189:124,1,60.2199981689454,6|0,3:2|2:0,2:0:0:0:
307,167,221694,2,0,L|363:188,1,60.2199981689454,2|0,3:2|2:0,2:0:0:0:
440,39,221959,2,0,P|381:41|339:82,1,120.439996337891,6|8,3:2|3:2,2:0:0:0:
339,82,222358,1,10,3:2:0:0:
339,82,222490,1,8,3:0:0:0:
470,195,222756,1,2,3:2:0:0:
470,195,222888,1,4,3:0:0:0:
470,195,223021,6,0,B|463:251|463:251|466:264|466:264|460:313,3,120.138663004557,6|4|4|0,3:2|3:2|3:2|3:2,2:0:0:0:
354,364,224083,1,12,3:2:0:0:
354,364,224349,2,0,P|306:328|248:313,2,120.213996337891,2|6|2,3:2|3:2|3:2,2:0:0:0:
391,221,225145,2,0,P|391:250|384:279,1,60.2199981689454,6|0,3:2|2:0,2:0:0:0:
275,194,225411,2,0,P|296:214|311:240,1,60.2199981689454,2|0,3:2|2:0,2:0:0:0:
390,98,225676,2,0,P|368:118|353:144,1,60.2199981689454,6|0,3:2|2:0,2:0:0:0:
234,58,225942,2,0,P|255:78|270:104,1,60.2199981689454,2|0,3:2|2:0,2:0:0:0:
129,266,226207,6,0,L|138:119,1,120.439996337891,14|0,3:2|3:2,2:0:0:0:
137,275,226738,2,0,L|146:128,1,120.439996337891,6|0,3:2|3:2,2:0:0:0:
226,335,227269,2,0,P|275:302|289:245,1,120.439996337891,6|0,3:2|3:2,2:0:0:0:
51,234,227800,2,0,P|13:189|15:131,1,120.439996337891,4|0,3:2|3:2,2:0:0:0:
210,12,228331,1,8,1:2:0:0:
210,12,228596,6,0,L|204:71,1,60.2199981689454,2|0,3:2|2:0,2:0:0:0:
283,113,228862,2,0,L|288:53,1,60.2199981689454,6|0,3:2|2:0,2:0:0:0:
208,159,229127,2,0,L|151:180,1,60.2199981689454,2|0,3:2|2:0,2:0:0:0:
309,230,229393,1,10,3:2:0:0:
440,189,231517,5,14,3:2:0:0:
428,153,231583,1,0,3:2:0:0:
405,124,231650,1,0,3:2:0:0:
372,106,231716,1,0,3:2:0:0:
335,102,231782,1,8,3:2:0:0:
299,112,231849,1,0,3:2:0:0:
270,135,231915,1,0,3:2:0:0:
251,167,231981,1,0,3:2:0:0:
246,203,232048,6,0,L|252:247,3,45.025998626709,8|0|0|0,3:2|3:2|3:2|3:2,2:0:0:0:
158,182,232313,2,0,L|163:137,3,45.025998626709,8|0|0|0,3:2|3:2|3:2|3:2,2:0:0:0:
64,229,232579,6,0,L|71:328,1,100.366666666666,12|0,1:2|2:0,2:0:0:0:
164,360,232977,6,0,P|193:373|224:377,1,62.5,2|0,2:0|2:0,2:0:0:0:
