osu file format v14

[General]
AudioFilename: audio.mp3
AudioLeadIn: 0
PreviewTime: 26050
Countdown: 0
SampleSet: Soft
StackLeniency: 0.5
Mode: 0
LetterboxInBreaks: 0
WidescreenStoryboard: 1

[Editor]
DistanceSpacing: 1.1
BeatDivisor: 4
GridSize: 32
TimelineZoom: 2.1

[Metadata]
Title:King For A Day (feat. Kellin Quinn)
TitleUnicode:King For A Day (feat. Kellin Quinn)
Artist:Pierce The Veil
ArtistUnicode:Pierce The Veil
Creator:attendant
Version:Another
Source:
Tags:collide with the sky alternative metal punk post hardcore sleeping sirens english
BeatmapID:2266081
BeatmapSetID:1074059

[Difficulty]
HPDrainRate:5
CircleSize:4
OverallDifficulty:8.2
ApproachRate:9
SliderMultiplier:2
SliderTickRate:1

[Events]
//Background and Video events
0,0,"bg.jpg",0,0
Video,1988,"video.mp4"
//Break Periods
2,41304,42166
2,60286,61743
2,85773,89157
2,134755,135617
2,145527,146349
2,147689,148781
2,149851,150943
2,198796,200120
2,203044,204722
2,207292,208616
2,211540,213129
2,229593,230455
//Storyboard Layer 0 (Background)
//Storyboard Layer 1 (Fail)
//Storyboard Layer 2 (Pass)
//Storyboard Layer 3 (Foreground)
//Storyboard Layer 4 (Overlay)
//Storyboard Sound Samples

[TimingPoints]
8981,265.486725663717,4,2,1,80,1,0
9113,-133.333333333333,4,2,1,80,0,0
9246,265.486725663717,4,2,4,80,1,0
9644,-133.333333333333,4,2,4,80,0,0
11237,-133.333333333333,4,2,1,80,0,0
11635,-133.333333333333,4,2,4,80,0,0
13361,-133.333333333333,4,2,1,80,0,0
18007,-133.333333333333,4,2,4,80,0,0
19732,-133.333333333333,4,2,1,80,0,0
20130,-133.333333333333,4,2,4,80,0,0
21856,-111.111111111111,4,2,1,90,0,0
22520,-111.111111111111,4,2,3,90,0,0
23051,-111.111111111111,4,2,1,90,0,0
23582,-111.111111111111,4,2,2,90,0,0
24113,-111.111111111111,4,2,1,90,0,0
24378,-111.111111111111,4,2,2,90,0,0
24644,-111.111111111111,4,2,3,90,0,0
24909,-111.111111111111,4,2,2,90,0,0
26104,-111.111111111111,4,2,7,90,0,1
26502,-111.111111111111,4,2,2,90,0,1
26768,-111.111111111111,4,2,5,90,0,1
28228,-111.111111111111,4,2,7,90,0,1
28626,-100,4,2,2,90,0,1
28892,-100,4,2,21,90,0,1
29024,-100,4,2,5,90,0,1
29157,-111.111111111111,4,2,5,90,0,1
30352,-111.111111111111,4,2,1,90,0,1
30883,-100,4,2,1,90,0,1
31281,-111.111111111111,4,2,1,90,0,1
31812,-111.111111111111,4,2,5,90,0,1
32476,-111.111111111111,4,2,7,90,0,1
32874,-111.111111111111,4,2,2,90,0,1
33007,-111.111111111111,4,2,4,90,0,1
33404,-111.111111111111,4,2,5,90,0,1
33803,-111.111111111111,4,2,2,90,0,1
34201,-111.111111111111,4,2,4,90,0,1
34334,-222.222222222222,4,2,2,90,0,1
34599,-111.111111111111,4,2,1,90,0,1
34799,-111.111111111111,4,2,1,5,0,1
34864,-111.111111111111,4,2,1,90,0,1
34998,-111.111111111111,4,2,2,90,0,1
35263,-111.111111111111,4,2,5,90,0,1
36723,-111.111111111111,4,2,7,90,0,1
37122,-111.111111111111,4,2,1,90,0,1
37653,-111.111111111111,4,2,4,90,0,1
38847,-111.111111111111,4,2,1,90,0,1
39046,-111.111111111111,4,2,1,5,0,1
39112,-111.111111111111,4,2,1,90,0,1
39246,-111.111111111111,4,2,4,90,0,1
41104,-111.111111111111,4,2,4,90,0,0
43228,-133.333333333333,4,2,1,80,0,0
43759,-133.333333333333,4,2,2,80,0,0
47476,-133.333333333333,4,2,1,80,0,0
48007,-133.333333333333,4,2,2,80,0,0
51723,-133.333333333333,4,2,1,80,0,0
52254,-133.333333333333,4,2,2,80,0,0
55971,-133.333333333333,4,2,1,80,0,0
56502,-133.333333333333,4,2,2,80,0,0
60086,-133.333333333333,4,2,1,80,0,0
64201,-133.333333333333,4,2,11,5,0,0
64334,-111.111111111111,4,2,7,90,0,0
64732,-111.111111111111,4,2,1,90,0,0
64997,-111.111111111111,4,2,4,90,0,0
65262,-111.111111111111,4,2,2,90,0,0
65528,-111.111111111111,4,2,4,90,0,0
65793,-111.111111111111,4,2,2,90,0,0
66458,-111.111111111111,4,2,1,90,0,0
66856,-111.111111111111,4,2,4,90,0,0
67121,-111.111111111111,4,2,2,90,0,0
67386,-111.111111111111,4,2,4,90,0,0
67652,-111.111111111111,4,2,2,90,0,0
68582,-133.333333333333,4,2,1,70,0,0
76148,-125,4,2,1,70,0,0
76414,-111.111111111111,4,2,1,70,0,0
76679,-100,4,2,1,70,0,0
77077,-111.111111111111,4,2,6,80,0,0
77476,-111.111111111111,4,2,4,80,0,0
79201,-111.111111111111,4,2,1,80,0,0
79599,-111.111111111111,4,2,4,80,0,0
81325,-111.111111111111,4,2,1,80,0,0
81723,-111.111111111111,4,2,4,80,0,0
83449,-111.111111111111,4,2,6,90,0,0
83847,-111.111111111111,4,2,4,90,0,0
84113,-111.111111111111,4,2,1,90,0,0
84378,-111.111111111111,4,2,2,90,0,0
84644,-111.111111111111,4,2,4,90,0,0
84909,-111.111111111111,4,2,3,90,0,0
85175,-111.111111111111,4,2,2,90,0,0
85573,-111.111111111111,4,2,1,90,0,0
89821,-111.111111111111,4,2,6,90,0,1
90219,-111.111111111111,4,2,1,90,0,1
90484,-111.111111111111,4,2,5,90,0,1
91945,-111.111111111111,4,2,2,90,0,1
92144,-111.111111111111,4,2,2,5,0,1
92210,-111.111111111111,4,2,2,90,0,1
92608,-111.111111111111,4,2,5,90,0,1
93272,-111.111111111111,4,2,2,90,0,1
94069,-111.111111111111,4,2,1,90,0,1
94268,-111.111111111111,4,2,1,5,0,1
94334,-111.111111111111,4,2,1,90,0,1
94467,-111.111111111111,4,2,2,90,0,1
94732,-111.111111111111,4,2,5,90,0,1
96192,-111.111111111111,4,2,1,90,0,1
96392,-111.111111111111,4,2,1,5,0,1
96457,-111.111111111111,4,2,1,90,0,1
97121,-111.111111111111,4,2,5,90,0,1
98316,-111.111111111111,4,2,1,90,0,1
98715,-111.111111111111,4,2,4,90,0,1
100838,-111.111111111111,4,2,5,90,0,1
101104,-111.111111111111,4,2,1,90,0,1
102166,-111.111111111111,4,2,1,90,0,0
102697,-133.333333333333,4,2,1,80,0,0
103228,-133.333333333333,4,2,2,80,0,0
106945,-133.333333333333,4,2,1,80,0,0
107476,-133.333333333333,4,2,2,80,0,0
111192,-133.333333333333,4,2,1,80,0,0
111723,-133.333333333333,4,2,2,80,0,0
115440,-133.333333333333,4,2,1,80,0,0
115971,-133.333333333333,4,2,2,80,0,0
119688,-133.333333333333,4,2,1,80,0,0
120219,-133.333333333333,4,2,2,80,0,0
123405,-133.333333333333,4,2,1,80,0,0
124467,-133.333333333333,4,2,2,80,0,0
128184,-133.333333333333,4,2,1,80,0,0
128715,-133.333333333333,4,2,2,80,0,0
132431,-133.333333333333,4,2,1,80,0,0
132962,-133.333333333333,4,2,4,80,0,0
136679,270.27027027027,4,2,1,70,1,0
136679,-166.666666666667,4,2,1,70,0,0
136949,-166.666666666667,4,2,21,70,0,0
137489,-166.666666666667,4,2,1,70,0,0
141273,-166.666666666667,4,2,21,70,0,0
141813,-166.666666666667,4,2,1,70,0,0
143165,-166.666666666667,4,2,1,70,0,1
143435,-166.666666666667,4,2,21,70,0,1
144246,-166.666666666667,4,2,1,70,0,0
153976,-166.666666666667,4,2,1,50,0,0
154516,-222.222222222222,4,2,1,50,0,0
155057,-222.222222222222,4,2,1,55,0,0
155868,-222.222222222222,4,2,22,55,0,0
156137,-222.222222222222,4,2,1,60,0,0
157219,-222.222222222222,4,2,1,65,0,0
158300,-200,4,2,1,80,0,0
158570,-181.818181818182,4,2,1,80,0,0
158841,-166.666666666667,4,2,1,80,0,0
159111,-153.846153846154,4,2,1,80,0,0
159381,-142.857142857143,4,2,1,85,0,0
159651,-133.333333333333,4,2,1,85,0,0
159922,-125,4,2,1,85,0,0
160462,-125,4,2,1,100,0,0
161543,279.06976744186,4,2,1,65,1,0
161822,-166.666666666667,4,2,1,65,0,0
162031,-166.666666666667,4,2,11,5,0,0
162101,-166.666666666667,4,2,1,65,0,0
162624,275.229357798165,4,2,6,80,1,0
162624,-133.333333333333,4,2,6,80,0,0
162899,-133.333333333333,4,2,2,80,0,0
170915,-133.333333333333,4,2,10,80,0,0
171361,-133.333333333333,4,2,11,5,0,0
171431,-133.333333333333,4,2,1,80,0,0
171981,-133.333333333333,4,2,2,80,0,0
172532,-133.333333333333,4,2,1,80,0,0
173633,-133.333333333333,4,2,2,80,0,0
178036,-133.333333333333,4,2,3,80,0,0
178312,-133.333333333333,4,2,2,80,0,0
179688,-133.333333333333,4,2,2,100,0,0
180238,270.27027027027,4,2,6,90,1,1
180238,-111.111111111111,4,2,6,90,0,1
180508,-111.111111111111,4,2,2,90,0,1
181319,-133.333333333333,4,2,1,90,0,1
182940,-111.111111111111,4,2,1,90,0,1
183481,-133.333333333333,4,2,1,90,0,1
184562,-111.111111111111,4,2,1,90,0,1
185643,-133.333333333333,4,2,1,90,0,1
187129,-111.111111111111,4,2,1,90,0,1
187805,-133.333333333333,4,2,1,90,0,1
189021,-111.111111111111,4,2,1,90,0,1
189967,-111.111111111111,4,2,2,90,0,1
191048,-111.111111111111,4,2,1,90,0,1
191859,-111.111111111111,4,2,2,90,0,1
192129,-111.111111111111,4,2,1,90,0,1
193481,-111.111111111111,4,2,4,90,0,1
193751,-111.111111111111,4,2,2,90,0,1
194021,-111.111111111111,4,2,4,90,0,1
194292,-111.111111111111,4,2,3,90,0,1
194832,-111.111111111111,4,2,5,90,0,1
195102,-111.111111111111,4,2,2,90,0,1
195237,-111.111111111111,4,2,5,90,0,1
195373,-111.111111111111,4,2,1,90,0,1
195913,-111.111111111111,4,2,2,90,0,1
197535,265.486725663717,4,2,6,80,1,0
197800,-100,4,2,4,80,0,0
198065,-100,4,2,2,80,0,0
198331,-100,4,2,3,80,0,0
198596,-100,4,2,3,60,0,0
200720,-100,4,2,2,60,0,0
201782,-100,4,2,1,80,0,0
202313,-100,4,2,2,80,0,0
202844,-100,4,2,4,60,0,0
205499,-166.666666666667,4,2,4,60,0,0
206030,-166.666666666667,4,2,1,80,0,0
206561,-166.666666666667,4,2,2,80,0,0
207092,-166.666666666667,4,2,4,60,0,0
210278,-166.666666666667,4,2,1,80,0,0
210809,-166.666666666667,4,2,2,80,0,0
211340,-166.666666666667,4,2,4,60,0,0
213729,-166.666666666667,4,2,2,60,0,0
214526,-133.333333333333,4,2,1,80,0,0
215057,-133.333333333333,4,2,2,80,0,0
218773,-133.333333333333,4,2,1,80,0,0
219038,-133.333333333333,4,2,3,80,0,0
219304,-133.333333333333,4,2,2,80,0,0
223021,-133.333333333333,4,2,1,80,0,0
223286,-133.333333333333,4,2,3,80,0,0
223552,-133.333333333333,4,2,2,80,0,0
227269,-133.333333333333,4,2,1,80,0,0
227535,-133.333333333333,4,2,21,80,0,0
227800,-133.333333333333,4,2,23,80,0,0
228065,-133.333333333333,4,2,2,80,0,0
228331,-133.333333333333,4,2,4,80,0,0
228862,-133.333333333333,4,2,2,80,0,0
229393,-133.333333333333,4,2,4,80,0,0
231517,-133.333333333333,4,2,1,100,0,0
232579,-133.333333333333,4,2,4,100,0,0

[Colours]
Combo1 : 17,254,176
Combo2 : 173,255,95
Combo3 : 255,88,100
Combo4 : 255,94,55

[HitObjects]
473,210,8981,5,8,3:2:0:0:
473,210,9113,2,0,P|407:177|336:195,1,150.000005722046,6|2,3:2|3:2,2:0:0:0:
281,254,9511,1,8,1:2:0:0:
281,254,9644,2,0,P|256:282|243:317,1,75.2750028610233,2|0,2:0|3:2,2:0:0:0:
135,189,9909,2,0,P|159:217|172:252,1,75.2750028610233,2|8,3:2|1:2,2:0:0:0:
269,106,10175,6,0,P|232:112|195:106,1,75.2750028610233,2|0,2:0|3:2,2:0:0:0:
296,251,10440,2,0,P|308:215|332:186,1,75.2750028610233,2|8,3:2|1:2,2:0:0:0:
493,229,10706,2,0,P|480:193|456:164,1,75.2750028610233,0|0,2:0|3:2,2:0:0:0:
378,309,10971,1,2,3:2:0:0:
450,346,11104,1,8,1:2:0:0:
361,337,11237,6,0,B|297:313|278:371|219:370,1,150.550005722046,6|2,3:2|3:2,2:0:0:0:
195,215,11635,2,0,P|215:246|222:282,1,75.2750028610233,10|2,1:2|2:0,2:0:0:0:
63,288,11900,1,2,3:2:0:0:
106,222,12033,1,2,3:2:0:0:
142,350,12166,2,0,P|110:370|74:377,1,75.2750028610233,10|0,1:2|2:0,2:0:0:0:
13,167,12431,5,2,3:2:0:0:
13,167,12564,2,0,P|44:146|80:139,1,75.2750028610233,2|8,3:2|1:2,2:0:0:0:
174,31,12830,2,0,P|176:68|164:103,1,75.2750028610233,2|0,2:0|3:2,2:0:0:0:
214,241,13095,1,2,3:2:0:0:
151,192,13228,1,8,1:2:0:0:
240,224,13361,6,0,L|413:198,1,150.550005722046,6|2,3:2|3:2,2:0:0:0:
374,56,13759,1,10,3:2:0:0:
374,56,13892,2,0,L|343:140,1,75.2750028610233,2|0,1:2|3:2,2:0:0:0:
475,182,14157,1,2,1:2:0:0:
497,104,14290,1,10,3:2:0:0:
475,182,14422,2,0,L|449:111,1,75.2750028610233,2|0,1:2|3:2,2:0:0:0:
301,6,14688,6,0,P|273:31|262:66,1,75.2750028610233,2|8,1:2|3:2,2:0:0:0:
229,193,14953,2,0,P|218:157|190:132,1,75.2750028610233,2|0,1:2|3:2,2:0:0:0:
69,128,15219,1,2,3:2:0:0:
122,67,15352,1,8,3:2:0:0:
28,112,15484,6,0,B|56:122|56:122|34:240,1,150.550005722046,6|2,3:2|3:2,2:0:0:0:
185,275,15883,2,0,L|110:281,1,75.2750028610233,10|2,3:2|1:2,2:0:0:0:
18,358,16148,2,0,L|92:364,1,75.2750028610233,2|2,3:2|1:2,2:0:0:0:
243,367,16414,1,10,3:2:0:0:
208,294,16546,1,2,1:2:0:0:
349,358,16679,5,2,3:2:0:0:
382,285,16812,1,8,3:2:0:0:
379,277,16878,1,8,3:2:0:0:
376,270,16945,2,0,P|383:233|375:197,1,75.2750028610233,10|10,3:2|3:2,2:0:0:0:
344,123,17210,1,8,3:2:0:0:
432,53,17343,1,8,3:0:0:0:
352,44,17476,1,4,3:0:0:0:
428,133,17608,6,0,P|413:204|352:244,1,150.550005722046,6|2,3:2|3:2,2:0:0:0:
271,253,18007,1,10,1:2:0:0:
271,253,18139,2,0,L|261:328,1,75.2750028610233,2|0,2:0|3:2,2:0:0:0:
447,375,18405,2,0,L|436:300,1,75.2750028610233,2|8,3:2|1:2,2:0:0:0:
344,154,18670,6,0,L|196:181,1,150.550005722046,2|2,2:0|3:2,2:0:0:0:
270,73,19069,1,10,1:2:0:0:
132,53,19201,2,0,L|192:98,1,75.2750028610233,2|0,2:0|3:2,2:0:0:0:
23,199,19467,1,2,3:2:0:0:
36,120,19599,1,8,1:2:0:0:
32,206,19732,6,0,B|106:185|101:246|166:256,1,150.550005722046,6|2,3:2|3:2,2:0:0:0:
243,238,20130,1,10,1:2:0:0:
188,337,20263,2,0,P|221:319|258:319,1,75.2750028610233,2|0,2:0|3:2,2:0:0:0:
397,278,20529,2,0,P|359:277|326:260,1,75.2750028610233,2|8,3:2|1:2,2:0:0:0:
316,106,20794,6,0,L|306:195,1,75.2750028610233,2|0,2:0|3:2,2:0:0:0:
479,243,21060,2,0,L|470:168,1,75.2750028610233,2|8,3:2|1:2,2:0:0:0:
437,27,21325,2,0,P|400:20|364:30,1,75.2750028610233,2|0,2:0|3:2,2:0:0:0:
239,14,21591,1,2,3:2:0:0:
281,81,21723,1,8,1:2:0:0:
219,0,21856,6,0,P|155:61|139:148,1,180.659994506836,6|0,3:2|3:2,2:0:0:0:
190,216,22254,1,8,3:2:0:0:
190,216,22387,1,0,3:2:0:0:
314,106,22520,6,0,P|277:111|234:144,1,90.3299972534183,14|0,3:2|3:2,2:0:0:0:
223,378,22785,2,0,P|236:343|230:289,1,90.3299972534183,8|0,3:2|3:2,2:0:0:0:
32,163,23051,2,0,P|55:191|104:213,1,90.3299972534183,14|0,3:2|3:2,2:0:0:0:
297,215,23316,5,8,3:2:0:0:
297,215,23449,1,0,3:2:0:0:
328,39,23582,6,0,P|317:82|318:127,1,90.3299972534183,14|0,3:2|3:2,2:0:0:0:
375,367,23847,2,0,P|376:322|365:278,1,90.3299972534183,8|0,3:2|3:2,2:0:0:0:
437,37,24113,5,14,3:2:0:0:
461,51,24246,1,0,3:2:0:0:
438,134,24378,5,12,3:2:0:0:
397,152,24511,1,0,3:2:0:0:
451,219,24644,5,12,3:2:0:0:
506,251,24776,1,0,3:2:0:0:
425,302,24909,5,12,3:2:0:0:
354,341,25042,1,0,3:2:0:0:
477,364,25175,2,0,P|479:319|489:275,1,90.3299972534183,8|8,3:2|3:3,2:0:0:0:
483,267,25374,1,4,3:3:0:0:
477,259,25440,5,8,3:2:0:0:
395,190,25573,1,8,3:2:0:0:
398,270,25706,5,8,3:2:0:0:
480,186,25838,1,8,3:0:0:0:
394,105,25971,1,4,3:0:0:0:
512,0,26104,5,14,3:2:0:0:
153,352,26502,6,0,L|46:334,1,90.3299972534183,14|0,3:2|2:0,2:0:0:0:
187,207,26768,2,0,P|212:243|215:287,1,90.3299972534183,6|0,3:2|3:2,2:0:0:0:
43,238,27033,2,0,P|61:197|98:173,1,90.3299972534183,10|0,3:2|2:0,2:0:0:0:
245,82,27299,6,0,L|157:124,1,90.3299972534183,2|0,3:2|3:2,2:0:0:0:
53,0,27564,2,0,L|141:42,1,90.3299972534183,14|0,3:2|2:0,2:0:0:0:
0,149,27830,1,6,3:2:0:0:
29,75,27962,1,6,3:2:0:0:
80,187,28095,1,8,3:2:0:0:
83,195,28161,1,2,3:2:0:0:
86,203,28228,6,2,B|172:169|175:238|252:245,1,180.659994506836,14|0,3:2|3:2,2:0:0:0:
252,158,28626,6,0,B|145:184|145:184|126:274|126:274|31:299,1,300.346666666668,10|0,3:2|3:2,2:0:0:0:
41,80,29157,2,0,P|85:83|123:106,1,90.3299972534183,10|0,3:2|2:0,2:0:0:0:
289,276,29422,5,2,3:2:0:0:
289,276,29555,2,0,P|251:299|206:302,1,90.3299972534183,2|12,3:2|3:2,2:0:0:0:
272,110,29821,2,0,P|311:131|336:167,1,90.3299972534183,2|0,2:0|3:2,2:0:0:0:
137,208,30086,2,0,P|135:163|154:123,1,90.3299972534183,6|8,3:2|3:2,2:0:0:0:
162,118,30285,1,2,3:2:0:0:
168,112,30352,6,0,B|255:80|255:80|301:156,1,180.659994506836,6|2,3:2|3:2,2:0:0:0:
283,233,30750,1,8,3:2:0:0:
215,188,30883,2,0,P|132:236|122:332,1,200.733333333334,2|0,2:0|3:2,2:0:0:0:
228,371,31281,2,0,L|313:343,1,90.3299972534183,8|0,3:2|2:0,2:0:0:0:
457,269,31546,2,0,L|372:241,1,90.3299972534183,0|0,3:2|3:2,2:0:0:0:
433,54,31812,6,0,P|396:79|375:118,1,90.3299972534183,14|0,3:2|2:0,2:0:0:0:
285,81,32077,1,6,3:2:0:0:
210,140,32210,2,0,P|246:165|267:204,1,90.3299972534183,6|8,3:2|3:2,2:0:0:0:
269,213,32409,1,2,3:2:0:0:
269,220,32476,6,0,B|206:210|206:210|162:246|162:246|103:242,1,180.659994506836,14|0,3:2|3:2,2:0:0:0:
52,180,32874,1,8,3:2:0:0:
118,76,33007,2,0,B|141:119|141:119|134:159,1,90.3299972534183,6|0,2:0|3:2,2:0:0:0:
233,172,33272,2,0,B|218:218|218:218|185:242,1,90.3299972534183,2|12,3:2|3:2,2:0:0:0:
122,346,33538,6,0,P|208:327|276:381,1,180.659994506836,6|8,2:0|3:0,2:0:0:0:
282,375,33869,1,4,3:0:0:0:
289,369,33936,5,8,3:2:0:0:
364,344,34069,1,8,3:2:0:0:
275,246,34201,5,14,3:2:0:0:
400,252,34334,2,0,B|405:230|405:230|397:208,1,45.251998626709,8|4,3:0|3:0,2:0:0:0:
388,190,34599,6,0,P|405:129|507:78,1,180.659994506836,6|0,3:2|3:2,2:0:0:0:
279,15,34998,2,0,P|307:49|319:92,1,90.3299972534183,14|0,3:2|2:0,2:0:0:0:
120,78,35263,1,6,3:2:0:0:
120,78,35396,2,0,P|132:34|160:0,2,90.3299972534183,2|8|2,3:2|3:2|2:0,2:0:0:0:
212,122,35794,6,0,B|128:80|105:165|46:162,2,180.320994506836,0|10|6,3:2|3:2|3:2,2:0:0:0:
262,264,36458,1,6,3:2:0:0:
187,213,36591,1,8,3:2:0:0:
104,333,36723,6,0,P|144:272|133:167,1,180.659994506836,14|0,3:2|3:2,2:0:0:0:
282,179,37122,2,0,B|300:164|310:143|310:143|310:165|320:186,1,90.3299972534183,10|0,3:2|2:0,2:0:0:0:
477,142,37387,6,0,P|433:133|390:147,1,90.3299972534183,2|2,3:2|3:2,2:0:0:0:
183,41,37653,1,8,1:2:0:0:
183,41,37785,2,0,P|197:83|230:112,1,90.3299972534183,2|0,2:0|3:2,2:0:0:0:
243,347,38051,2,0,P|272:313|281:269,1,90.3299972534183,2|8,3:2|1:2,2:0:0:0:
51,162,38316,6,0,B|93:136|93:136|140:149,1,90.3299972534183,2|0,2:0|3:2,2:0:0:0:
139,337,38582,2,0,B|96:362|96:362|49:349,1,90.3299972534183,2|8,3:2|1:2,2:0:0:0:
49,348,38781,1,2,3:2:0:0:
39,343,38847,6,0,P|81:268|167:260,1,180.659994506836,4|0,3:2|3:2,2:0:0:0:
238,149,39246,2,0,L|135:166,1,90.3299972534183,8|0,1:2|2:0,2:0:0:0:
13,214,39511,1,0,3:2:0:0:
13,214,39644,1,0,3:2:0:0:
120,6,39776,6,0,L|103:109,1,90.3299972534183,8|0,1:2|2:0,2:0:0:0:
254,235,40042,1,0,3:2:0:0:
254,235,40175,1,0,3:2:0:0:
419,259,40307,6,0,P|383:233|340:220,1,90.3299972534183,10|0,1:2|2:0,2:0:0:0:
193,78,40573,2,0,P|187:123|198:166,1,90.3299972534183,2|0,3:2|3:2,2:0:0:0:
148,364,40838,2,0,P|190:347|222:316,1,90.3299972534183,10|0,1:2|3:2,2:0:0:0:
290,119,41104,5,10,1:2:0:0:
173,209,43228,6,0,P|193:178|200:138,1,75.2750028610233,6|0,3:2|2:0,2:0:0:0:
329,257,43493,2,0,P|308:226|302:186,1,75.2750028610233,0|0,3:2|3:2,2:0:0:0:
274,52,43759,1,14,3:2:0:0:
274,52,44024,2,0,P|207:20|134:33,1,150.550005722046,0|4,3:2|3:2,2:0:0:0:
38,172,44555,6,0,B|71:169|71:169|81:284,2,150.267505722046,2|14|2,3:2|3:2|3:2,2:0:0:0:
72,72,45352,2,0,P|110:71|145:85,1,75.2750028610233,6|0,3:2|2:0,2:0:0:0:
219,232,45617,2,0,P|200:200|195:164,1,75.2750028610233,2|0,3:2|2:0,2:0:0:0:
350,6,45883,2,0,P|304:64|234:86,1,150.550005722046,14|2,3:2|3:2,2:0:0:0:
318,348,46414,6,0,P|325:274|378:223,1,150.550005722046,6|0,3:2|3:2,2:0:0:0:
116,165,46945,2,0,P|168:215|176:289,1,150.550005722046,14|0,3:2|3:2,2:0:0:0:
306,144,47476,6,0,L|328:52,1,75.2750028610233,6|0,3:2|2:0,2:0:0:0:
181,35,47741,2,0,L|198:107,1,75.2750028610233,0|0,3:2|3:2,2:0:0:0:
253,274,48007,1,12,3:2:0:0:
253,274,48272,2,0,L|407:244,1,150.550005722046,0|4,3:2|3:2,2:0:0:0:
475,362,48803,6,0,B|470:311|470:311|495:272|495:272|489:219,2,150.267505722046,2|14|2,3:2|3:2|3:2,2:0:0:0:
377,100,49599,2,0,P|402:126|416:161,1,75.2750028610233,6|0,3:2|2:0,2:0:0:0:
230,148,49865,2,0,P|244:113|269:86,1,75.2750028610233,2|0,3:2|2:0,2:0:0:0:
317,220,50130,2,0,L|303:382,1,150.550005722046,14|2,3:2|3:2,2:0:0:0:
211,241,50661,6,0,B|129:218|139:270|72:278,1,150.550005722046,6|0,3:2|3:2,2:0:0:0:
20,214,51060,1,2,3:2:0:0:
20,214,51192,2,0,P|7:178|9:141,1,75.2750028610233,12|0,3:2|2:0,2:0:0:0:
226,86,51458,2,0,P|238:121|236:158,1,75.2750028610233,2|0,3:2|2:0,2:0:0:0:
92,109,51723,6,0,L|84:29,1,75.2750028610233,4|0,3:2|2:0,2:0:0:0:
153,177,51989,2,0,L|145:251,1,75.2750028610233,0|0,3:2|3:2,2:0:0:0:
135,382,52254,1,12,3:2:0:0:
134,382,52520,2,0,P|193:337|267:337,1,150.550005722046,0|4,3:2|3:2,2:0:0:0:
388,216,53051,6,0,B|321:183|321:183|276:243,2,150.267505722046,2|14|2,3:2|3:2|3:2,2:0:0:0:
431,59,53847,2,0,L|390:143,1,75.2750028610233,6|0,3:2|2:0,2:0:0:0:
158,131,54113,2,0,L|238:179,1,75.2750028610233,2|0,3:2|2:0,2:0:0:0:
286,27,54378,2,0,L|320:190,1,150.550005722046,14|2,3:2|3:2,2:0:0:0:
498,125,54909,6,0,P|457:64|385:54,1,150.550005722046,6|0,3:2|3:2,2:0:0:0:
312,120,55307,1,2,3:2:0:0:
312,120,55440,2,0,L|300:206,1,75.2750028610233,12|0,3:2|2:0,2:0:0:0:
216,93,55706,2,0,L|204:179,1,75.2750028610233,2|0,3:2|2:0,2:0:0:0:
161,321,55971,6,0,P|156:284|138:251,1,75.2750028610233,6|0,3:2|2:0,2:0:0:0:
349,322,56237,2,0,P|353:285|371:252,1,75.2750028610233,0|0,3:2|3:2,2:0:0:0:
253,349,56502,1,12,3:2:0:0:
253,349,56768,2,0,P|253:274|270:201,1,150.550005722046,2|4,3:2|3:2,2:0:0:0:
179,53,57299,6,0,B|145:50|145:50|135:165,2,150.267505722046,2|14|2,3:2|3:2|3:2,2:0:0:0:
322,51,58095,2,0,P|293:75|257:85,1,75.2750028610233,6|0,3:2|2:0,2:0:0:0:
292,216,58361,2,0,P|263:191|227:181,1,75.2750028610233,2|0,3:2|2:0,2:0:0:0:
415,83,58626,2,0,P|377:145|392:217,1,150.550005722046,14|2,3:2|3:2,2:0:0:0:
465,325,59157,6,0,B|383:302|393:354|326:362,1,150.550005722046,6|0,3:2|3:2,2:0:0:0:
326,362,59688,5,8,3:2:0:0:
235,297,59821,1,8,3:2:0:0:
330,272,59953,1,10,3:2:0:0:
238,384,60086,1,4,3:1:0:0:
256,192,62343,12,0,64201,2:0:0:0:
78,264,64334,6,0,B|183:243|151:306|242:316,1,180.659994506836,14|0,3:2|3:2,2:0:0:0:
313,283,64732,1,8,3:2:0:0:
313,283,64865,2,0,P|320:326|303:367,1,90.3299972534183,2|0,2:0|1:2,2:0:0:0:
244,223,65130,2,0,P|236:179|253:138,1,90.3299972534183,2|12,2:0|3:2,2:0:0:0:
409,86,65396,2,0,P|374:114|330:119,1,90.3299972534183,2|0,2:0|1:2,2:0:0:0:
208,12,65661,2,0,P|249:27|276:62,1,90.3299972534183,2|12,2:0|3:2,2:0:0:0:
152,172,65927,5,0,2:0:0:0:
171,97,66060,1,6,3:2:0:0:
82,132,66192,1,2,2:0:0:0:
67,56,66325,1,8,3:2:0:0:
9,176,66458,6,0,P|28:267|113:309,1,180.659994506836,4|0,3:2|3:2,2:0:0:0:
173,272,66856,1,10,1:2:0:0:
173,272,66989,2,0,L|260:291,1,90.3299972534183,2|4,2:0|3:2,2:0:0:0:
370,191,67254,2,0,L|282:210,1,90.3299972534183,2|8,2:0|1:2,2:0:0:0:
192,98,67520,2,0,L|198:192,1,90.3299972534183,2|4,2:0|3:2,2:0:0:0:
288,51,67785,1,8,3:2:0:0:
293,43,67852,1,8,3:2:0:0:
298,35,67918,6,0,L|284:142,1,90.3299972534183,10|8,3:2|3:2,2:0:0:0:
380,78,68184,1,10,3:2:0:0:
439,134,68316,1,8,3:0:0:0:
370,191,68449,1,4,3:0:0:0:
433,275,68582,6,0,P|360:288|312:344,1,150.550005722046,4|0,3:2|3:2,2:0:0:0:
207,214,68980,1,8,3:2:0:0:
207,214,69113,2,0,P|236:236|256:268,1,75.2750028610233,2|8,3:2|3:0,2:0:0:0:
86,301,69378,2,0,P|91:264|108:231,1,75.2750028610233,2|8,3:2|3:2,2:0:0:0:
227,115,69644,2,0,L|314:141,1,75.2750028610233,2|8,3:2|3:0,2:0:0:0:
218,20,69909,2,0,L|131:46,1,75.2750028610233,2|8,3:2|3:2,2:0:0:0:
24,179,70175,5,2,3:2:0:0:
29,96,70307,1,8,3:0:0:0:
83,56,70440,1,0,3:2:0:0:
135,56,70573,1,8,3:2:0:0:
163,78,70706,6,0,B|219:70|219:70|255:97|255:97|303:92,1,150.550005722046,4|0,3:2|3:2,2:0:0:0:
399,45,71104,1,10,3:2:0:0:
399,45,71237,2,0,L|385:118,1,75.2750028610233,2|8,3:2|3:0,2:0:0:0:
447,241,71502,2,0,B|463:214|463:214|454:171,1,75.2750028610233,2|8,3:2|3:2,2:0:0:0:
302,189,71768,2,0,B|285:215|285:215|294:258,1,75.2750028610233,2|8,3:2|3:0,2:0:0:0:
415,326,72033,2,0,P|378:321|342:333,1,75.2750028610233,2|8,3:2|3:2,2:0:0:0:
233,379,72299,5,2,3:2:0:0:
151,366,72431,1,8,3:0:0:0:
104,316,72564,1,0,3:2:0:0:
97,263,72697,1,8,3:2:0:0:
111,227,72830,6,0,B|182:212|182:263|250:271,1,150.550005722046,4|0,3:2|3:2,2:0:0:0:
320,134,73228,1,10,3:2:0:0:
320,134,73361,2,0,P|325:170|313:206,1,75.2750028610233,2|8,3:2|3:0,2:0:0:0:
134,135,73626,2,0,P|128:98|140:62,1,75.2750028610233,2|8,3:2|3:2,2:0:0:0:
319,18,73892,2,0,P|287:37|266:68,1,75.2750028610233,2|8,3:2|3:0,2:0:0:0:
137,52,74157,2,0,P|168:71|189:102,1,75.2750028610233,2|8,3:2|3:2,2:0:0:0:
208,297,74422,5,2,3:2:0:0:
267,239,74555,1,8,3:0:0:0:
334,233,74688,1,2,3:2:0:0:
380,257,74821,1,8,3:2:0:0:
398,289,74953,6,0,B|399:311|399:311|279:353,1,150.550005722046,6|2,3:2|3:2,2:0:0:0:
205,306,75352,1,8,3:2:0:0:
205,306,75484,2,0,L|220:233,1,75.2750028610233,2|8,3:2|3:0,2:0:0:0:
107,197,75750,2,0,L|121:270,1,75.2750028610233,2|8,3:2|3:2,2:0:0:0:
185,152,76015,1,2,3:2:0:0:
185,152,76148,6,0,B|217:136|217:136|255:159,1,80.2933333333335,8|2,3:0|3:2,2:0:0:0:
279,70,76414,6,0,B|321:85|321:85|332:128,1,90.3299972534183,10|2,3:2|3:2,2:0:0:0:
406,73,76679,6,0,B|430:124|430:124|407:162,1,100.366666666667,2|8,3:2|3:0,2:0:0:0:
411,170,76878,1,4,3:0:0:0:
415,179,76945,1,8,3:2:0:0:
367,278,77077,6,0,B|284:240|277:321|199:316,1,180.659994506836,12|2,3:2|3:2,2:0:0:0:
120,293,77476,1,8,1:2:0:0:
120,293,77608,2,0,P|95:255|92:211,1,90.3299972534183,2|0,2:0|3:2,2:0:0:0:
4,128,77874,2,0,P|41:103|85:100,1,90.3299972534183,2|8,3:2|1:2,2:0:0:0:
169,12,78139,2,0,P|193:49|196:93,1,90.3299972534183,2|0,2:0|3:2,2:0:0:0:
285,177,78405,2,0,P|247:201|203:204,1,90.3299972534183,2|8,2:0|1:2,2:0:0:0:
85,100,78670,5,2,2:0:0:0:
101,185,78803,1,0,3:2:0:0:
15,164,78936,1,0,3:2:0:0:
2,247,79069,1,10,1:2:0:0:
92,224,79201,6,0,B|101:210|101:210|270:262,1,180.659994506836,6|0,3:2|3:2,2:0:0:0:
336,312,79599,1,10,1:2:0:0:
335,312,79732,2,0,P|308:347|266:361,1,90.3299972534183,2|0,2:0|3:2,2:0:0:0:
259,181,79998,2,0,P|275:222|267:265,1,90.3299972534183,2|8,2:0|1:2,2:0:0:0:
118,194,80263,2,0,P|151:223|196:229,1,90.3299972534183,2|0,2:0|3:2,2:0:0:0:
113,114,80529,2,0,P|71:128|43:163,1,90.3299972534183,2|8,2:0|1:2,2:0:0:0:
94,357,80794,5,2,2:0:0:0:
131,281,80927,1,0,3:2:0:0:
238,378,81060,1,0,3:2:0:0:
213,300,81192,1,8,1:2:0:0:
334,325,81325,6,0,P|388:242|486:196,1,180.659994506836,4|0,3:2|3:2,2:0:0:0:
364,50,81723,1,10,1:2:0:0:
364,50,81856,2,0,P|403:71|447:79,1,90.3299972534183,2|0,2:0|3:2,2:0:0:0:
277,157,82122,2,0,L|372:150,1,90.3299972534183,2|8,2:0|1:2,2:0:0:0:
234,29,82387,2,0,P|194:50|150:58,1,90.3299972534183,2|0,2:0|3:2,2:0:0:0:
186,205,82653,2,0,L|96:198,1,90.3299972534183,2|8,2:0|1:2,2:0:0:0:
211,358,82918,5,2,2:0:0:0:
306,297,83051,1,0,3:2:0:0:
226,279,83184,1,2,3:2:0:0:
294,375,83316,1,8,1:2:0:0:
399,290,83449,6,0,L|388:75,1,180.659994506836,12|0,3:2|3:2,2:0:0:0:
217,175,83847,2,0,P|252:201|296:207,1,90.5039972534182,12|0,1:2|3:2,2:0:0:0:
228,55,84113,1,14,3:2:0:0:
160,95,84246,1,0,3:2:0:0:
88,222,84378,6,0,P|83:178|61:139,1,90.5039972534182,12|0,3:2|3:2,2:0:0:0:
3,297,84644,1,14,1:2:0:0:
68,339,84776,1,0,3:2:0:0:
183,374,84909,6,0,P|190:329|213:291,1,90.5039972534182,12|0,3:2|3:2,2:0:0:0:
374,257,85175,1,14,3:2:0:0:
434,297,85307,1,8,3:0:0:0:
447,350,85440,1,4,3:0:0:0:
433,384,85573,5,6,3:1:0:0:
475,85,89821,6,0,B|398:57|380:130|308:131,1,180.659994506836,14|2,3:2|3:2,2:0:0:0:
234,24,90219,1,8,3:2:0:0:
311,48,90352,2,0,B|392:40|391:116|460:135,1,180.659994506836,2|0,2:0|3:2,2:0:0:0:
379,250,90750,2,0,P|416:226|461:224,1,90.3299972534183,8|0,3:2|2:0,2:0:0:0:
343,157,91015,1,0,3:2:0:0:
343,157,91148,1,0,3:2:0:0:
300,300,91281,6,0,P|269:267|227:254,1,90.3299972534183,10|0,3:2|2:0,2:0:0:0:
161,192,91546,1,6,3:2:0:0:
253,87,91679,2,0,P|239:129|249:172,1,90.3299972534183,6|8,3:2|3:2,2:0:0:0:
255,178,91878,1,2,3:2:0:0:
261,184,91945,6,0,P|260:272|192:326,1,180.659994506836,6|0,3:2|3:2,2:0:0:0:
122,164,92343,2,0,P|160:185|179:225,1,90.3299972534183,10|0,3:2|2:0,2:0:0:0:
263,50,92608,1,6,3:2:0:0:
263,50,92741,2,0,P|225:71|206:111,1,90.3299972534183,2|8,3:2|3:2,2:0:0:0:
400,152,93007,2,0,P|400:108|375:72,1,90.3299972534183,2|0,2:0|3:2,2:0:0:0:
254,255,93272,5,8,3:0:0:0:
370,234,93405,1,10,3:2:0:0:
300,188,93538,1,8,3:2:0:0:
355,313,93670,1,10,3:2:0:0:
460,235,93803,2,0,L|448:324,1,90.3299972534183,12|12,3:0|3:0,2:0:0:0:
453,331,94002,1,2,3:2:0:0:
458,337,94069,6,0,B|372:304|368:365|287:369,1,180.659994506836,6|0,3:2|3:2,2:0:0:0:
200,202,94467,2,0,B|238:221|238:221|217:263,1,90.3299972534183,14|0,3:2|2:0,2:0:0:0:
195,114,94732,1,6,3:2:0:0:
195,114,94865,2,0,B|149:121|149:121|123:157,2,90.3299972534183,2|8|2,3:2|3:2|2:0,2:0:0:0:
277,142,95263,2,0,B|370:126|370:126|396:207,2,180.320994506836,0|14|6,3:2|3:2|3:2,2:0:0:0:
192,19,95927,2,0,L|281:30,1,90.3299972534183,6|8,3:2|3:2,2:0:0:0:
289,26,96126,1,2,3:2:0:0:
297,21,96192,6,0,B|274:29|274:29|258:183,1,180.659994506836,6|2,3:2|3:2,2:0:0:0:
237,332,96591,2,0,B|252:289|252:289|260:334,1,90.3299972534183,10|0,3:2|2:0,2:0:0:0:
94,246,96856,1,2,3:2:0:0:
94,246,96989,2,0,L|191:228,1,90.3299972534183,2|12,3:2|3:2,2:0:0:0:
419,254,97254,6,0,L|322:236,1,90.3299972534183,2|4,2:0|3:2,2:0:0:0:
146,92,97520,2,0,P|185:111|210:149,1,90.3299972534183,6|12,3:2|3:2,2:0:0:0:
368,99,97785,2,0,P|328:118|303:156,1,90.3299972534183,2|4,2:0|3:2,2:0:0:0:
350,331,98051,1,6,3:2:0:0:
436,306,98184,1,8,3:2:0:0:
440,298,98250,1,2,3:2:0:0:
444,290,98316,6,0,B|375:278|375:278|343:315|343:315|282:309,1,180.659994506836,4|0,3:2|3:2,2:0:0:0:
177,278,98715,2,0,L|189:368,1,90.3299972534183,8|0,1:2|2:0,2:0:0:0:
257,231,98980,1,0,3:2:0:0:
257,231,99113,1,0,3:2:0:0:
96,203,99246,6,0,L|84:293,1,90.3299972534183,8|0,1:2|2:0,2:0:0:0:
173,143,99511,1,0,3:2:0:0:
173,143,99644,1,0,3:2:0:0:
11,124,99776,6,0,P|48:100|92:97,1,90.3299972534183,10|0,1:2|2:0,2:0:0:0:
270,12,100042,2,0,P|271:56|252:96,1,90.3299972534183,2|0,3:2|3:2,2:0:0:0:
237,292,100307,2,0,P|197:271|172:234,1,90.3299972534183,10|0,1:2|3:2,2:0:0:0:
356,178,100573,6,0,P|357:222|338:262,1,90.3299972534183,10|0,3:2|3:2,2:0:0:0:
175,370,100838,1,4,2:0:0:0:
175,370,100971,1,2,3:2:0:0:
374,345,101104,6,0,P|336:368|292:371,1,90.3299972534183,10|4,3:0|3:0,2:0:0:0:
117,283,101369,1,8,3:2:0:0:
117,283,101502,1,0,3:2:0:0:
356,178,101635,6,0,B|373:132|373:132|357:94,1,90.3299972534183,10|4,3:0|3:0,2:0:0:0:
138,169,101900,2,0,B|121:215|121:215|136:252,1,90.3299972534183,10|4,3:0|3:0,2:0:0:0:
241,2,102166,5,10,3:2:0:0:
57,71,102697,6,0,L|50:145,1,75.2750028610233,6|0,3:2|2:0,2:0:0:0:
232,146,102962,2,0,L|238:220,1,75.2750028610233,0|0,3:2|3:2,2:0:0:0:
252,364,103228,1,12,3:2:0:0:
251,364,103493,2,0,P|307:314|380:303,1,150.550005722046,0|4,3:2|3:2,2:0:0:0:
366,99,104024,6,0,B|339:97|339:97|325:219,2,150.267505722046,2|14|2,3:2|3:2|3:2,2:0:0:0:
129,198,104821,2,0,P|144:231|149:268,1,75.2750028610233,6|0,3:2|2:0,2:0:0:0:
318,230,105086,2,0,P|293:258|279:293,1,75.2750028610233,2|0,3:2|2:0,2:0:0:0:
255,50,105352,2,0,L|229:205,1,150.550005722046,14|2,3:2|3:2,2:0:0:0:
68,77,105883,6,0,P|104:14|175:7,1,150.550005722046,6|0,3:2|3:2,2:0:0:0:
221,202,106414,2,0,P|158:165|151:94,1,150.550005722046,14|0,3:2|3:2,2:0:0:0:
422,101,106945,6,0,B|429:133|429:133|409:170,1,75.2750028610233,6|0,3:2|2:0,2:0:0:0:
267,94,107210,2,0,B|259:61|259:61|279:24,1,75.2750028610233,0|0,3:2|3:2,2:0:0:0:
452,0,107476,1,12,3:2:0:0:
452,0,107741,2,0,P|427:70|423:145,1,150.550005722046,0|4,3:2|3:2,2:0:0:0:
342,309,108272,6,0,B|399:301|399:301|429:331|429:331|478:328,2,150.267505722046,2|14|2,3:2|3:2|3:2,2:0:0:0:
193,350,109069,2,0,L|222:267,1,75.2750028610233,6|0,3:2|2:0,2:0:0:0:
115,222,109334,2,0,L|194:183,1,75.2750028610233,2|0,3:2|2:0,2:0:0:0:
150,76,109599,2,0,L|296:127,1,150.550005722046,14|2,3:2|3:2,2:0:0:0:
476,147,110130,6,0,P|404:137|357:191,1,150.550005722046,6|0,3:2|3:2,2:0:0:0:
358,278,110529,1,2,3:2:0:0:
357,278,110661,2,0,P|322:288|284:288,1,75.2750028610233,12|0,3:2|2:0,2:0:0:0:
361,381,110927,2,0,P|396:370|434:370,1,75.2750028610233,2|0,3:2|2:0,2:0:0:0:
445,246,111192,6,0,L|411:180,1,75.2750028610233,4|0,3:2|2:0,2:0:0:0:
258,150,111458,2,0,L|224:216,1,75.2750028610233,0|0,3:2|3:2,2:0:0:0:
149,348,111723,1,12,3:2:0:0:
149,348,111989,2,0,P|86:281|28:265,1,150.550005722046,0|4,3:2|3:2,2:0:0:0:
154,160,112520,6,0,B|107:165|107:165|70:143|70:143|11:152,2,150.267505722046,2|14|2,3:2|3:2|3:2,2:0:0:0:
286,49,113316,2,0,L|262:130,1,75.2750028610233,6|0,3:2|2:0,2:0:0:0:
384,191,113582,2,0,L|362:119,1,75.2750028610233,2|0,3:2|2:0,2:0:0:0:
510,94,113847,2,0,L|463:246,1,150.550005722046,14|2,3:2|3:2,2:0:0:0:
388,371,114378,6,0,P|357:304|289:278,1,150.550005722046,6|0,3:2|3:2,2:0:0:0:
216,328,114776,1,2,3:2:0:0:
216,328,114909,2,0,P|179:327|143:335,1,75.2750028610233,12|0,3:2|2:0,2:0:0:0:
232,187,115175,2,0,P|249:220|274:248,1,75.2750028610233,2|0,3:2|3:2,2:0:0:0:
101,245,115440,6,0,P|121:213|132:177,1,75.2750028610233,6|0,3:2|2:0,2:0:0:0:
64,25,115706,2,0,P|81:58|106:86,1,75.2750028610233,0|0,3:2|3:2,2:0:0:0:
272,102,115971,1,12,3:2:0:0:
272,102,116237,2,0,P|339:72|406:101,1,150.550005722046,2|4,3:2|3:2,2:0:0:0:
466,219,116768,6,0,B|486:295|486:295|435:344,2,150.267505722046,2|14|2,3:2|3:2|3:2,2:0:0:0:
311,285,117564,2,0,P|346:273|384:272,1,75.2750028610233,6|0,3:2|2:0,2:0:0:0:
272,102,117830,2,0,P|307:113|345:114,1,75.2750028610233,2|0,3:2|2:0,2:0:0:0:
275,200,118095,2,0,P|200:190|125:191,1,150.550005722046,14|2,3:2|3:2,2:0:0:0:
125,191,118626,5,14,3:2:0:0:
125,191,118892,2,0,L|118:227,3,37.5904180971782,8|4|8|4,3:0|3:0|3:0|3:0,2:0:0:0:
144,177,119157,1,8,3:0:0:0:
77,119,119290,1,4,3:0:0:0:
14,188,119422,1,8,3:0:0:0:
14,188,119555,1,4,3:0:0:0:
63,364,119688,6,0,L|136:349,1,75.2750028610233,6|0,3:2|2:0,2:0:0:0:
334,288,119953,2,0,L|260:273,1,75.2750028610233,0|0,3:2|3:2,2:0:0:0:
137,253,120219,1,12,3:2:0:0:
137,253,120484,2,0,L|158:82,1,150.550005722046,0|4,3:2|3:2,2:0:0:0:
376,142,121015,6,0,B|306:122|292:177|238:188,2,150.267505722046,2|14|2,3:2|3:2|3:2,2:0:0:0:
480,244,121812,2,0,P|461:276|453:313,1,75.2750028610233,6|0,3:2|2:0,2:0:0:0:
329,364,122077,2,0,P|311:331|284:306,1,75.2750028610233,2|0,3:2|2:0,2:0:0:0:
373,251,122343,2,0,L|391:85,1,150.550005722046,14|2,3:2|3:2,2:0:0:0:
309,33,122874,6,0,B|255:25|255:25|215:59|215:59|172:54,1,150.550005722046,6|0,3:2|3:2,2:0:0:0:
83,100,123272,1,0,3:2:0:0:
83,100,123405,2,0,B|108:108|108:108|114:231,1,150.550005722046,14|0,3:2|3:2,2:0:0:0:
74,334,123803,1,0,3:2:0:0:
74,333,123936,6,0,P|106:314|143:316,1,75.2750028610233,6|0,3:2|2:0,2:0:0:0:
281,384,124201,2,0,P|249:365|232:332,1,75.2750028610233,0|0,3:2|3:2,2:0:0:0:
277,166,124467,1,12,3:2:0:0:
277,166,124732,2,0,L|437:141,1,150.550005722046,0|4,3:2|3:2,2:0:0:0:
455,57,125263,6,0,L|305:45,2,150.267505722046,2|14|2,3:2|3:2|3:2,2:0:0:0:
374,238,126060,2,0,P|378:200|371:164,1,75.2750028610233,6|0,3:2|2:0,2:0:0:0:
186,164,126325,2,0,P|181:201|188:237,1,75.2750028610233,2|0,3:2|2:0,2:0:0:0:
282,194,126591,2,0,P|286:119|285:44,1,150.550005722046,14|2,3:2|3:2,2:0:0:0:
43,199,127122,6,0,P|105:240|170:277,1,150.550005722046,6|8,3:2|3:2,2:0:0:0:
171,278,127653,1,12,3:2:0:0:
35,381,127918,1,2,3:2:0:0:
35,381,128051,1,0,3:2:0:0:
34,381,128184,6,0,P|56:350|66:314,1,75.2750028610233,4|0,3:2|2:0,2:0:0:0:
295,351,128449,2,0,P|273:320|263:284,1,75.2750028610233,0|0,3:2|3:2,2:0:0:0:
155,171,128715,1,12,3:2:0:0:
155,171,128980,2,0,L|166:351,1,150.550005722046,0|4,3:2|3:2,2:0:0:0:
379,223,129511,6,0,B|318:173|318:173|251:200,2,150.267505722046,2|14|2,3:2|3:2|3:2,2:0:0:0:
461,39,130307,2,0,B|395:25|382:77|322:84,1,150.550005722046,6|0,3:2|3:2,2:0:0:0:
224,28,130706,1,2,3:2:0:0:
224,28,130838,2,0,P|218:65|225:101,1,75.2750028610233,12|0,3:2|2:0,2:0:0:0:
132,208,131104,2,0,P|137:170|130:134,1,75.2750028610233,2|0,3:2|2:0,2:0:0:0:
11,242,131369,6,0,P|36:312|134:346,1,150.550005722046,6|0,3:2|3:2,2:0:0:0:
254,271,131768,1,2,3:2:0:0:
254,271,131900,2,0,L|166:290,1,75.2750028610233,12|0,3:2|2:0,2:0:0:0:
295,350,132166,2,0,L|383:369,1,75.2750028610233,2|0,3:2|2:0,2:0:0:0:
422,203,132431,6,0,P|397:230|384:265,1,75.2750028610233,6|0,3:2|2:0,2:0:0:0:
227,112,132697,2,0,P|251:139|264:174,1,75.2750028610233,0|0,3:2|3:2,2:0:0:0:
397,81,132962,1,8,1:2:0:0:
397,81,133228,2,0,P|339:33|266:20,1,150.550005722046,0|6,3:2|3:2,2:0:0:0:
78,156,133759,5,2,3:2:0:0:
210,257,134024,1,14,3:2:0:0:
69,172,134290,1,2,3:2:0:0:
227,112,134555,5,10,3:2:0:0:
357,169,136679,6,0,P|187:156|110:307,1,360.275989013672,6|0,3:2|3:2,2:0:0:0:
49,149,137760,5,8,3:2:0:0:
126,52,138030,2,0,P|155:46|185:47,1,60.1199981689452,0|8,3:2|3:2,2:0:0:0:
253,86,138300,1,0,3:2:0:0:
373,49,138570,2,0,P|352:46|332:45,3,30.0599990844727,0|0|0|0,3:2|3:2|3:2|3:2,2:0:0:0:
403,35,138841,5,8,3:2:0:0:
403,35,139111,1,0,3:2:0:0:
468,121,139381,1,0,3:2:0:0:
468,121,139651,1,0,3:2:0:0:
394,192,139922,5,8,3:2:0:0:
452,314,140192,2,0,P|459:342|463:372,1,60.1199981689452,0|8,3:2|3:2,2:0:0:0:
374,351,140462,1,0,3:2:0:0:
285,304,140733,2,0,P|288:289|296:276,3,30.0599990844727,0|0|0|0,3:2|3:2|3:2|3:2,2:0:0:0:
261,318,141003,6,0,P|91:330|14:179,1,360.275989013672,14|0,3:2|3:2,2:0:0:0:
70,86,142084,5,8,3:2:0:0:
195,26,142354,2,0,P|222:13|252:10,1,60.1199981689452,0|8,3:2|3:2,2:0:0:0:
310,59,142624,1,0,3:2:0:0:
455,34,142895,2,0,L|465:-9,3,30.0599990844727,0|0|0|0,3:2|3:2|3:2|3:2,2:0:0:0:
439,49,143165,6,0,B|294:90|294:90|253:266|253:266|109:303,1,480.071985351561,12|10,3:2|3:2,2:0:0:0:
23,252,144516,5,0,3:2:0:0:
14,223,144651,1,10,3:2:0:0:
28,183,144787,1,8,3:2:0:0:
75,156,144922,1,8,3:0:0:0:
94,92,145057,1,4,3:0:0:0:
37,38,145192,1,4,3:0:0:0:
27,50,145327,1,12,3:2:0:0:
256,0,146949,5,10,3:2:0:0:
256,0,147219,2,0,L|253:30,4,30.0599990844727,0|0|0|0|8,3:2|3:2|3:2|3:2|3:2,2:0:0:0:
256,0,149381,6,0,L|253:30,4,30.0599990844727,0|0|0|0|8,3:2|3:2|3:2|3:2|3:2,2:0:0:0:
256,0,151543,6,0,L|253:30,4,30.0599990844727,0|0|0|0|8,3:2|3:2|3:2|3:2|3:2,2:0:0:0:
256,0,152895,5,10,3:2:0:0:
256,0,153165,2,0,P|246:28|243:58,1,60.1199981689452,8|8,3:2|3:2,2:0:0:0:
391,207,153435,2,0,P|371:184|347:166,1,60.1199981689452,10|8,3:2|3:2,2:0:0:0:
146,220,153706,2,0,P|175:214|202:202,1,60.1199981689452,8|8,3:2|3:2,2:0:0:0:
264,142,153976,5,12,3:2:0:0:
264,142,154246,1,8,3:2:0:0:
332,197,154516,6,0,P|314:238|306:282,1,90.1799972534179,10|8,3:2|3:2,2:0:0:0:
198,257,155057,2,0,P|215:298|223:342,1,90.1799972534179,10|8,3:2|3:2,2:0:0:0:
41,316,155597,2,0,B|139:280|121:352|211:358,1,180.026994506836,10|8,3:2|3:2,2:0:0:0:
206,357,156408,5,8,3:2:0:0:
217,173,156678,6,0,P|193:210|192:255,1,90.1799972534179,10|8,3:2|3:2,2:0:0:0:
237,81,157219,2,0,P|215:41|177:18,1,90.1799972534179,10|8,3:2|3:2,2:0:0:0:
306,144,157760,2,0,P|350:145|389:123,1,90.1799972534179,10|8,3:2|3:2,2:0:0:0:
485,98,158300,6,0,L|476:162,1,50.0999999999998,10|0,3:2|3:2,2:0:0:0:
406,73,158570,2,0,L|395:147,1,55.1100016784666,8|0,3:2|3:2,2:0:0:0:
327,48,158841,2,0,L|316:122,1,60.1199981689452,8|0,3:2|3:2,2:0:0:0:
248,23,159111,2,0,L|237:97,1,65.1299970245361,8|0,3:2|3:2,2:0:0:0:
278,298,159381,6,0,L|267:223,1,70.1399978637694,8|0,3:2|3:2,2:0:0:0:
199,323,159651,2,0,L|188:248,1,75.1500028610229,8|0,3:2|3:2,2:0:0:0:
120,348,159922,2,0,L|108:264,1,80.1599999999998,8|0,3:2|3:2,2:0:0:0:
41,373,160192,1,8,3:2:0:0:
37,351,160260,1,0,3:2:0:0:
34,330,160327,1,0,3:2:0:0:
31,309,160395,1,0,3:2:0:0:
28,288,160462,5,8,3:2:0:0:
387,79,161543,1,2,2:0:0:0:
316,39,161682,1,2,2:0:0:0:
244,87,161822,2,0,P|257:129|259:174,1,90.2599972534179,2|0,2:0|2:0,2:0:0:0:
258,186,162101,5,2,2:0:0:0:
171,257,162240,1,2,2:0:0:0:
177,178,162380,1,2,2:0:0:0:
254,266,162519,1,2,2:0:0:0:
343,234,162624,6,0,P|275:229|209:357,1,225.375008583069,14|0,3:2|3:2,2:0:0:0:
123,310,163174,1,6,2:0:0:0:
123,310,163312,1,0,2:0:0:0:
52,358,163449,1,2,3:2:0:0:
52,358,163587,1,0,3:2:0:0:
14,277,163724,5,14,3:2:0:0:
14,277,164137,1,2,2:0:0:0:
14,277,164550,1,2,2:0:0:0:
104,133,165101,5,2,3:2:0:0:
104,133,165238,1,0,2:0:0:0:
160,63,165376,1,6,2:0:0:0:
160,63,165513,1,0,2:0:0:0:
214,141,165651,1,2,3:2:0:0:
214,141,165789,1,0,3:2:0:0:
274,75,165926,5,14,3:2:0:0:
274,75,166201,1,0,3:2:0:0:
354,44,166339,2,0,P|369:87|367:129,1,75.1250028610231,2|12,3:2|3:2,2:0:0:0:
369,116,166752,1,10,3:2:0:0:
312,228,166890,1,8,3:2:0:0:
377,301,167027,5,6,3:2:0:0:
377,301,167302,1,2,2:0:0:0:
377,301,167440,1,0,3:2:0:0:
315,367,167578,1,6,3:2:0:0:
315,367,167715,1,0,2:0:0:0:
257,305,167853,1,2,3:2:0:0:
257,305,167990,1,0,2:0:0:0:
173,346,168128,5,14,3:2:0:0:
173,346,168541,1,2,2:0:0:0:
173,346,168954,1,2,2:0:0:0:
116,283,169229,5,4,3:2:0:0:
116,283,169504,2,0,P|115:264|118:245,4,37.5625014305115,8|8|4|4|12,3:0|3:0|3:0|3:0|3:0,2:0:0:0:
75,166,170055,1,0,3:2:0:0:
135,60,170330,2,0,P|197:82|247:163,1,150.250005722046,10|0,3:1|3:2,2:0:0:0:
243,149,170880,6,2,B|329:169|329:169|349:256|349:256|431:277,1,262.665010013581,10|0,3:2|2:0,2:1:0:0:
443,269,171431,6,0,P|445:209|501:138,1,150.250005722046,6|2,3:2|2:0,2:0:0:0:
324,136,171844,1,0,3:2:0:0:
324,136,171981,2,0,P|348:164|360:199,1,75.1250028610231,4|0,2:0|2:0,2:0:0:0:
452,60,172257,2,0,P|415:66|378:59,1,75.1250028610231,2|0,3:2|3:2,2:0:0:0:
268,6,172532,5,4,3:1:0:0:
268,6,172807,1,8,3:2:0:0:
203,83,172945,1,2,2:0:0:0:
203,83,173357,1,2,3:2:0:0:
226,174,173633,5,4,3:2:0:0:
226,174,173908,2,0,P|207:206|196:242,1,75.1250028610231,2|0,2:0|3:2,2:0:0:0:
267,384,174183,2,0,P|247:351|222:324,1,75.1250028610231,6|0,3:2|2:0,2:0:0:0:
64,314,174458,2,0,P|101:313|138:305,1,75.1250028610231,2|0,3:2|3:2,2:0:0:0:
289,247,174734,5,6,3:2:0:0:
289,247,175009,1,8,3:2:0:0:
391,213,175146,1,2,2:0:0:0:
325,173,175284,1,12,3:2:0:0:
325,173,175559,1,2,3:2:0:0:
282,98,175835,6,0,B|206:65|200:130|146:136,1,150.250005722046,6|2,3:2|2:0,2:0:0:0:
185,24,176247,1,0,3:2:0:0:
67,4,176385,2,0,P|81:38|108:64,1,75.1250028610231,6|0,3:2|2:0,2:0:0:0:
25,197,176660,2,0,P|39:162|66:136,1,75.1250028610231,2|0,3:2|2:0,2:0:0:0:
157,244,176935,5,6,3:2:0:0:
157,244,177211,1,8,3:2:0:0:
251,193,177348,1,2,2:0:0:0:
251,193,177761,1,2,2:0:0:0:
316,258,178036,5,4,3:2:0:0:
316,258,178312,2,0,P|310:275|307:294,4,37.5625014305115,8|8|4|4|4,3:0|3:0|3:0|3:0|3:2,2:0:0:0:
436,289,178862,1,0,3:2:0:0:
450,169,179137,6,0,P|455:151|464:134,3,37.6533347638448,10|0|0|0,3:2|3:2|3:2|3:2,2:0:0:0:
380,128,179412,2,0,P|374:110|365:93,3,37.6533347638448,10|0|0|0,3:2|3:2|3:2|3:2,2:0:0:0:
283,70,179688,5,14,3:2:0:0:
282,74,179757,1,2,3:3:0:0:
282,79,179825,1,2,3:2:0:0:
282,83,179894,1,2,3:3:0:0:
281,88,179963,1,10,3:2:0:0:
280,93,180032,1,2,3:3:0:0:
280,97,180101,1,2,3:2:0:0:
279,102,180169,1,2,3:3:0:0:
278,107,180238,6,0,P|193:129|152:206,1,180.359994506836,14|10,3:2|3:2,2:0:0:0:
248,349,180643,2,0,P|234:306|199:279,1,90.1799972534179,2|0,3:2|2:0,2:0:0:0:
27,295,180913,1,2,3:2:0:0:
27,295,181048,2,0,P|70:304|111:288,1,90.1799972534179,10|2,3:2|2:0,2:0:0:0:
56,111,181319,6,0,B|50:141|50:141|52:162|52:162|48:185,1,75.1500028610229,2|0,3:2|3:2,2:0:0:0:
291,258,181589,2,0,B|297:228|297:228|295:207|295:207|298:183,1,75.1500028610229,10|2,3:2|3:2,2:0:0:0:
137,113,181859,2,0,B|131:143|131:143|133:164|133:164|129:187,1,75.1500028610229,2|0,2:0|3:2,2:0:0:0:
210,256,182129,2,0,B|216:226|216:226|214:205|214:205|217:181,1,75.1500028610229,8|0,3:2|2:0,2:0:0:0:
249,44,182400,5,6,3:2:0:0:
249,44,182535,1,2,3:2:0:0:
328,90,182670,1,10,3:2:0:0:
328,90,182805,1,2,3:2:0:0:
424,58,182940,2,0,P|413:98|413:149,1,90.1799972534179,2|0,2:0|3:2,2:0:0:0:
319,265,183210,2,0,P|330:225|330:174,1,90.1799972534179,10|0,3:2|2:0,2:0:0:0:
145,194,183481,6,0,B|148:230|148:230|147:234|147:234|149:268,1,75.1500028610229,2|0,3:2|3:2,2:0:0:0:
20,354,183751,2,0,B|49:332|49:332|53:331|53:331|82:312,1,75.1500028610229,10|0,3:2|3:2,2:0:0:0:
222,383,184021,2,0,B|188:367|188:367|186:364|186:364|155:349,1,75.1500028610229,2|0,2:0|3:2,2:0:0:0:
145,194,184292,2,0,B|148:230|148:230|147:234|147:234|149:268,1,75.1500028610229,8|0,3:2|2:0,2:0:0:0:
42,203,184562,6,0,P|53:109|128:62,1,180.359994506836,6|10,3:2|3:2,2:0:0:0:
259,124,184967,1,0,3:2:0:0:
259,124,185102,2,0,P|242:82|206:56,1,90.1799972534179,2|2,2:0|3:2,2:0:0:0:
160,140,185373,1,10,3:2:0:0:
160,140,185508,1,2,2:0:0:0:
182,225,185643,6,0,B|234:209|234:209|254:212,1,75.1500028610229,2|0,3:2|3:2,2:0:0:0:
419,195,185913,2,0,B|367:179|367:179|346:182,1,75.1500028610229,10|0,3:2|3:2,2:0:0:0:
185,303,186183,2,0,B|237:287|237:287|257:290,1,75.1500028610229,2|0,2:0|3:2,2:0:0:0:
416,273,186454,2,0,B|364:257|364:257|343:260,1,75.1500028610229,8|0,3:2|2:0,2:0:0:0:
272,377,186724,5,6,3:2:0:0:
342,343,186859,1,0,3:2:0:0:
257,290,186994,1,10,3:2:0:0:
257,290,187129,2,0,B|169:267|179:339|93:344,1,180.359994506836,2|2,3:2|3:2,2:0:0:0:
165,119,187535,2,0,L|182:207,1,90.1799972534179,10|2,3:2|2:0,2:0:0:0:
315,176,187805,6,0,B|312:157|312:157|256:155,1,75.1500028610229,2|0,3:2|3:2,2:0:0:0:
328,261,188075,2,0,B|309:256|309:256|289:309,1,75.1500028610229,10|0,3:2|3:2,2:0:0:0:
414,274,188346,2,0,B|403:289|403:289|447:324,1,75.1500028610229,2|2,2:0|3:2,2:0:0:0:
452,196,188616,2,0,B|463:209|463:209|510:178,1,75.1500028610229,10|2,3:2|3:2,2:0:0:0:
499,82,188886,5,14,3:2:0:0:
499,82,189021,2,0,P|470:47|427:36,1,90.1799972534179,2|0,3:2|3:2,2:0:0:0:
333,104,189292,2,0,B|264:96|264:96|230:133|230:133|170:129,1,180.359994506836,10|0,3:2|3:2,2:0:0:0:
101,60,189697,1,14,3:2:0:0:
101,60,189832,1,2,3:2:0:0:
33,137,189967,6,0,P|93:186|71:281,1,180.359994506836,14|2,3:2|3:2,2:0:0:0:
181,269,190373,1,8,3:2:0:0:
274,211,190508,2,0,P|285:297|358:344,1,180.359994506836,2|12,3:2|3:2,2:0:0:0:
433,299,190913,1,0,3:2:0:0:
433,299,191048,6,0,P|427:254|440:212,1,90.1799972534179,14|0,3:2|3:2,2:0:0:0:
263,295,191319,2,0,P|268:339|255:381,1,90.1799972534179,2|8,3:2|3:2,2:0:0:0:
153,235,191589,2,0,P|191:212|235:203,1,90.1799972534179,2|0,3:2|3:2,2:0:0:0:
445,127,191859,2,0,P|406:104|362:95,1,90.1799972534179,14|0,3:2|3:2,2:0:0:0:
151,49,192129,6,0,B|127:55|127:55|139:227,1,180.359994506836,14|2,3:2|3:2,2:0:0:0:
45,308,192535,1,8,3:2:0:0:
45,308,192670,2,0,B|135:279|118:362|200:374,1,180.359994506836,2|8,3:2|3:2,2:0:0:0:
278,342,193075,1,0,3:2:0:0:
278,342,193210,6,0,P|311:313|355:306,1,90.1799972534179,6|8,3:2|3:2,2:0:0:0:
199,266,193481,2,0,P|165:236|121:229,1,90.1799972534179,2|0,1:2|3:2,2:0:0:0:
322,224,193751,2,0,P|365:215|407:230,1,90.1799972534179,14|0,3:2|3:2,2:0:0:0:
155,147,194021,2,0,P|111:138|69:153,1,90.1799972534179,2|8,1:2|3:2,2:0:0:0:
262,45,194292,5,6,3:2:0:0:
262,45,194427,1,8,3:2:0:0:
300,243,194562,2,0,P|265:214|251:172,1,90.1799972534179,2|0,3:2|3:2,2:0:0:0:
426,164,194832,2,0,P|384:179|340:170,1,90.1799972534179,14|0,3:2|3:2,2:0:0:0:
424,15,195102,2,0,P|416:58|387:92,1,90.1799972534179,14|12,3:2|3:2,2:0:0:0:
246,55,195373,6,0,B|165:35|153:102|80:110,1,180.359994506836,6|0,3:2|3:2,2:0:0:0:
9,72,195778,1,8,3:2:0:0:
73,18,195913,2,0,B|156:19|150:87|218:114,1,180.359994506836,6|0,3:2|3:2,2:0:0:0:
310,106,196319,1,8,3:2:0:0:
375,274,196454,5,2,3:2:0:0:
373,252,196521,1,0,3:2:0:0:
371,230,196589,1,0,3:2:0:0:
370,207,196656,1,0,3:2:0:0:
368,185,196724,2,0,P|387:175|402:158,3,45.0899986267089,0|0|0|0,3:2|3:2|3:2|3:2,2:0:0:0:
286,159,196994,2,0,P|282:137|270:118,3,45.0899986267089,10|8|8|8,3:3|3:0|3:0|3:0,2:0:0:0:
235,229,197265,2,0,P|212:226|191:231,3,45.0899986267089,4|4|4|4,3:0|3:0|3:0|3:0,2:0:0:0:
285,299,197535,5,14,3:2:0:0:
288,288,197800,1,0,1:2:0:0:
291,277,198065,1,4,3:2:0:0:
294,266,198331,1,4,3:2:0:0:
297,255,198596,1,8,3:2:0:0:
390,133,200720,5,14,3:2:0:0:
387,144,201782,5,4,3:2:0:0:
384,155,202048,1,0,3:2:0:0:
381,166,202313,1,4,3:2:0:0:
378,177,202579,1,0,3:2:0:0:
375,188,202844,1,14,3:2:0:0:
318,28,205322,5,0,3:2:0:0:
318,28,205411,1,0,3:2:0:0:
318,28,205499,2,0,P|263:47|232:98,1,120.219996337891,8|0,3:2|3:2,2:0:0:0:
162,183,206030,5,4,3:2:0:0:
165,194,206296,1,0,3:2:0:0:
168,205,206561,1,4,3:2:0:0:
171,216,206827,1,0,3:2:0:0:
174,227,207092,1,8,1:2:0:0:
450,227,209216,5,8,3:2:0:0:
447,238,210278,5,4,3:2:0:0:
444,249,210543,1,0,3:2:0:0:
441,260,210809,1,4,3:2:0:0:
438,271,211074,1,0,3:2:0:0:
435,282,211340,1,8,1:2:0:0:
316,67,213729,6,0,L|319:20,4,30.1099990844727,8|4|10|8|8,3:0|3:0|3:2|3:2|3:2,2:0:0:0:
400,152,214260,1,2,3:2:0:0:
400,152,214526,6,0,P|362:154|330:172,1,75.2750028610233,6|0,3:2|2:0,2:0:0:0:
214,172,214791,2,0,P|238:200|248:235,1,75.2750028610233,0|0,3:2|3:2,2:0:0:0:
218,334,215057,1,4,3:2:0:0:
218,334,215322,2,0,B|142:313|145:367|78:373,1,150.550005722046,0|12,3:2|3:2,2:0:0:0:
6,211,215853,6,0,B|-13:237|-13:237|0:353,2,150.267505722046,2|6|2,3:2|3:2|3:2,2:0:0:0:
159,72,216650,2,0,B|131:92|131:92|92:84,1,75.2750028610233,6|0,3:2|2:0,2:0:0:0:
87,236,216915,2,0,B|126:228|126:228|155:248,1,75.2750028610233,2|0,3:2|2:0,2:0:0:0:
323,280,217181,2,0,P|250:289|210:349,1,150.550005722046,6|2,3:2|3:2,2:0:0:0:
425,136,217711,6,0,B|369:146|369:146|343:183|343:183|295:194,1,150.550005722046,14|0,3:2|3:2,2:0:0:0:
289,118,218242,2,0,B|342:133|342:133|365:172|365:172|412:187,1,150.550005722046,6|8,3:2|3:2,2:0:0:0:
509,102,218641,1,8,3:2:0:0:
405,40,218773,6,0,B|336:59|336:59|329:66|329:66|262:85,3,150.17333905538,6|4|4|0,3:2|3:2|3:2|3:2,2:0:0:0:
168,34,219835,1,12,3:2:0:0:
168,34,220101,6,0,P|106:74|80:143,2,150.267505722046,2|6|2,3:2|3:2|3:2,2:0:0:0:
254,94,220765,1,4,3:0:0:0:
254,94,220897,2,0,P|265:130|269:168,1,75.2750028610233,6|0,3:2|2:0,2:0:0:0:
431,133,221163,2,0,P|420:168|416:206,1,75.2750028610233,2|0,3:2|3:2,2:0:0:0:
383,366,221428,2,0,P|321:323|249:302,1,150.550005722046,6|2,3:2|3:2,2:0:0:0:
13,264,221959,6,0,P|74:221|146:200,1,150.550005722046,6|8,3:2|3:2,2:0:0:0:
229,211,222358,1,10,3:2:0:0:
229,211,222490,1,8,3:0:0:0:
146,83,222756,1,2,3:2:0:0:
146,83,222888,1,4,3:0:0:0:
146,83,223021,6,0,B|215:102|215:102|222:109|222:109|288:128,3,150.17333905538,6|4|4|0,3:2|3:2|3:2|3:2,2:0:0:0:
420,79,224083,1,12,3:2:0:0:
420,79,224349,6,0,B|445:75|445:75|451:199,2,150.267505722046,2|6|2,3:2|3:2|3:2,2:0:0:0:
319,33,225145,2,0,L|337:121,1,75.2750028610233,6|0,3:2|2:0,2:0:0:0:
234,69,225411,2,0,L|252:157,1,75.2750028610233,2|0,3:2|2:0,2:0:0:0:
125,22,225676,2,0,L|89:198,1,150.550005722046,6|2,3:2|3:2,2:0:0:0:
64,336,226207,5,14,3:2:0:0:
461,220,226738,1,6,3:2:0:0:
145,29,227269,2,0,P|150:243|341:339,1,450.520017166138,6|0,3:2|3:2,2:0:0:0:
498,300,228331,1,8,1:2:0:0:
408,87,228596,5,2,3:2:0:0:
318,97,228862,1,6,3:2:0:0:
274,158,229127,1,2,3:2:0:0:
269,217,229393,5,10,3:2:0:0:
371,119,231517,6,0,L|368:157,3,37.5433347638449,14|0|0|0,3:2|3:2|3:2|3:2,2:0:0:0:
291,90,231782,2,0,L|288:128,3,37.5433347638449,8|0|0|0,3:2|3:2|3:2|3:2,2:0:0:0:
214,176,232048,2,0,L|217:213,3,37.5433347638449,8|0|0|0,3:2|3:2|3:2|3:2,2:0:0:0:
132,193,232313,1,8,3:2:0:0:
98,209,232380,1,0,3:2:0:0:
74,238,232446,1,0,3:2:0:0:
66,274,232512,1,0,3:2:0:0:
73,310,232579,5,12,1:2:0:0:
