osu file format v14

[General]
AudioFilename: audio.mp3
AudioLeadIn: 0
PreviewTime: -1
Countdown: 0
SampleSet: Soft
StackLeniency: 0.7
Mode: 2
LetterboxInBreaks: 0
WidescreenStoryboard: 0

[Editor]
Bookmarks: 23362,99822
DistanceSpacing: 1
BeatDivisor: 4
GridSize: 8
TimelineZoom: 2.2

[Metadata]
Title:King For A Day (feat Kellin Quinn)
TitleUnicode:King For A Day (feat Kellin Quinn)
Artist:Pierce The Veil
ArtistUnicode:Pierce The Veil
Creator:Spectator
Version:Platter
Source:
Tags:collide the sky metal punk sleeping with sirens
BeatmapID:1332034
BeatmapSetID:629069

[Difficulty]
HPDrainRate:5
CircleSize:3.8
OverallDifficulty:8.2
ApproachRate:8.2
SliderMultiplier:1.6
SliderTickRate:1

[Events]
//Background and Video events
0,0,"BG.png",0,0
//Break Periods
//Storyboard Layer 0 (Background)
//Storyboard Layer 1 (Fail)
//Storyboard Layer 2 (Pass)
//Storyboard Layer 3 (Foreground)
//Storyboard Sound Samples

[TimingPoints]
9557,265.486725663717,4,2,1,80,1,0
41415,-200,4,2,1,80,0,0
43539,-133.333333333333,4,1,1,80,0,0
62521,-133.333333333333,4,1,1,30,0,0
62654,-133.333333333333,4,1,1,32,0,0
62787,-133.333333333333,4,1,1,34,0,0
62919,-133.333333333333,4,1,1,36,0,0
63052,-133.333333333333,4,1,1,38,0,0
63185,-133.333333333333,4,1,1,40,0,0
63318,-133.333333333333,4,1,1,42,0,0
63451,-133.333333333333,4,1,1,44,0,0
63583,-133.333333333333,4,1,1,46,0,0
63716,-133.333333333333,4,1,1,48,0,0
63849,-133.333333333333,4,1,1,50,0,0
63981,-133.333333333333,4,1,1,52,0,0
64114,-133.333333333333,4,1,1,54,0,0
64247,-133.333333333333,4,1,1,56,0,0
64380,-133.333333333333,4,1,1,58,0,0
64512,-133.333333333333,4,1,1,60,0,0
64645,-100,4,2,1,80,0,0
68893,-125,4,2,1,70,0,0
77388,-100,4,2,1,80,0,0
90132,-100,4,2,1,80,0,1
90198,-100,4,2,1,80,0,0
103008,-133.333333333333,4,2,1,80,0,1
119733,-133.333333333333,4,2,1,60,0,1
119999,-133.333333333333,4,2,1,80,0,1
134866,-125,4,2,1,80,0,0
136990,-125,4,2,1,70,0,0
137189,-111.111111111111,4,2,1,70,0,1
137521,-111.111111111111,4,2,1,50,0,1
137787,-111.111111111111,4,2,1,70,0,1
138052,-111.111111111111,4,2,1,80,0,0

[Colours]
Combo1 : 132,142,166
Combo2 : 164,148,117
Combo3 : 124,171,139
Combo4 : 119,147,162

[HitObjects]
155,309,9291,5,0,1:0:0:0:
380,340,9424,2,0,P|431:287|408:200,1,160,0|0,0:0|0:0,0:0:0:0:
325,165,9822,1,8,0:0:0:0:
129,333,9955,2,0,L|117:247,1,80,0|0,0:0|1:0,0:0:0:0:
207,203,10220,2,0,L|224:113,1,80,0|8,0:0|0:0,0:0:0:0:
29,158,10486,5,0,0:0:0:0:
225,164,10751,2,0,L|207:61,1,80,0|8,0:0|0:0,0:0:0:0:
308,44,11017,2,0,L|397:69,1,80,0|0,0:0|1:0,0:0:0:0:
273,304,11282,2,0,L|184:329,1,80,0|8,0:0|0:0,0:0:0:0:
432,303,11548,6,0,P|472:227|398:187,1,160,4|0,0:0|0:0,0:0:0:0:
303,128,11946,2,0,L|408:112,1,80,8|0,0:0|0:0,0:0:0:0:
304,338,12211,2,0,L|284:242,1,80,0|0,1:0|0:0,0:0:0:0:
391,219,12477,2,0,L|411:123,1,80,8|0,0:0|0:0,0:0:0:0:
158,172,12742,5,0,0:0:0:0:
71,193,12875,1,2,1:0:0:0:
257,272,13141,1,2,1:0:0:0:
68,356,13406,1,2,1:0:0:0:
324,348,13672,6,0,P|399:300|410:208,1,160,4|2,0:0|0:0,0:0:0:0:
335,173,14070,1,8,0:0:0:0:
411,122,14203,1,0,0:0:0:0:
164,89,14468,2,0,L|262:83,1,80,0|8,0:0|0:0,0:0:0:0:
116,153,14733,1,0,0:0:0:0:
327,212,14999,1,0,0:0:0:0:
116,347,15264,2,0,P|45:282|36:204,1,160,0|0,2:0|1:0,0:0:0:0:
300,187,15795,6,0,L|485:188,1,160,4|0,0:0|0:0,0:0:0:0:
388,342,16194,2,0,L|287:340,1,80,8|0,0:0|0:0,0:0:0:0:
177,326,16459,2,0,L|165:216,1,80,2|0,0:0|1:0,0:0:0:0:
402,151,16725,2,0,L|414:41,1,80,0|0,0:0|0:0,0:0:0:0:
160,312,16990,5,0,1:0:0:0:
63,255,17123,1,8,0:0:0:0:
47,211,17189,1,8,0:0:0:0:
74,172,17256,1,8,0:0:0:0:
173,141,17388,1,8,0:0:0:0:
377,134,17521,2,0,L|480:136,2,80,0|8|8,0:0|0:0|0:0,0:0:0:0:
129,353,17919,6,0,P|76:307|36:211,1,160,4|0,0:0|1:0,0:0:0:0:
141,219,18318,1,8,0:0:0:0:
383,353,18450,2,0,P|436:307|476:211,1,160,2|2,0:0|0:0,0:0:0:0:
255,316,18981,6,0,P|202:270|162:174,1,160,4|0,0:0|0:0,0:0:0:0:
260,124,19380,1,8,0:0:0:0:
406,215,19512,2,0,L|486:152,1,80,2|0,0:0|0:0,0:0:0:0:
362,124,19778,2,0,L|293:45,1,80,2|8,0:0|0:0,0:0:0:0:
113,337,20043,6,0,P|89:266|164:210,1,160,4|0,0:0|1:0,0:0:0:0:
258,202,20441,1,8,0:0:0:0:
380,356,20574,2,0,L|401:263,1,80,0|0,0:0|0:0,0:0:0:0:
293,238,20840,2,0,L|272:147,1,80,2|8,0:0|0:0,0:0:0:0:
392,157,21105,1,0,0:0:0:0:
226,251,21371,1,0,0:0:0:0:
428,365,21636,2,0,P|466:300|411:223,1,160,0|0,0:0|1:0,0:0:0:0:
310,224,22034,1,0,0:0:0:0:
42,233,22167,6,0,P|36:163|137:108,1,160,4|0,0:0|0:0,0:0:0:0:
394,222,22565,2,0,L|483:253,1,80,8|0,0:0|0:0,0:0:0:0:
350,312,22831,2,0,L|261:343,1,80,8|0,0:0|0:0,0:0:0:0:
393,370,23096,2,0,L|412:270,1,80,8|0,0:0|0:0,0:0:0:0:
190,115,23362,6,0,L|101:146,1,80,8|0,0:0|0:0,0:0:0:0:
215,209,23628,2,0,L|304:240,1,80,8|0,0:0|0:0,0:0:0:0:
63,343,23893,2,0,P|43:297|43:231,1,80,8|8,0:0|0:0,0:0:0:0:
144,264,24158,1,0,1:0:0:0:
388,346,24424,6,0,L|411:258,1,80,4|0,0:0|0:0,0:0:0:0:
315,207,24689,2,0,L|216:187,1,80,8|2,0:0|0:0,0:0:0:0:
212,88,24955,2,0,L|325:72,1,80,8|2,0:0|0:0,0:0:0:0:
434,217,25220,2,0,L|321:201,1,80,8|2,0:0|0:0,0:0:0:0:
83,352,25486,5,8,0:0:0:0:
21,252,25618,1,8,0:0:0:0:
30,205,25685,1,8,0:0:0:0:
39,159,25751,1,8,0:0:0:0:
331,80,25884,2,0,L|436:74,1,80,8|4,0:0|0:3,0:0:0:0:
509,169,26149,2,0,L|404:163,1,80,4|8,0:3|0:3,0:0:0:0:
201,281,26415,1,4,0:0:0:0:
133,341,26813,6,0,P|126:270|193:210,1,160,8|0,0:0|1:0,0:0:0:0:
297,210,27211,1,0,0:0:0:0:
408,117,27344,2,0,L|242:117,1,160,8|0,0:0|1:0,0:0:0:0:
440,345,27875,2,0,P|466:281|393:213,1,160,8|0,0:0|1:0,0:0:0:0:
303,220,28273,1,0,1:0:0:0:
188,219,28406,1,8,0:0:0:0:
439,173,28539,1,4,0:0:0:0:
240,325,28804,5,0,0:0:0:0:
141,349,28937,2,0,P|119:284|196:242,1,160,8|0,0:0|1:0,0:0:0:0:
301,244,29335,1,0,0:0:0:0:
408,242,29468,2,0,P|431:181|345:134,1,160,8|0,0:0|1:0,0:0:0:0:
138,127,29866,1,0,0:0:0:0:
331,320,30132,2,0,P|375:309|399:278,1,80,0|0,0:0|1:0,0:0:0:0:
201,216,30397,2,0,P|157:205|133:174,1,80,8|8,0:0|0:0,0:0:0:0:
257,115,30663,6,0,L|426:116,2,160,4|0|0,0:0|0:0|0:0,0:0:0:0:
128,207,31326,2,0,P|103:149|112:103,1,80,0|0,1:0|0:0,0:0:0:0:
192,45,31592,1,8,0:0:0:0:
409,334,31857,6,0,L|249:336,1,160,0|8,1:0|0:0,0:0:0:0:
61,204,32388,2,0,L|82:281,1,80,2|0,0:0|1:0,0:0:0:0:
266,215,32787,6,0,L|439:211,1,160,4|0,0:0|0:0,0:0:0:0:
211,323,33318,2,0,P|185:248|256:191,1,160,2|0,0:0|1:0,0:0:0:0:
309,143,33716,1,8,0:0:0:0:
230,95,33849,1,4,0:0:0:0:
339,280,33981,5,0,1:0:0:0:
432,237,34114,1,8,0:0:0:0:
442,198,34180,1,8,0:0:0:0:
413,170,34247,1,8,0:0:0:0:
311,168,34380,1,0,1:0:0:0:
105,89,34512,2,0,L|12:85,2,80,8|8|0,0:0|0:0|1:0,0:0:0:0:
376,331,34910,6,0,P|416:265|369:182,1,160,4|0,0:0|0:0,0:0:0:0:
247,124,35309,2,0,L|345:107,1,80,8|0,0:0|0:0,0:0:0:0:
429,15,35574,2,0,L|325:4,2,80,0|0|8,1:0|0:0|0:0,0:0:0:0:
158,336,35972,6,0,P|141:263|216:215,1,160,2|0,0:0|0:0,0:0:0:0:
325,110,36371,2,0,L|236:113,1,80,8|0,0:0|0:0,0:0:0:0:
139,201,36636,1,0,1:0:0:0:
243,272,36769,1,0,1:0:0:0:
395,355,37034,6,0,P|454:310|483:220,1,160,4|0,0:0|0:0,0:0:0:0:
392,200,37433,2,0,L|300:194,1,80,8|0,0:0|0:0,0:0:0:0:
214,224,37698,2,0,L|196:123,1,80,0|0,1:0|0:0,0:0:0:0:
308,112,37964,2,0,L|326:11,1,80,8|0,0:0|0:0,0:0:0:0:
95,301,38229,5,0,1:0:0:0:
52,233,38362,1,8,0:0:0:0:
89,162,38495,1,8,0:0:0:0:
168,155,38627,1,0,1:0:0:0:
361,269,38760,1,8,0:0:0:0:
443,295,38893,2,0,P|479:231|408:193,1,160,0|0,0:0|0:0,0:0:0:0:
141,327,39291,6,0,P|124:262|218:232,1,160,4|8,0:0|0:0,0:0:0:0:
381,216,39822,1,0,1:0:0:0:
157,216,40087,1,8,0:0:0:0:
359,324,40353,6,0,P|388:262|294:232,1,160,0|8,1:0|0:0,0:0:0:0:
131,216,40884,1,8,0:0:0:0:
355,216,41149,1,0,1:0:0:0:
16,219,41415,5,4,0:0:0:0:
256,192,41548,12,0,43008,0:0:0:0:
372,351,43539,6,0,P|393:293|388:218,1,120.000004577637,4|0,0:2|2:0,0:0:0:0:
187,176,44070,1,8,1:0:0:0:
361,132,44335,1,0,0:0:0:0:
140,351,44601,6,0,P|119:293|124:218,1,120.000004577637,4|0,1:3|2:0,0:0:0:0:
289,187,45132,1,8,1:0:0:0:
116,143,45397,1,0,2:0:0:0:
328,305,45663,6,0,L|458:301,1,120.000004577637,4|0,1:3|2:0,0:0:0:0:
275,192,46194,2,0,L|145:188,1,120.000004577637,8|0,1:0|2:0,0:0:0:0:
315,292,46725,1,4,1:3:0:0:
484,210,46990,1,0,1:0:0:0:
472,150,47123,1,0,0:0:0:0:
460,90,47256,1,8,1:0:0:0:
274,192,47521,1,0,1:0:0:0:
451,358,47787,6,0,P|475:289|438:222,1,120.000004577637,4|0,0:2|1:0,0:0:0:0:
274,192,48318,1,8,1:0:0:0:
421,156,48583,1,0,0:0:0:0:
176,329,48849,6,0,P|152:260|189:193,1,120.000004577637,0|0,1:0|2:0,0:0:0:0:
353,163,49380,1,8,1:0:0:0:
206,127,49645,1,0,2:0:0:0:
406,258,49910,6,0,L|236:268,1,120.000004577637,0|0,0:0|0:0,0:0:0:0:
106,349,50441,2,0,L|276:359,1,120.000004577637,8|0,0:0|0:0,0:0:0:0:
405,342,50972,2,0,P|420:271|387:194,1,120.000004577637,0|0,1:0|0:0,0:0:0:0:
225,169,51503,1,8,1:0:0:0:
400,109,51769,1,4,1:3:0:0:
204,315,52034,6,0,L|353:305,1,120.000004577637,4|0,0:2|0:0,0:0:0:0:
480,201,52565,1,8,0:0:0:0:
311,140,52831,1,0,2:0:0:0:
464,345,53096,6,0,L|315:335,1,120.000004577637,4|0,0:3|1:0,0:0:0:0:
188,231,53627,1,8,0:0:0:0:
357,170,53893,1,0,0:0:0:0:
167,354,54158,6,0,L|123:225,1,120.000004577637,0|0,1:2|0:0,0:0:0:0:
328,144,54689,2,0,P|244:131|151:129,1,120.000004577637,8|0,0:0|0:0,0:0:0:0:
364,339,55220,2,0,L|408:210,1,120.000004577637,0|0,0:0|0:0,0:0:0:0:
223,248,55751,1,8,1:0:0:0:
407,172,56017,1,4,1:3:0:0:
206,347,56282,6,0,P|270:333|373:335,2,120.000004577637,4|0|8,0:2|0:0|1:0,0:0:0:0:
364,215,57079,1,0,0:0:0:0:
150,239,57344,6,0,P|214:225|317:227,2,120.000004577637,4|0|8,0:3|0:0|0:0,0:0:0:0:
308,107,58141,1,0,0:0:0:0:
127,329,58406,6,0,P|75:294|58:203,1,120.000004577637,4|0,0:3|0:0,0:0:0:0:
237,138,58937,2,0,L|364:129,1,120.000004577637,8|0,0:0|0:0,0:0:0:0:
503,203,59468,1,8,0:0:0:0:
327,287,59733,1,0,0:0:0:0:
501,368,59999,1,8,0:0:0:0:
503,338,60132,1,8,0:0:0:0:
505,304,60264,1,8,0:0:0:0:
267,245,60397,1,4,2:2:0:0:
256,192,60928,12,0,64114,0:0:0:0:
299,355,64645,6,0,P|362:303|294:237,1,160,4|0,0:0|0:0,0:0:0:0:
107,346,65043,2,0,L|19:332,1,80,8|0,0:0|0:0,0:0:0:0:
270,264,65309,2,0,L|282:157,1,80,0|0,1:0|0:0,0:0:0:0:
164,196,65574,2,0,L|154:104,1,80,8|0,0:0|0:0,0:0:0:0:
267,45,65840,2,0,L|377:33,1,80,0|0,1:0|0:0,0:0:0:0:
209,270,66105,2,0,L|99:259,1,80,8|0,0:0|0:0,0:0:0:0:
451,361,66371,6,0,L|473:274,1,80,0|8,1:0|0:0,0:0:0:0:
371,229,66636,1,8,1:0:0:0:
154,303,66769,2,0,P|93:255|87:155,1,160,4|0,0:0|0:0,0:0:0:0:
200,115,67167,2,0,L|285:102,1,80,8|0,0:0|0:0,0:0:0:0:
173,359,67433,2,0,L|151:268,1,80,0|0,1:0|0:0,0:0:0:0:
259,273,67698,2,0,L|277:166,1,80,8|0,0:0|0:0,0:0:0:0:
179,199,67964,5,0,1:0:0:0:
417,259,68096,1,8,0:0:0:0:
427,219,68163,1,8,0:0:0:0:
437,180,68229,1,8,0:0:0:0:
347,95,68362,1,0,1:0:0:0:
101,268,68495,2,0,L|12:267,2,80,8|0|4,0:0|1:0|0:3,0:0:0:0:
320,280,68893,5,4,1:2:0:0:
135,192,69158,2,0,L|216:184,1,64,0|8,2:0|0:0,0:0:0:0:
354,207,69557,6,0,L|423:203,2,64,0|0|8,1:0|0:0|0:0,0:0:0:0:
151,319,70087,6,0,L|82:315,2,64,0|4|8,1:0|0:3|0:0,0:0:0:0:
314,270,70618,2,0,P|320:214|308:188,1,64,0|0,1:0|1:0,0:0:0:0:
214,159,70884,1,8,0:0:0:0:
416,106,71017,5,4,0:0:0:0:
191,296,71282,2,0,L|281:291,1,64,0|8,0:0|0:0,0:0:0:0:
33,156,71680,2,0,L|118:147,2,64,0|0|8,1:0|0:0|0:0,0:0:0:0:
301,49,72211,2,0,L|213:40,2,64,0|8|8,1:0|0:3|0:0,0:0:0:0:
96,208,72742,2,0,L|16:224,2,64,0|8|8,1:0|0:0|0:0,0:0:0:0:
328,200,73141,1,4,0:0:0:0:
155,321,73406,6,0,L|138:247,1,64,0|8,0:0|0:0,0:0:0:0:
345,93,73804,2,0,L|264:94,2,64,0|0|8,1:0|0:0|0:0,0:0:0:0:
134,271,74203,2,0,P|106:222|105:151,1,128,0|0,0:0|0:0,0:0:0:0:
312,63,74733,2,0,L|219:61,1,64,0|0,0:0|1:0,0:0:0:0:
142,152,74999,2,0,L|236:149,1,64,8|8,0:0|1:0,0:0:0:0:
408,272,75264,6,0,P|436:223|437:152,1,128,4|0,0:0|0:0,0:0:0:0:
349,129,75663,1,8,0:0:0:0:
120,346,75795,2,0,L|272:336,1,128,0|0,0:0|0:0,0:0:0:0:
345,226,76194,2,0,L|274:220,1,64,8|0,0:0|0:0,0:0:0:0:
57,273,76459,6,0,L|30:194,1,64,2|0,1:2|0:0,0:0:0:0:
266,166,76725,2,0,L|293:87,1,64,10|0,1:2|0:0,0:0:0:0:
72,105,76990,2,0,L|45:26,1,64,2|8,1:2|1:3,0:0:0:0:
144,44,77256,1,8,1:0:0:0:
372,298,77388,6,0,L|200:289,1,160,4|2,0:0|0:0,0:0:0:0:
296,367,77787,2,0,L|321:285,1,80,8|0,0:0|0:0,0:0:0:0:
204,279,78052,2,0,P|181:225|172:179,1,80,0|0,1:0|0:0,0:0:0:0:
307,205,78318,2,0,P|335:167|352:124,1,80,8|0,0:0|0:0,0:0:0:0:
227,125,78583,2,0,P|199:87|182:44,1,80,0|0,1:0|0:0,0:0:0:0:
324,285,78849,2,0,L|436:284,1,80,8|0,0:0|0:0,0:0:0:0:
117,213,79114,2,0,L|7:212,2,80,0|2|8,1:0|1:2|0:0,0:0:0:0:
401,345,79512,6,0,P|441:282|365:223,1,160,6|0,0:0|0:0,0:0:0:0:
287,323,79910,2,0,L|266:236,1,80,8|0,0:0|0:0,0:0:0:0:
386,214,80176,2,0,L|407:115,1,80,0|0,1:0|0:0,0:0:0:0:
289,87,80441,2,0,L|209:68,1,80,8|0,0:0|0:0,0:0:0:0:
452,349,80707,2,0,L|472:258,1,80,0|0,1:0|0:0,0:0:0:0:
359,235,80972,2,0,L|342:149,1,80,8|0,0:0|0:0,0:0:0:0:
426,77,81238,2,0,L|333:64,2,80,0|2|8,1:0|0:0|0:0,0:0:0:0:
126,321,81636,6,0,P|110:263|188:216,1,160,4|0,0:0|0:0,0:0:0:0:
291,212,82034,1,8,0:0:0:0:
354,162,82167,1,0,0:0:0:0:
250,114,82300,1,2,1:0:0:0:
172,92,82433,1,0,0:0:0:0:
279,24,82565,1,0,0:0:0:0:
357,9,82698,1,0,0:0:0:0:
130,340,82831,6,0,L|107:245,1,80,0|0,1:0|0:0,0:0:0:0:
212,239,83096,2,0,L|229:147,1,80,8|0,0:0|0:0,0:0:0:0:
116,103,83362,2,0,L|20:102,2,80,0|4|8,1:0|0:3|0:0,0:0:0:0:
417,237,83893,5,4,2:0:0:0:
206,321,84158,1,8,1:0:0:0:
391,138,84424,1,8,0:0:0:0:
153,255,84689,1,8,0:0:0:0:
358,218,84955,1,8,0:0:0:0:
109,164,85220,1,8,0:0:0:0:
308,113,85486,2,0,L|410:108,2,80,8|0|8,0:0|1:0|1:3,0:0:0:0:
81,139,85884,5,4,0:0:0:0:
256,192,86017,12,0,89733,0:0:0:0:
368,320,90132,6,0,P|408:280|360:184,1,160,4|0,0:0|0:0,0:0:0:0:
153,292,90530,2,0,L|134:183,1,80,8|0,0:0|0:0,0:0:0:0:
239,152,90795,2,0,L|344:134,1,80,0|0,1:0|0:0,0:0:0:0:
213,66,91061,2,0,L|121:47,1,80,8|0,0:0|0:0,0:0:0:0:
407,316,91326,6,0,P|420:262|330:206,1,160,0|8,1:0|0:0,0:0:0:0:
237,205,91725,2,0,L|147:205,1,80,0|0,0:0|0:0,0:0:0:0:
273,277,91990,1,0,1:0:0:0:
63,351,92256,6,0,P|60:281|138:239,1,160,4|0,0:0|0:0,0:0:0:0:
232,234,92654,1,8,0:0:0:0:
59,151,92919,2,0,L|48:59,1,80,8|0,0:0|1:0,0:0:0:0:
278,305,93318,1,4,0:0:0:0:
378,345,93450,6,0,L|444:278,1,80,0|8,1:0|0:0,0:0:0:0:
197,224,93716,2,0,L|131:157,1,80,0|0,0:0|1:0,0:0:0:0:
344,82,93981,2,0,L|452:76,2,80,8|0|8,0:0|1:0|1:0,0:0:0:0:
108,340,94380,6,0,P|82:279|173:232,1,160,4|0,0:0|0:0,0:0:0:0:
262,273,94778,2,0,L|348:248,2,80,8|0|0,0:0|0:0|1:0,0:0:0:0:
52,299,95176,2,0,L|40:205,1,80,2|8,0:0|0:0,0:0:0:0:
309,354,95441,6,0,P|348:338|414:233,1,160,0|0,0:0|0:0,0:0:0:0:
293,153,95840,2,0,L|201:152,2,80,8|0|0,0:0|0:0|1:0,0:0:0:0:
386,99,96238,1,0,1:0:0:0:
169,348,96503,6,0,P|100:318|71:236,1,160,4|0,0:0|0:0,0:0:0:0:
339,253,96902,2,0,L|349:148,1,80,8|0,0:0|0:0,0:0:0:0:
154,140,97167,2,0,L|144:35,1,80,0|0,1:0|0:0,0:0:0:0:
247,62,97433,2,0,L|345:43,1,80,8|0,0:0|0:0,0:0:0:0:
75,327,97698,5,0,1:0:0:0:
27,262,97831,1,0,0:0:0:0:
52,186,97964,1,8,0:0:0:0:
119,144,98096,1,0,0:0:0:0:
199,142,98229,1,2,2:0:0:0:
448,232,98362,2,0,P|458:172|379:103,1,160,0|0,1:0|0:0,0:0:0:0:
153,326,98760,6,0,P|125:251|208:217,1,160,4|8,0:0|0:0,0:0:0:0:
366,226,99291,2,0,L|448:171,2,80,0|0|8,1:0|0:0|0:0,0:0:0:0:
153,326,99822,2,0,P|73:306|40:209,1,160,0|8,1:0|0:0,0:0:0:0:
125,153,100220,1,0,0:0:0:0:
371,239,100353,2,0,L|466:232,1,80,0|0,1:0|0:0,0:0:0:0:
323,353,100618,2,0,L|228:345,1,80,8|0,0:0|0:0,0:0:0:0:
457,338,100884,5,4,0:0:0:0:
492,266,101017,1,4,0:3:0:0:
451,197,101149,1,8,1:3:0:0:
371,190,101282,1,0,0:0:0:0:
426,350,101415,2,0,L|441:260,1,80,8|0,1:0|0:0,0:0:0:0:
55,338,101680,5,8,1:0:0:0:
20,266,101813,1,0,0:0:0:0:
61,197,101945,1,8,1:0:0:0:
141,190,102078,1,0,0:0:0:0:
353,302,102211,2,0,L|338:212,1,80,4|8,1:3|1:3,0:0:0:0:
101,317,102477,2,0,P|68:231|201:192,1,240,4|0,0:0|0:0,0:0:0:0:
450,134,103008,6,0,L|313:124,1,120.000004577637,4|0,0:0|0:0,0:0:0:0:
140,265,103539,1,8,0:0:0:0:
367,349,103804,1,0,0:0:0:0:
120,128,104070,6,0,L|257:118,1,120.000004577637,0|0,1:0|0:0,0:0:0:0:
430,259,104601,1,8,0:0:0:0:
203,343,104866,1,0,0:0:0:0:
414,360,105132,6,2,L|438:212,1,120.000004577637,0|0,1:0|0:0,0:0:0:0:
208,248,105663,2,2,L|184:100,1,120.000004577637,8|0,0:0|0:0,0:0:0:0:
387,185,106194,1,2,1:0:0:0:
193,254,106459,1,0,0:0:0:0:
411,323,106725,2,0,L|254:318,1,120.000004577637,10|0,1:0|1:0,0:0:0:0:
107,348,107256,6,0,P|116:286|203:243,1,120.000004577637,4|0,0:0|0:0,0:0:0:0:
357,259,107787,1,8,0:0:0:0:
150,167,108052,1,0,0:0:0:0:
405,348,108318,6,0,P|396:286|309:243,1,120.000004577637,0|0,1:0|0:0,0:0:0:0:
155,259,108849,1,8,0:0:0:0:
362,167,109114,1,0,0:0:0:0:
153,337,109380,6,0,L|11:327,1,120.000004577637,0|0,1:0|0:0,0:0:0:0:
270,187,109910,2,0,L|128:177,1,120.000004577637,8|0,0:0|0:0,0:0:0:0:
299,277,110441,1,2,1:0:0:0:
111,359,110707,1,0,0:0:0:0:
313,267,110972,2,0,L|446:253,1,120.000004577637,10|8,1:0|1:3,0:0:0:0:
210,349,111503,6,0,P|182:287|181:198,1,120.000004577637,4|0,0:0|1:0,0:0:0:0:
371,236,112034,1,8,0:0:0:0:
156,208,112300,1,0,0:0:0:0:
354,319,112565,6,0,P|382:257|383:168,1,120.000004577637,0|0,1:0|0:0,0:0:0:0:
193,206,113096,1,8,0:0:0:0:
408,178,113362,1,0,0:0:0:0:
159,320,113627,6,0,L|307:312,2,120.000004577637,0|0|8,1:0|0:0|0:0,0:0:0:0:
349,207,114424,1,0,0:0:0:0:
106,276,114689,2,0,P|89:211|81:129,1,120.000004577637,0|0,1:0|0:0,0:0:0:0:
276,161,115220,1,8,0:0:0:0:
72,167,115486,1,8,1:3:0:0:
291,308,115751,6,0,L|445:299,2,120.000004577637,4|0|8,0:0|0:0|0:0,0:0:0:0:
472,206,116548,1,0,0:0:0:0:
221,308,116813,6,0,L|67:299,2,120.000004577637,4|0|8,2:0|0:0|0:0,0:0:0:0:
40,206,117610,1,0,0:0:0:0:
271,218,117875,5,4,0:0:0:0:
55,288,118141,1,0,0:0:0:0:
298,314,118406,1,12,0:0:0:0:
82,384,118672,1,0,0:0:0:0:
324,226,118937,5,8,0:0:0:0:
152,344,119203,5,4,3:0:0:0:
125,318,119269,1,4,3:0:0:0:
117,282,119335,1,4,3:0:0:0:
129,246,119402,1,4,3:0:0:0:
157,223,119468,1,8,0:0:0:0:
269,218,119601,1,0,0:0:0:0:
473,249,119733,2,0,L|493:174,1,60.0000022888184,0|0,1:0|0:0,0:0:0:0:
271,101,119999,6,0,L|126:96,1,120.000004577637,4|0,0:0|0:0,0:0:0:0:
379,148,120530,1,12,0:0:0:0:
403,333,120795,1,0,0:0:0:0:
241,101,121061,6,0,L|386:96,1,120.000004577637,0|0,1:0|0:0,0:0:0:0:
114,149,121592,1,8,0:0:0:0:
90,334,121857,1,0,0:0:0:0:
256,256,122123,6,0,L|106:251,1,120.000004577637,0|0,1:0|0:0,0:0:0:0:
339,128,122654,2,0,L|486:137,1,120.000004577637,8|0,0:0|0:0,0:0:0:0:
249,311,123185,1,0,1:0:0:0:
465,222,123450,1,0,0:0:0:0:
238,179,123716,2,0,L|95:164,1,120.000004577637,12|0,1:2|0:0,0:0:0:0:
470,342,124247,6,0,P|479:266|431:209,1,120.000004577637,4|0,0:0|0:0,0:0:0:0:
295,236,124778,1,8,0:0:0:0:
126,240,125043,1,0,0:0:0:0:
302,117,125309,2,0,L|429:115,1,120.000004577637,0|0,1:0|0:0,0:0:0:0:
161,324,125840,2,0,L|34:322,1,120.000004577637,8|0,0:0|0:0,0:0:0:0:
238,218,126371,6,0,L|97:226,1,120.000004577637,0|0,1:0|0:0,0:0:0:0:
324,314,126902,1,8,1:0:0:0:
104,227,127167,1,0,0:0:0:0:
330,151,127433,1,8,0:0:0:0:
61,267,127698,2,0,P|55:202|80:124,1,120.000004577637,4|4,1:2|1:2,0:0:0:0:
208,223,128229,2,0,L|277:208,1,60.0000022888184,4|8,3:0|3:0,0:0:0:0:
466,318,128495,6,0,P|475:249|426:192,1,120.000004577637,4|0,0:0|0:0,0:0:0:0:
270,203,129026,1,8,1:0:0:0:
459,201,129291,1,0,0:0:0:0:
247,323,129557,2,0,L|98:318,1,120.000004577637,0|0,1:0|0:0,0:0:0:0:
306,176,130087,2,0,L|150:167,1,120.000004577637,8|0,1:0|0:0,0:0:0:0:
330,263,130618,5,0,1:0:0:0:
51,328,131017,1,0,1:0:0:0:
337,277,131415,1,0,1:0:0:0:
195,323,131680,2,0,P|176:259|176:177,1,120.000004577637,0|0,1:0|0:0,0:0:0:0:
356,208,132211,2,0,P|375:144|375:62,1,120.000004577637,8|4,1:0|1:3,0:0:0:0:
189,293,132742,6,0,L|338:284,2,120.000004577637,4|0|8,0:0|0:0|0:0,0:0:0:0:
381,174,133539,1,0,0:0:0:0:
171,360,133804,1,0,1:0:0:0:
31,250,134070,1,0,0:0:0:0:
178,162,134335,1,8,0:0:0:0:
376,246,134601,1,8,1:3:0:0:
24,241,134866,5,4,0:0:0:0:
158,315,136990,5,12,1:3:0:0:
371,377,137256,5,0,1:0:0:0:
405,355,137322,1,0,1:0:0:0:
416,316,137388,1,0,1:0:0:0:
393,281,137455,1,0,1:0:0:0:
355,267,137521,1,0,1:0:0:0:
323,241,137587,1,0,1:0:0:0:
312,201,137654,1,0,1:0:0:0:
338,169,137720,1,0,1:0:0:0:
377,159,137787,1,0,1:0:0:0:
409,134,137853,1,0,1:0:0:0:
414,93,137919,1,0,1:0:0:0:
379,70,137986,1,0,1:0:0:0:
182,73,138052,1,4,1:2:0:0:
