osu file format v14

[General]
AudioFilename: audio.mp3
AudioLeadIn: 0
PreviewTime: -1
Countdown: 0
SampleSet: None
StackLeniency: 0.7
Mode: 2
LetterboxInBreaks: 0
WidescreenStoryboard: 0

[Editor]
Bookmarks: 26415,43539,64645,90132,103008,136990
DistanceSpacing: 1
BeatDivisor: 4
GridSize: 4
TimelineZoom: 2.2

[Metadata]
Title:King For A Day (feat Kellin Quinn)
TitleUnicode:King For A Day (feat Kellin Quinn)
Artist:Pierce The Veil
ArtistUnicode:Pierce The Veil
Creator:Spectator
Version:Hyperion's Rain
Source:
Tags:collide the sky metal punk sleeping with sirens
BeatmapID:1330415
BeatmapSetID:629069

[Difficulty]
HPDrainRate:6
CircleSize:4.5
OverallDifficulty:9.1
ApproachRate:9.1
SliderMultiplier:1.8
SliderTickRate:1

[Events]
//Background and Video events
0,0,"BG.png",0,0
//Break Periods
2,60597,61937
2,86084,88884
//Storyboard Layer 0 (Background)
//Storyboard Layer 1 (Fail)
//Storyboard Layer 2 (Pass)
//Storyboard Layer 3 (Foreground)
//Storyboard Sound Samples

[TimingPoints]
9557,265.486725663717,4,2,1,80,1,0
26415,-100,4,2,1,80,0,1
34844,-100,4,2,1,80,0,0
34910,-100,4,2,1,80,0,1
41415,-133.333333333333,4,2,1,80,0,0
43539,-125,4,1,1,80,0,0
62521,-125,4,1,1,30,0,0
62654,-125,4,1,1,32,0,0
62787,-125,4,1,1,34,0,0
62919,-125,4,1,1,36,0,0
63052,-125,4,1,1,38,0,0
63185,-125,4,1,1,40,0,0
63318,-125,4,1,1,42,0,0
63451,-125,4,1,1,44,0,0
63583,-125,4,1,1,46,0,0
63716,-125,4,1,1,48,0,0
63849,-125,4,1,1,50,0,0
63981,-125,4,1,1,52,0,0
64114,-125,4,1,1,54,0,0
64247,-125,4,1,1,56,0,0
64380,-125,4,1,1,58,0,0
64512,-125,4,1,1,60,0,0
64645,-100,4,2,1,80,0,0
68893,-100,4,2,1,70,0,0
77388,-100,4,2,1,80,0,0
90132,-100,4,2,1,80,0,1
94313,-100,4,2,1,80,0,0
94380,-100,4,2,1,80,0,1
103008,-125,4,2,1,80,0,0
119733,-125,4,2,1,60,0,0
119999,-125,4,2,1,80,0,1
120065,-125,4,2,1,80,0,0
124247,-80,4,2,1,80,0,0
124512,-125,4,2,1,80,0,0
134866,-125,4,2,1,80,0,0
136990,-100,4,2,1,70,0,1
137521,-100,4,2,1,50,0,1
137787,-100,4,2,1,70,0,1
138052,-111.111111111111,4,2,1,80,0,0

[Colours]
Combo1 : 132,142,166
Combo2 : 164,148,117
Combo3 : 124,171,139
Combo4 : 119,147,162

[HitObjects]
336,192,9291,5,0,1:0:0:0:
96,192,9424,2,0,P|40:156|104:88,1,180,4|4,0:0|0:3,0:0:0:0:
232,92,9822,2,0,L|324:92,1,90,8|0,0:0|0:0,0:0:0:0:
232,92,10087,2,0,L|220:188,1,90,4|0,0:3|0:0,0:0:0:0:
356,192,10353,2,0,L|448:192,1,90,8|0,0:0|0:0,0:0:0:0:
308,284,10618,5,4,0:3:0:0:
400,284,10751,1,0,0:0:0:0:
264,284,10884,2,0,L|184:238,1,90,8|0,0:0|0:0,0:0:0:0:
320,192,11149,1,4,0:3:0:0:
212,192,11282,1,4,0:3:0:0:
312,192,11415,1,8,0:0:0:0:
76,192,11548,6,0,P|72:144|168:52,1,180,4|0,0:0|0:0,0:0:0:0:
292,68,11946,2,0,L|308:164,1,90,8|0,0:0|0:0,0:0:0:0:
176,160,12211,2,0,L|120:240,1,90,4|0,0:3|0:0,0:0:0:0:
268,240,12477,2,0,L|351:289,1,90,8|0,0:0|0:0,0:0:0:0:
132,328,12742,6,0,L|209:282,1,90,4|4,0:3|0:3,0:0:0:0:
345,285,13008,1,8,0:0:0:0:
120,248,13141,2,0,L|116:152,1,90,4|0,0:3|0:0,0:0:0:0:
344,192,13406,2,0,L|348:96,1,90,4|8,0:3|0:0,0:0:0:0:
84,88,13672,6,0,P|40:144|92:232,1,180,4|4,0:0|0:3,0:0:0:0:
224,232,14070,1,8,0:0:0:0:
440,236,14203,2,0,L|360:192,1,90,0|4,0:0|0:3,0:0:0:0:
248,192,14468,1,0,0:0:0:0:
384,192,14601,1,8,0:0:0:0:
168,192,14733,6,0,L|68:192,1,90,0|4,0:0|0:3,0:0:0:0:
212,192,14999,2,0,L|216:92,1,90,0|8,0:0|0:0,0:0:0:0:
440,192,15264,2,0,L|436:92,1,90,0|4,2:0|0:3,0:0:0:0:
344,100,15530,1,0,1:0:0:0:
480,100,15663,1,8,0:0:0:0:
248,100,15795,6,0,P|192:116|140:220,1,180,4|0,0:0|0:0,0:0:0:0:
268,220,16194,2,0,L|194:293,1,90,8|0,0:0|0:0,0:0:0:0:
340,284,16459,2,0,L|432:284,1,90,4|4,0:3|0:3,0:0:0:0:
292,356,16725,2,0,L|200:356,1,90,8|0,0:0|0:0,0:0:0:0:
448,284,16990,6,0,P|480:244|476:192,1,90,0|4,1:0|0:3,0:0:0:0:
460,168,17189,1,4,0:3:0:0:
421,148,17256,1,4,0:3:0:0:
208,148,17388,2,0,L|288:104,1,90,8|0,0:0|0:0,0:0:0:0:
416,220,17654,2,0,L|320:220,1,90,8|8,0:0|0:0,0:0:0:0:
92,216,17919,6,0,P|88:268|192:352,1,180,4|4,0:0|0:3,0:0:0:0:
288,352,18318,1,8,0:0:0:0:
400,352,18450,2,0,L|412:256,1,90,2|0,0:0|0:0,0:0:0:0:
292,264,18716,2,0,L|256:176,1,90,2|8,0:0|0:0,0:0:0:0:
484,184,18981,6,0,P|488:132|384:48,1,180,4|4,0:0|0:3,0:0:0:0:
288,48,19380,1,8,0:0:0:0:
176,48,19512,2,0,L|136:136,1,90,2|0,0:0|0:0,0:0:0:0:
257,180,19778,2,0,L|177:236,1,90,2|8,0:0|0:0,0:0:0:0:
400,232,20043,6,0,P|444:244|504:360,1,180,4|4,0:0|0:3,0:0:0:0:
416,356,20441,1,8,0:0:0:0:
280,352,20574,2,0,L|328:264,1,90,0|4,0:0|0:3,0:0:0:0:
188,268,20840,2,0,L|236:180,1,90,2|8,0:0|0:0,0:0:0:0:
448,192,21105,6,0,L|404:112,1,90,0|4,0:0|0:3,0:0:0:0:
288,112,21371,2,0,L|331:32,1,90,0|8,0:0|0:0,0:0:0:0:
116,36,21636,2,0,L|24:36,1,90,0|4,0:0|0:3,0:0:0:0:
241,32,21902,2,0,L|337:32,1,90,0|4,1:0|0:3,0:0:0:0:
76,108,22167,6,0,P|16:152|76:216,1,180,4|4,0:0|0:3,0:0:0:0:
208,220,22565,2,0,L|304:220,1,90,8|0,0:0|0:0,0:0:0:0:
80,328,22831,1,8,0:0:0:0:
188,328,22964,1,0,0:0:0:0:
64,328,23096,1,8,0:0:0:0:
172,328,23229,2,0,L|220:328,1,45,4|4,0:3|0:3,0:0:0:0:
376,328,23362,6,0,L|432:252,1,90,8|0,0:0|0:0,0:0:0:0:
284,256,23627,2,0,L|228:180,1,90,8|0,0:0|0:0,0:0:0:0:
376,192,23893,2,0,L|320:116,1,90,8|8,0:0|0:0,0:0:0:0:
177,256,24158,2,0,L|233:180,1,90,4|4,0:3|0:3,0:0:0:0:
448,120,24424,5,4,0:0:0:0:
340,120,24557,1,0,0:0:0:0:
464,120,24689,1,8,0:0:0:0:
356,120,24822,1,2,0:0:0:0:
148,44,24955,5,8,0:0:0:0:
256,44,25087,1,2,0:0:0:0:
132,44,25220,1,8,0:0:0:0:
240,44,25353,1,2,0:0:0:0:
32,48,25486,6,0,L|16:136,1,90,8|4,0:0|0:3,0:0:0:0:
40,192,25685,1,4,0:3:0:0:
196,196,25751,2,0,L|288:196,1,90,4|8,0:3|0:0,0:0:0:0:
148,284,26017,2,0,L|232:232,2,90,4|4|8,0:3|0:3|0:3,0:0:0:0:
384,288,26415,6,0,B|476:288|476:288|496:200,1,180,4|0,0:0|0:0,0:0:0:0:
348,204,26813,2,0,L|264:160,1,90,8|0,0:0|0:0,0:0:0:0:
460,104,27079,1,0,1:0:0:0:
360,104,27211,1,0,0:0:0:0:
224,104,27344,2,0,L|144:150,1,90,8|0,0:0|0:0,0:0:0:0:
336,104,27610,6,0,L|344:200,1,90,0|0,1:0|0:0,0:0:0:0:
196,192,27875,2,0,L|188:288,1,90,8|0,0:0|0:0,0:0:0:0:
388,284,28141,2,0,L|478:284,2,90,0|0|8,1:0|1:0|0:0,0:0:0:0:
152,280,28539,6,0,P|96:236|136:144,1,180,4|0,0:0|0:0,0:0:0:0:
400,144,28937,2,0,L|504:144,1,90,8|0,0:0|0:0,0:0:0:0:
380,64,29203,1,0,1:0:0:0:
468,64,29335,1,0,0:0:0:0:
324,64,29468,2,0,L|280:144,1,90,8|0,0:0|0:0,0:0:0:0:
472,248,29733,6,0,L|372:248,1,90,0|0,1:0|0:0,0:0:0:0:
492,248,29999,1,8,0:0:0:0:
272,248,30132,2,0,L|180:248,1,90,0|0,0:0|1:0,0:0:0:0:
383,332,30397,2,0,L|475:332,1,90,8|8,0:0|0:0,0:0:0:0:
177,337,30663,6,0,L|169:241,1,90,4|0,0:0|0:0,0:0:0:0:
304,248,30928,2,0,L|352:172,1,90,0|8,0:0|0:0,0:0:0:0:
124,172,31194,1,0,0:0:0:0:
56,112,31326,1,0,1:0:0:0:
104,36,31459,1,0,0:0:0:0:
252,36,31592,2,0,L|348:36,1,90,8|0,0:0|0:0,0:0:0:0:
232,120,31857,5,0,1:0:0:0:
324,120,31990,1,0,0:0:0:0:
472,120,32123,2,0,L|380:120,1,90,8|0,0:0|0:0,0:0:0:0:
184,192,32388,2,0,L|267:240,1,90,2|0,0:0|1:0,0:0:0:0:
164,192,32654,1,8,0:0:0:0:
392,192,32787,6,0,P|452:204|504:312,1,180,4|0,0:0|0:0,0:0:0:0:
356,300,33185,2,0,L|448:300,1,90,8|2,0:0|0:0,0:0:0:0:
328,300,33450,2,0,L|312:208,1,90,0|0,0:0|1:0,0:0:0:0:
448,212,33716,1,8,0:0:0:0:
188,212,33849,6,0,B|96:212|96:212|40:140,1,180,4|8,0:0|0:0,0:0:0:0:
168,68,34247,1,8,0:0:0:0:
60,68,34380,1,0,1:0:0:0:
292,68,34512,1,8,0:0:0:0:
384,124,34645,1,8,0:0:0:0:
404,232,34778,1,0,1:0:0:0:
152,232,34910,6,0,B|60:232|60:232|40:320,1,180,4|0,0:0|0:0,0:0:0:0:
188,320,35309,2,0,L|256:260,1,90,8|0,0:0|0:0,0:0:0:0:
56,232,35574,1,0,1:0:0:0:
40,144,35707,1,0,0:0:0:0:
116,92,35840,1,8,0:0:0:0:
312,96,35972,6,0,P|376:108|428:208,1,180,2|0,0:0|0:0,0:0:0:0:
284,200,36371,2,0,L|188:192,1,90,8|0,0:0|0:0,0:0:0:0:
392,276,36636,2,0,L|344:200,1,90,0|0,1:0|1:0,0:0:0:0:
472,204,36902,1,8,0:0:0:0:
220,200,37034,6,0,P|160:216|104:324,1,180,4|0,0:0|0:0,0:0:0:0:
248,312,37433,2,0,L|152:312,1,90,8|0,0:0|0:0,0:0:0:0:
356,312,37698,2,0,L|460:312,2,90,0|0|8,1:0|0:0|0:0,0:0:0:0:
156,240,38096,6,0,L|80:192,1,90,0|0,0:0|1:0,0:0:0:0:
228,240,38362,2,0,L|152:192,1,90,8|8,0:0|0:0,0:0:0:0:
352,236,38627,2,0,L|276:188,1,90,0|8,1:0|0:0,0:0:0:0:
80,240,38893,2,0,L|4:192,1,90,0|8,0:0|0:0,0:0:0:0:
96,128,39158,1,0,1:0:0:0:
320,132,39291,6,0,L|416:132,1,90,4|0,0:0|0:0,0:0:0:0:
264,132,39557,2,0,P|192:156|160:252,1,180,8|0,0:0|1:0,0:0:0:0:
248,248,39955,1,0,1:0:0:0:
104,248,40087,2,0,L|32:192,1,90,8|0,0:0|1:0,0:0:0:0:
180,144,40353,5,0,1:0:0:0:
272,144,40486,1,0,1:0:0:0:
128,144,40618,2,0,L|112:56,1,90,8|4,0:0|0:3,0:0:0:0:
256,60,40884,2,0,L|339:11,1,90,8|4,0:0|0:3,0:0:0:0:
194,99,41149,2,0,L|277:147,1,90,8|4,0:0|0:3,0:0:0:0:
476,144,41415,5,4,0:0:0:0:
392,336,43539,6,0,L|414:181,1,144,4|0,0:2|2:0,0:0:0:0:
208,192,44070,2,0,L|72:120,1,144,8|0,1:0|0:0,0:0:0:0:
312,84,44601,1,4,1:3:0:0:
156,84,44866,1,0,2:0:0:0:
364,84,45132,1,8,1:0:0:0:
184,152,45397,1,0,2:0:0:0:
460,192,45663,6,0,L|316:192,1,144,4|0,1:3|2:0,0:0:0:0:
100,320,46194,2,0,L|232:240,1,144,8|0,1:0|2:0,0:0:0:0:
472,305,46725,2,0,P|503:254|455:190,1,144,4|0,1:3|1:0,0:0:0:0:
232,172,47256,1,8,1:0:0:0:
432,80,47521,1,0,1:0:0:0:
28,284,47787,6,0,P|37:220|109:168,1,144,4|0,0:2|1:0,0:0:0:0:
313,172,48318,1,8,1:0:0:0:
473,96,48583,1,0,0:0:0:0:
277,282,48849,1,0,1:0:0:0:
433,282,49114,1,0,2:0:0:0:
225,282,49380,1,8,1:0:0:0:
405,350,49645,1,0,2:0:0:0:
132,352,49910,6,0,L|110:183,1,144,0|0,0:0|0:0,0:0:0:0:
344,212,50441,1,8,0:0:0:0:
156,120,50707,1,0,0:0:0:0:
428,216,50972,6,0,L|267:155,1,144,0|0,1:0|2:0,0:0:0:0:
64,164,51503,1,8,1:0:0:0:
168,64,51769,1,4,1:3:0:0:
492,64,52034,6,0,L|344:64,1,144,4|0,0:2|0:0,0:0:0:0:
164,164,52565,2,0,P|180:104|248:64,1,144,8|0,0:0|2:0,0:0:0:0:
40,64,53096,1,4,0:3:0:0:
200,164,53362,1,0,1:0:0:0:
488,212,53627,2,0,L|344:192,1,144,8|0,0:0|0:0,0:0:0:0:
116,344,54158,5,0,1:2:0:0:
296,192,54424,1,0,0:0:0:0:
64,192,54689,2,0,L|224:192,1,144,8|0,0:0|0:0,0:0:0:0:
460,192,55220,2,0,P|436:260|376:292,1,144,0|0,0:0|0:0,0:0:0:0:
156,288,55751,1,8,1:0:0:0:
328,292,56017,1,4,1:3:0:0:
56,288,56282,6,0,P|28:212|64:148,1,144,4|0,0:2|0:0,0:0:0:0:
260,160,56813,1,8,1:0:0:0:
388,160,57079,1,0,0:0:0:0:
180,256,57344,2,0,L|328:256,1,144,4|0,0:3|0:0,0:0:0:0:
116,256,57875,1,8,0:0:0:0:
296,192,58141,1,0,0:0:0:0:
24,192,58406,6,0,L|152:116,1,144,4|0,0:3|0:0,0:0:0:0:
364,124,58937,1,8,0:0:0:0:
192,72,59203,1,0,0:0:0:0:
428,124,59468,2,0,L|434:274,1,144,8|0,0:0|0:0,0:0:0:0:
216,264,59999,5,8,0:0:0:0:
304,264,60132,1,4,0:3:0:0:
216,264,60264,1,8,0:0:0:0:
468,268,60397,1,4,2:2:0:0:
256,192,62521,12,0,64512,0:0:0:0:
232,192,64645,6,0,P|180:156|240:80,1,180,4|4,0:0|0:3,0:0:0:0:
436,80,65043,2,0,L|452:176,1,90,8|0,0:0|0:0,0:0:0:0:
312,172,65309,2,0,L|328:268,1,90,4|0,0:3|0:0,0:0:0:0:
188,264,65574,2,0,L|204:360,1,90,8|0,0:0|0:0,0:0:0:0:
396,352,65840,6,0,L|304:352,1,90,4|0,0:3|0:0,0:0:0:0:
168,352,66105,2,0,L|260:352,1,90,8|0,0:0|0:0,0:0:0:0:
120,352,66371,2,0,L|204:292,2,90,0|8|8,1:0|0:0|1:0,0:0:0:0:
344,352,66769,6,0,P|416:320|448:224,1,180,4|4,0:0|0:3,0:0:0:0:
312,228,67167,2,0,L|228:180,1,90,8|0,0:0|0:0,0:0:0:0:
372,168,67433,2,0,L|288:120,1,90,4|0,0:3|0:0,0:0:0:0:
432,108,67698,2,0,L|348:60,1,90,8|0,0:0|0:0,0:0:0:0:
156,64,67964,6,0,L|56:64,1,90,0|8,1:0|0:0,0:0:0:0:
111,64,68163,1,8,0:0:0:0:
156,64,68229,1,8,0:0:0:0:
28,180,68362,1,0,1:0:0:0:
233,183,68495,1,8,0:0:0:0:
325,239,68627,1,0,1:0:0:0:
345,343,68760,1,4,0:3:0:0:
84,340,68893,6,0,P|24:284|84:236,1,180,4|0,1:2|2:0,0:0:0:0:
228,240,69291,2,0,L|308:192,1,90,8|0,0:0|0:0,0:0:0:0:
192,192,69557,2,0,L|184:96,1,90,0|0,1:0|0:0,0:0:0:0:
328,104,69822,2,0,L|407:57,1,90,8|0,0:0|0:0,0:0:0:0:
276,104,70087,6,0,L|359:55,1,90,0|4,1:0|0:3,0:0:0:0:
220,32,70353,2,0,L|129:84,1,90,8|0,0:0|0:0,0:0:0:0:
276,104,70618,1,0,1:0:0:0:
152,104,70751,1,0,1:0:0:0:
268,104,70884,1,8,0:0:0:0:
68,104,71017,6,0,P|64:192|136:236,1,180,4|0,0:0|0:0,0:0:0:0:
272,236,71415,2,0,L|188:192,1,90,8|0,0:0|0:0,0:0:0:0:
300,192,71680,2,0,L|380:144,1,90,0|0,1:0|0:0,0:0:0:0:
240,128,71946,2,0,L|320:80,1,90,8|0,0:0|0:0,0:0:0:0:
180,84,72211,5,0,1:0:0:0:
280,84,72344,1,8,0:3:0:0:
417,81,72477,1,8,0:0:0:0:
317,81,72610,1,0,0:0:0:0:
120,84,72742,1,0,1:0:0:0:
52,160,72875,1,8,0:0:0:0:
120,236,73008,1,8,0:0:0:0:
316,240,73141,6,0,B|408:240|408:240|468:320,1,180,4|0,0:0|0:0,0:0:0:0:
316,312,73539,1,8,0:0:0:0:
116,308,73672,2,0,L|60:236,1,90,0|0,0:0|1:0,0:0:0:0:
204,244,73937,2,0,L|260:172,1,90,0|8,0:0|0:0,0:0:0:0:
458,108,74203,6,0,L|402:179,1,90,0|0,0:0|1:0,0:0:0:0:
259,172,74468,2,0,L|314:243,1,90,0|8,0:0|0:0,0:0:0:0:
116,244,74733,1,0,0:0:0:0:
52,185,74866,1,0,1:0:0:0:
68,100,74999,1,8,0:0:0:0:
148,69,75132,1,8,1:0:0:0:
356,72,75264,6,0,L|456:72,1,90,4|0,0:0|0:0,0:0:0:0:
336,72,75530,2,0,L|328:172,1,90,0|8,0:0|0:0,0:0:0:0:
192,192,75795,2,0,L|100:192,1,90,0|0,0:0|1:0,0:0:0:0:
240,260,76061,2,0,L|300:192,1,90,0|8,0:0|0:0,0:0:0:0:
156,192,76326,1,0,0:0:0:0:
372,192,76459,6,0,L|464:192,1,90,2|0,1:2|0:0,0:0:0:0:
484,152,76658,1,0,0:0:0:0:
343,113,76725,2,0,L|299:192,1,90,10|0,1:2|0:0,0:0:0:0:
420,192,76990,1,2,1:2:0:0:
456,232,77057,1,2,0:2:0:0:
464,288,77123,1,4,0:3:0:0:
428,328,77189,1,2,0:2:0:0:
380,332,77256,1,8,1:0:0:0:
164,328,77388,6,0,B|72:328|72:328|12:228,1,180,4|2,0:0|0:0,0:0:0:0:
164,256,77787,2,0,L|180:160,1,90,8|0,0:0|0:0,0:0:0:0:
40,164,78052,2,0,L|56:68,1,90,0|0,1:0|0:0,0:0:0:0:
192,168,78318,2,0,L|208:72,1,90,8|0,0:0|0:0,0:0:0:0:
400,80,78583,6,0,L|308:80,1,90,0|0,1:0|0:0,0:0:0:0:
424,152,78849,2,0,L|332:152,1,90,8|0,0:0|0:0,0:0:0:0:
144,152,79114,1,0,1:0:0:0:
239,152,79247,1,2,1:2:0:0:
334,152,79380,1,8,0:0:0:0:
108,152,79512,6,0,B|108:244|108:244|208:304,1,180,6|0,0:0|0:0,0:0:0:0:
320,204,79910,2,0,L|305:292,1,90,8|0,0:0|0:0,0:0:0:0:
167,200,80176,2,0,L|152:288,1,90,0|0,1:0|0:0,0:0:0:0:
292,292,80441,2,0,L|277:380,1,90,8|0,0:0|0:0,0:0:0:0:
84,308,80707,6,0,L|176:308,1,90,0|0,1:0|0:0,0:0:0:0:
60,380,80972,2,0,L|152:380,1,90,8|0,0:0|0:0,0:0:0:0:
340,380,81238,1,0,1:0:0:0:
245,380,81371,1,4,0:3:0:0:
340,380,81503,1,8,0:0:0:0:
108,312,81636,6,0,P|96:248|176:180,1,180,4|0,0:0|0:0,0:0:0:0:
312,180,82034,2,0,L|208:180,1,90,8|0,0:0|0:0,0:0:0:0:
332,180,82300,2,0,L|340:88,1,90,0|0,1:0|0:0,0:0:0:0:
204,92,82565,2,0,L|308:92,1,90,8|0,0:0|0:0,0:0:0:0:
104,24,82831,6,0,L|204:24,1,90,0|0,1:0|0:0,0:0:0:0:
339,90,83096,2,0,L|239:90,1,90,8|0,0:0|0:0,0:0:0:0:
440,168,83362,1,0,1:0:0:0:
348,168,83495,1,4,0:3:0:0:
260,168,83627,1,8,0:0:0:0:
452,168,83760,1,4,0:3:0:0:
236,168,83893,6,0,B|144:168|144:168|96:168|96:228,1,180,4|8,2:0|1:0,0:0:0:0:
188,228,84291,1,4,0:3:0:0:
324,292,84424,2,0,L|336:384,1,90,8|4,0:0|0:3,0:0:0:0:
200,292,84689,2,0,L|188:384,1,90,8|4,0:0|0:3,0:0:0:0:
414,292,84955,6,0,L|318:292,1,90,8|4,0:0|0:3,0:0:0:0:
110,292,85220,2,0,L|206:292,1,90,8|4,0:0|0:3,0:0:0:0:
392,204,85486,2,0,L|308:156,2,90,8|0|8,0:0|1:0|1:3,0:0:0:0:
120,204,85884,5,4,0:0:0:0:
212,192,89468,5,2,0:0:0:0:
448,192,89733,2,0,L|472:92,1,90,0|4,0:0|0:3,0:0:0:0:
139,48,90132,6,0,P|91:118|135:191,1,180,4|0,0:0|0:0,0:0:0:0:
284,196,90530,2,0,L|364:244,1,90,8|0,0:0|0:0,0:0:0:0:
228,268,90795,1,0,1:0:0:0:
328,268,90928,1,0,0:0:0:0:
176,352,91061,2,0,L|80:352,1,90,8|0,0:0|0:0,0:0:0:0:
196,268,91326,5,0,1:0:0:0:
104,268,91459,1,0,0:0:0:0:
244,192,91592,2,0,L|164:146,1,90,8|0,0:0|0:0,0:0:0:0:
364,192,91857,2,0,L|447:144,1,90,0|0,0:0|1:0,0:0:0:0:
392,72,92123,1,8,0:0:0:0:
176,72,92256,6,0,P|116:84|64:192,1,180,4|0,0:0|0:0,0:0:0:0:
212,180,92654,2,0,L|120:180,1,90,8|0,0:0|0:0,0:0:0:0:
240,180,92919,2,0,L|256:88,1,90,8|0,0:0|1:0,0:0:0:0:
120,88,93185,1,8,0:0:0:0:
348,184,93318,6,0,B|440:184|440:184|475:226,1,135,4|0,0:0|0:0,0:0:0:0:
494,253,93583,1,8,0:0:0:0:
360,328,93716,1,0,0:0:0:0:
476,328,93849,1,0,1:0:0:0:
256,328,93981,1,8,0:0:0:0:
208,244,94114,1,0,1:0:0:0:
280,184,94247,1,8,1:0:0:0:
64,184,94380,6,0,P|24:128|88:56,1,180,4|0,0:0|0:0,0:0:0:0:
224,60,94778,2,0,L|156:120,1,90,8|0,0:0|0:0,0:0:0:0:
356,120,95043,1,0,1:0:0:0:
432,172,95176,1,2,0:0:0:0:
416,260,95309,1,8,0:0:0:0:
216,260,95441,6,0,P|152:248|100:148,1,180,0|0,0:0|0:0,0:0:0:0:
244,156,95840,2,0,L|340:164,1,90,8|0,0:0|0:0,0:0:0:0:
124,156,96105,1,0,1:0:0:0:
324,268,96238,2,0,L|424:268,1,90,0|8,1:0|0:0,0:0:0:0:
186,268,96503,6,0,P|126:252|70:144,1,180,4|0,0:0|0:0,0:0:0:0:
214,156,96902,2,0,L|312:156,1,90,8|0,0:0|0:0,0:0:0:0:
96,76,97167,2,0,L|186:23,2,90,0|0|8,1:0|0:0|0:0,0:0:0:0:
292,72,97565,6,0,L|368:120,1,90,0|0,0:0|1:0,0:0:0:0:
220,72,97831,2,0,L|296:120,1,90,0|8,0:0|0:0,0:0:0:0:
96,76,98096,2,0,L|172:124,1,90,0|2,0:0|2:0,0:0:0:0:
296,120,98362,1,0,1:0:0:0:
104,124,98495,2,0,L|28:172,1,90,8|0,0:0|0:0,0:0:0:0:
244,172,98760,6,0,L|340:172,1,90,4|0,0:0|0:0,0:0:0:0:
188,172,99026,2,0,P|116:196|84:292,1,180,8|0,0:0|1:0,0:0:0:0:
172,288,99424,1,0,0:0:0:0:
316,288,99557,2,0,L|388:232,1,90,8|0,0:0|0:0,0:0:0:0:
240,232,99822,5,0,1:0:0:0:
332,232,99955,1,0,0:0:0:0:
188,232,100087,2,0,L|172:144,1,90,8|0,0:0|0:0,0:0:0:0:
316,148,100353,2,0,L|399:99,1,90,0|0,1:0|0:0,0:0:0:0:
254,187,100618,2,0,L|337:235,1,90,8|0,0:0|0:0,0:0:0:0:
96,232,100884,6,0,P|56:188|92:76,1,180,4|8,0:0|1:3,0:0:0:0:
176,80,101282,1,0,0:0:0:0:
312,80,101415,2,0,L|336:180,1,90,8|0,1:0|0:0,0:0:0:0:
232,168,101680,2,0,L|208:268,1,90,8|0,1:0|0:0,0:0:0:0:
412,260,101946,5,8,1:0:0:0:
446,195,102079,1,4,0:3:0:0:
429,123,102211,1,4,1:3:0:0:
370,80,102344,1,8,1:3:0:0:
156,80,102477,2,0,B|64:80|64:80|28:160,1,180,4|4,0:0|0:3,0:0:0:0:
388,192,103008,6,0,P|432:204|484:284,1,144,4|0,0:0|0:0,0:0:0:0:
284,280,103539,2,0,L|140:280,1,135,8|0,0:0|0:0,0:0:0:0:
364,192,104070,1,0,1:0:0:0:
184,192,104335,1,0,0:0:0:0:
416,192,104601,2,0,P|480:156|492:68,1,144,8|0,0:0|0:0,0:0:0:0:
176,60,105132,6,0,L|320:60,1,144,0|0,1:0|0:0,0:0:0:0:
80,60,105663,2,0,P|44:136|40:200,1,144,8|0,0:0|0:0,0:0:0:0:
256,200,106194,2,0,L|400:192,1,144,4|0,0:3|0:0,0:0:0:0:
80,192,106725,2,0,L|104:348,1,144,8|0,0:0|1:0,0:0:0:0:
476,336,107256,6,0,L|328:336,1,144,4|0,0:0|0:0,0:0:0:0:
128,332,107787,1,8,0:0:0:0:
288,336,108052,1,0,0:0:0:0:
116,332,108318,1,0,1:0:0:0:
316,336,108583,1,0,0:0:0:0:
76,332,108849,2,0,L|32:192,1,144,8|0,0:0|0:0,0:0:0:0:
352,200,109380,6,0,L|500:192,1,144,0|0,1:0|0:0,0:0:0:0:
268,116,109910,2,0,L|416:108,1,144,8|0,0:0|0:0,0:0:0:0:
168,112,110441,2,0,L|48:192,1,144,4|0,0:3|0:0,0:0:0:0:
248,232,110972,1,8,0:0:0:0:
72,232,111238,1,8,1:3:0:0:
392,236,111503,6,0,B|464:236|464:236|488:160,1,144,4|0,0:0|1:0,0:0:0:0:
272,168,112034,1,8,0:0:0:0:
128,168,112300,1,0,0:0:0:0:
300,168,112565,1,0,1:0:0:0:
96,168,112831,1,0,0:0:0:0:
324,168,113096,2,0,L|468:168,1,144,8|0,0:0|0:0,0:0:0:0:
148,168,113627,6,0,L|88:20,1,144,0|0,1:0|0:0,0:0:0:0:
312,164,114158,2,0,L|252:16,1,144,8|0,0:0|0:0,0:0:0:0:
476,32,114689,2,0,L|320:32,1,144,0|0,1:0|0:0,0:0:0:0:
144,148,115220,1,8,0:0:0:0:
376,148,115486,1,8,1:3:0:0:
56,148,115751,6,0,L|44:312,1,144,4|0,0:0|0:0,0:0:0:0:
276,292,116282,1,8,0:0:0:0:
104,292,116548,1,0,0:0:0:0:
424,292,116813,2,0,L|436:128,1,144,4|0,2:0|0:0,0:0:0:0:
204,148,117344,1,8,0:0:0:0:
380,148,117610,1,0,0:0:0:0:
60,148,117875,6,0,L|204:148,1,144,4|0,0:0|0:0,0:0:0:0:
32,240,118406,1,12,0:0:0:0:
220,240,118672,1,0,0:0:0:0:
452,240,118937,2,0,L|304:240,1,144,8|4,0:0|3:0,0:0:0:0:
257,225,119269,1,4,3:0:0:0:
231,180,119335,1,4,3:0:0:0:
246,129,119402,1,4,3:0:0:0:
292,104,119468,2,0,L|364:104,1,72,8|4,0:0|0:3,0:0:0:0:
256,32,119733,2,0,L|176:32,1,72,0|4,1:0|0:3,0:0:0:0:
440,32,119999,6,0,P|468:88|448:168,1,144,4|0,0:0|0:0,0:0:0:0:
232,164,120530,2,0,L|88:192,1,144,8|0,0:0|0:0,0:0:0:0:
280,196,121061,1,0,1:0:0:0:
408,312,121326,1,0,0:0:0:0:
192,312,121592,2,0,L|336:312,1,144,8|0,0:0|0:0,0:0:0:0:
132,312,122123,6,0,B|68:276|68:276|68:204,1,144,0|0,1:0|0:0,0:0:0:0:
268,208,122654,2,0,L|120:192,1,144,8|0,0:0|0:0,0:0:0:0:
444,212,123185,2,0,P|456:144|428:68,1,144,0|0,1:0|0:0,0:0:0:0:
216,72,123716,2,0,L|60:72,1,144,12|0,1:2|0:0,0:0:0:0:
392,72,124247,6,0,P|468:120|392:192,1,225,4|0,0:0|0:0,0:0:0:0:
72,192,124778,2,0,P|92:260|160:288,1,144,8|0,0:0|0:0,0:0:0:0:
388,228,125309,1,0,1:0:0:0:
224,228,125574,1,0,0:0:0:0:
460,228,125840,2,0,L|476:372,1,144,8|0,0:0|0:0,0:0:0:0:
156,368,126371,6,0,L|12:368,1,144,0|0,1:0|0:0,0:0:0:0:
248,268,126902,2,0,L|372:192,1,144,8|0,1:0|0:0,0:0:0:0:
176,192,127433,1,8,0:0:0:0:
496,192,127698,1,4,1:2:0:0:
164,192,127964,1,4,1:2:0:0:
328,192,128229,2,0,L|336:112,1,72,4|8,3:0|3:0,0:0:0:0:
132,120,128495,6,0,B|48:120|48:120|48:184,1,144,4|0,0:0|0:0,0:0:0:0:
244,216,129026,2,0,L|376:272,1,144,8|0,1:0|0:0,0:0:0:0:
204,272,129557,1,0,1:0:0:0:
404,272,129822,1,0,0:0:0:0:
180,272,130087,2,0,L|60:192,1,144,8|0,1:0|0:0,0:0:0:0:
388,196,130618,6,0,P|452:128|368:72,1,216,0|0,1:0|1:0,0:0:0:0:
232,72,131149,2,0,L|84:72,1,144,8|0,0:0|1:0,0:0:0:0:
332,160,131680,2,0,L|188:192,1,144,0|0,1:0|0:0,0:0:0:0:
436,160,132211,2,0,L|456:308,1,144,8|4,1:0|1:3,0:0:0:0:
96,300,132742,6,0,P|32:260|12:192,1,144,4|0,0:0|0:0,0:0:0:0:
232,196,133273,1,8,0:0:0:0:
44,196,133539,1,0,0:0:0:0:
364,196,133804,1,0,1:0:0:0:
176,196,134070,1,0,0:0:0:0:
496,196,134335,2,0,P|504:136|476:56,1,144,8|8,0:0|1:3,0:0:0:0:
96,60,134866,5,4,0:0:0:0:
360,324,136990,6,0,P|388:260|348:204,1,135,12|0,1:3|2:0,0:0:0:0:
184,208,137256,1,4,0:3:0:0:
144,164,137322,1,4,0:3:0:0:
144,106,137388,1,4,0:3:0:0:
184,63,137455,1,4,0:3:0:0:
356,64,137521,2,0,L|408:64,1,45,8|8,1:0|1:0,0:0:0:0:
448,136,137654,2,0,L|392:136,1,45,8|8,1:0|1:0,0:0:0:0:
228,136,137787,1,4,3:3:0:0:
169,146,137853,1,4,3:3:0:0:
126,186,137919,1,4,3:3:0:0:
111,244,137986,1,4,3:3:0:0:
316,248,138052,6,0,L|488:248,1,161.999995056153,4|0,1:2|0:0,0:0:0:0:
