osu file format v14

[General]
AudioFilename: audio.mp3
AudioLeadIn: 0
PreviewTime: -1
Countdown: 0
SampleSet: None
StackLeniency: 0.7
Mode: 2
LetterboxInBreaks: 0
WidescreenStoryboard: 0

[Editor]
DistanceSpacing: 1.1
BeatDivisor: 2
GridSize: 8
TimelineZoom: 2.2

[Metadata]
Title:King For A Day (feat Kellin Quinn)
TitleUnicode:King For A Day (feat Kellin Quinn)
Artist:Pierce The Veil
ArtistUnicode:Pierce The Veil
Creator:Spectator
Version:Bodom's Salad
Source:
Tags:collide the sky metal punk sleeping with sirens
BeatmapID:1332033
BeatmapSetID:629069

[Difficulty]
HPDrainRate:4
CircleSize:3.5
OverallDifficulty:7.3
ApproachRate:7.3
SliderMultiplier:1.5
SliderTickRate:1

[Events]
//Background and Video events
0,0,"BG.png",0,0
//Break Periods
2,69093,76534
//Storyboard Layer 0 (Background)
//Storyboard Layer 1 (Fail)
//Storyboard Layer 2 (Pass)
//Storyboard Layer 3 (Foreground)
//Storyboard Sound Samples

[TimingPoints]
9557,265.486725663717,4,2,1,80,1,0
41415,-200,4,2,1,80,0,0
43539,-133.333333333333,4,1,1,80,0,0
62521,-133.333333333333,4,1,1,30,0,0
62654,-133.333333333333,4,1,1,32,0,0
62787,-133.333333333333,4,1,1,34,0,0
62919,-133.333333333333,4,1,1,36,0,0
63052,-133.333333333333,4,1,1,38,0,0
63185,-133.333333333333,4,1,1,40,0,0
63318,-133.333333333333,4,1,1,42,0,0
63451,-133.333333333333,4,1,1,44,0,0
63583,-133.333333333333,4,1,1,46,0,0
63716,-133.333333333333,4,1,1,48,0,0
63849,-133.333333333333,4,1,1,50,0,0
63981,-133.333333333333,4,1,1,52,0,0
64114,-133.333333333333,4,1,1,54,0,0
64247,-133.333333333333,4,1,1,56,0,0
64380,-133.333333333333,4,1,1,58,0,0
64512,-133.333333333333,4,1,1,60,0,0
64645,-100,4,2,1,80,0,0
68893,-133.333333333333,4,2,1,70,0,0
77388,-100,4,2,1,80,0,0
90132,-100,4,2,1,80,0,1
90198,-100,4,2,1,80,0,0
103008,-133.333333333333,4,2,1,80,0,1
119733,-133.333333333333,4,2,1,60,0,1
119999,-133.333333333333,4,2,1,80,0,1
134866,-125,4,2,1,80,0,0
136990,-125,4,2,1,70,0,0
137189,-111.111111111111,4,2,1,70,0,1
137521,-111.111111111111,4,2,1,50,0,1
137787,-111.111111111111,4,2,1,70,0,1
138052,-111.111111111111,4,2,1,80,0,0

[Colours]
Combo1 : 132,142,166
Combo2 : 164,148,117
Combo3 : 124,171,139
Combo4 : 119,147,162

[HitObjects]
224,320,9291,5,0,1:0:0:0:
304,296,9424,2,0,P|336:184|320:168,1,150,4|4,0:3|0:3,0:0:0:0:
248,152,9822,2,0,P|216:40|232:24,1,150,8|4,0:0|0:3,0:0:0:0:
312,32,10220,1,0,0:0:0:0:
392,56,10353,6,0,P|411:135|408:216,1,150,8|4,0:0|0:3,0:0:0:0:
368,272,10751,1,0,0:0:0:0:
288,304,10884,1,8,0:0:0:0:
136,240,11149,1,4,0:3:0:0:
128,160,11282,1,4,0:3:0:0:
48,160,11415,1,8,0:0:0:0:
128,160,11548,6,0,P|208:200|216:288,1,150,4|0,0:0|0:0,0:0:0:0:
144,256,11946,2,0,B|48:256|48:256|224:256,1,225,8|0,0:0|0:0,0:0:0:0:
256,253,12477,6,0,B|352:253|352:253|176:253,1,225,8|4,0:0|0:3,0:0:0:0:
144,248,13008,2,0,P|32:152|48:104,1,150,8|0,0:0|0:0,0:0:0:0:
96,120,13406,1,4,0:3:0:0:
160,72,13539,1,8,0:0:0:0:
224,24,13672,6,0,L|64:24,1,150,4|4,0:0|0:3,0:0:0:0:
160,24,14070,2,0,L|408:24,1,225,8|0,0:0|0:0,0:0:0:0:
464,24,14601,6,0,L|464:240,1,150,8|4,0:0|0:3,0:0:0:0:
240,176,15132,2,0,L|240:24,1,150,8|4,0:0|0:3,0:0:0:0:
160,40,15530,1,0,1:0:0:0:
104,96,15663,1,8,0:0:0:0:
88,176,15795,6,0,P|184:225|232:169,1,150,4|0,0:0|0:0,0:0:0:0:
264,144,16194,2,0,P|376:200|280:336,1,300,8|8,0:0|0:0,0:0:0:0:
120,304,16990,5,0,1:0:0:0:
200,288,17123,1,4,0:3:0:0:
136,232,17256,1,4,0:3:0:0:
216,208,17388,1,8,0:0:0:0:
296,192,17521,1,0,0:0:0:0:
248,112,17654,1,8,0:0:0:0:
328,104,17787,1,8,0:0:0:0:
408,96,17919,6,0,P|464:240|456:256,1,150,4|4,0:0|0:3,0:0:0:0:
376,248,18318,2,0,L|360:336,3,75,8|2|0|2,0:0|0:0|0:0|0:0,0:0:0:0:
264,320,18849,6,0,P|152:256|160:200,1,150,8|0,0:0|0:0,0:0:0:0:
160,152,19247,1,4,0:3:0:0:
200,80,19380,1,8,0:0:0:0:
360,96,19645,2,0,L|400:168,2,75,0|2|8,0:0|0:0|0:0,0:0:0:0:
296,48,20043,6,0,L|120:48,1,150,4|4,0:0|0:3,0:0:0:0:
88,112,20441,2,0,P|120:216|160:232,1,150,8|4,0:0|0:3,0:0:0:0:
312,232,20972,1,8,0:0:0:0:
464,176,21238,6,0,L|504:112,2,75,4|0|8,0:3|0:0|0:0,0:0:0:0:
240,136,21769,2,0,L|200:72,2,75,4|0|4,0:3|1:0|0:3,0:0:0:0:
336,104,22167,6,0,P|368:232|296:344,1,225,4|8,0:0|0:0,0:0:0:0:
232,312,22698,2,0,P|152:184|192:104,1,225,0|8,0:0|0:0,0:0:0:0:
264,88,23229,1,4,0:3:0:0:
352,24,23362,6,0,P|472:144|480:192,2,225,8|0|4,0:0|0:0|0:3,0:0:0:0:
160,24,24424,6,0,P|40:144|32:192,2,225,4|2|8,0:0|0:0|0:0,0:0:0:0:
256,192,25486,12,0,26548,0:0:0:0:
144,264,26813,5,8,0:0:0:0:
336,216,27079,2,0,L|408:192,2,75,0|0|8,1:0|0:0|0:0,0:0:0:0:
152,144,27610,6,0,L|64:104,2,75,0|0|8,1:0|0:0|0:0,0:0:0:0:
344,160,28141,1,0,1:0:0:0:
400,80,28273,1,0,1:0:0:0:
304,72,28406,6,0,P|216:128|344:248,1,300,8|8,0:0|0:0,0:0:0:0:
464,144,29203,1,0,1:0:0:0:
384,128,29335,1,0,0:0:0:0:
304,112,29468,1,8,0:0:0:0:
112,120,29733,5,0,1:0:0:0:
192,104,29865,1,0,0:0:0:0:
272,88,29998,1,8,0:0:0:0:
424,112,30264,1,0,1:0:0:0:
432,184,30397,1,8,0:0:0:0:
424,256,30530,6,0,P|384:320|200:248,1,300,8|8,0:0|0:0,0:0:0:0:
328,176,31326,1,0,1:0:0:0:
360,112,31459,1,0,0:0:0:0:
368,40,31592,1,8,0:0:0:0:
248,136,31857,5,0,1:0:0:0:
216,72,31990,1,0,0:0:0:0:
208,0,32123,2,0,P|200:128|232:184,1,150,8|2,0:0|0:0,0:0:0:0:
344,200,32654,6,0,P|448:120|328:40,1,300,8|8,0:0|0:0,0:0:0:0:
208,80,33450,2,0,L|136:128,2,75,0|0|8,0:0|1:0|0:0,0:0:0:0:
352,120,33981,6,0,L|376:224,3,75,0|8|8|0,0:0|0:0|0:0|1:0,0:0:0:0:
296,200,34512,2,0,L|256:272,2,75,8|8|0,0:0|0:0|1:0,0:0:0:0:
368,208,34910,6,0,P|376:80|280:24,1,225,4|8,0:0|0:0,0:0:0:0:
112,48,35574,2,0,L|56:128,2,75,0|0|8,1:0|0:0|0:0,0:0:0:0:
280,144,36105,6,0,L|336:224,2,75,0|0|8,0:0|0:0|0:0,0:0:0:0:
88,104,36636,1,0,1:0:0:0:
64,200,36769,1,0,1:0:0:0:
160,232,36902,1,8,0:0:0:0:
200,320,37034,5,4,0:0:0:0:
344,280,37300,2,0,L|360:200,1,75,0|8,0:0|0:0,0:0:0:0:
168,184,37698,2,0,L|136:72,2,75,0|0|8,1:0|0:0|0:0,0:0:0:0:
360,200,38229,6,0,L|368:104,2,75,0|8|8,1:0|0:0|0:0,0:0:0:0:
168,184,38760,2,0,L|160:88,2,75,8|0|8,0:0|0:0|0:0,0:0:0:0:
216,264,39158,6,0,P|328:184|344:96,2,225,0|8|0,1:0|0:0|1:0,0:0:0:0:
120,248,40087,2,0,L|96:72,1,150,8|0,0:0|1:0,0:0:0:0:
288,64,40618,6,0,L|424:224,1,150,8|8,0:0|0:0,0:0:0:0:
192,208,41149,1,8,0:0:0:0:
376,264,41415,6,0,P|456:168|304:248,1,525,4|0,0:0|0:0,0:0:0:0:
448,248,43539,6,0,L|456:112,1,112.500004291535,4|0,0:2|2:0,0:0:0:0:
312,152,44070,2,0,L|304:16,1,112.500004291535,8|0,1:0|0:0,0:0:0:0:
160,56,44601,6,0,L|136:208,1,112.500004291535,4|0,1:3|2:0,0:0:0:0:
280,208,45132,2,0,L|144:272,1,112.500004291535,8|0,1:0|2:0,0:0:0:0:
328,256,45663,6,0,L|376:112,1,112.500004291535,4|0,1:3|2:0,0:0:0:0:
216,152,46194,2,0,L|96:112,2,112.500004291535,8|0|4,1:0|2:0|1:3,0:0:0:0:
352,200,46990,5,0,1:0:0:0:
264,320,47256,2,0,L|392:288,1,112.500004291535,8|0,1:0|1:0,0:0:0:0:
232,264,47787,6,0,L|72:240,1,112.500004291535,4|0,0:2|1:0,0:0:0:0:
256,200,48318,2,0,L|400:176,1,112.500004291535,8|0,1:0|0:0,0:0:0:0:
224,144,48849,6,0,L|208:24,1,112.500004291535,0|0,1:0|2:0,0:0:0:0:
352,72,49380,1,8,1:0:0:0:
224,144,49645,1,0,2:0:0:0:
360,200,49910,6,0,L|368:352,1,112.500004291535,0|0,0:0|0:0,0:0:0:0:
200,296,50441,1,8,0:0:0:0:
328,224,50706,1,0,0:0:0:0:
192,168,50972,6,0,P|120:224|96:272,2,112.500004291535,0|0|8,1:0|2:0|1:0,0:0:0:0:
360,152,51769,1,4,1:3:0:0:
472,168,52034,6,0,P|448:72|392:64,1,112.500004291535,4|0,0:2|0:0,0:0:0:0:
280,56,52565,1,8,0:0:0:0:
128,128,52831,2,0,P|80:232|96:264,1,112.500004291535,0|4,2:0|0:3,0:0:0:0:
248,240,53362,5,0,1:0:0:0:
416,232,53627,2,0,L|312:144,1,112.500004291535,8|0,0:0|0:0,0:0:0:0:
160,144,54158,6,0,L|96:32,2,112.500004291535,0|0|8,1:2|0:0|0:0,0:0:0:0:
328,176,54955,1,0,0:0:0:0:
160,144,55220,6,0,L|24:200,2,112.500004291535,0|0|8,0:0|0:0|1:0,0:0:0:0:
328,128,56017,1,4,1:3:0:0:
488,184,56282,6,0,P|440:96|384:80,1,112.500004291535,4|0,0:2|0:0,0:0:0:0:
264,96,56813,1,8,1:0:0:0:
424,48,57079,1,0,0:0:0:0:
256,80,57344,6,0,L|224:224,1,112.500004291535,4|0,0:3|0:0,0:0:0:0:
392,248,57875,1,8,0:0:0:0:
224,280,58141,1,0,0:0:0:0:
368,192,58406,6,0,L|408:40,1,112.500004291535,4|0,0:3|0:0,0:0:0:0:
224,88,58937,1,8,0:0:0:0:
392,72,59203,1,0,0:0:0:0:
224,80,59468,6,0,L|80:88,2,112.500004291535,8|0|8,0:0|0:0|0:0,0:0:0:0:
296,72,60132,1,4,0:3:0:0:
256,136,60264,1,8,0:0:0:0:
328,136,60397,6,0,P|360:200|144:112,1,675.000025749207,4|0,2:2|0:0,0:0:0:0:
256,192,62256,12,4,64645,0:0:0:0:
408,160,64910,5,4,0:3:0:0:
312,160,65043,1,8,0:0:0:0:
120,120,65309,1,4,0:3:0:0:
312,88,65574,1,8,0:0:0:0:
152,200,65840,6,0,L|120:360,1,150,4|8,0:3|0:0,0:0:0:0:
312,296,66371,2,0,L|368:200,2,75,0|8|8,1:0|0:0|1:0,0:0:0:0:
64,136,67034,5,4,0:3:0:0:
160,136,67167,1,8,0:0:0:0:
352,128,67433,1,4,0:3:0:0:
160,88,67698,1,8,0:0:0:0:
256,192,67964,12,4,68893,1:2:0:0:
152,304,77388,6,0,L|344:296,1,150,4|2,0:0|0:0,0:0:0:0:
280,216,77787,2,0,L|128:200,1,150,8|0,0:0|1:0,0:0:0:0:
312,120,78318,1,8,0:0:0:0:
120,88,78583,6,0,L|64:304,1,150,0|8,1:0|0:0,0:0:0:0:
280,248,79114,2,0,L|344:208,2,75,0|2|8,1:0|1:2|0:0,0:0:0:0:
336,168,79512,6,0,L|368:0,1,150,6|0,0:0|0:0,0:0:0:0:
264,8,79910,2,0,L|112:56,1,150,8|0,0:0|1:0,0:0:0:0:
304,128,80441,6,0,L|384:272,1,150,8|0,0:0|1:0,0:0:0:0:
184,272,80972,2,0,L|152:112,1,150,8|0,0:0|1:0,0:0:0:0:
336,56,81503,1,8,0:0:0:0:
400,136,81636,6,0,P|432:240|312:304,1,225,4|8,0:0|0:0,0:0:0:0:
168,240,82300,2,0,L|304:136,1,150,0|8,1:0|0:0,0:0:0:0:
96,136,82831,6,0,L|56:344,1,150,0|8,1:0|0:0,0:0:0:0:
256,224,83362,2,0,L|280:320,2,75,0|4|8,1:0|0:3|0:0,0:0:0:0:
160,200,83760,6,0,L|136:48,1,150,4|0,0:3|0:0,0:0:0:0:
232,40,84158,2,0,L|352:200,1,150,8|8,1:0|0:0,0:0:0:0:
240,216,84557,2,0,L|216:344,2,75,4|8|4,0:3|0:0|0:3,0:0:0:0:
336,200,84955,6,0,L|360:104,2,75,8|4|8,0:0|0:3|0:0,0:0:0:0:
240,176,85353,2,0,L|184:264,2,75,4|8|0,0:3|0:0|1:0,0:0:0:0:
256,192,85884,12,4,90132,0:0:0:0:
256,320,90397,5,0,0:0:0:0:
344,280,90530,2,0,L|360:88,1,150,8|0,0:0|1:0,0:0:0:0:
168,168,91061,2,0,L|152:360,1,150,8|0,0:0|1:0,0:0:0:0:
200,232,91459,1,0,0:0:0:0:
272,168,91592,6,0,L|368:32,1,150,8|0,0:0|0:0,0:0:0:0:
304,128,91990,2,0,L|280:216,2,75,0|8|4,1:0|0:0|0:0,0:0:0:0:
496,96,92521,6,0,L|504:200,1,75,0|8,0:0|0:0,0:0:0:0:
312,208,92919,2,0,L|248:320,2,75,8|0|8,0:0|1:0|0:0,0:0:0:0:
472,152,93450,6,0,L|488:272,4,75,0|8|0|0|8,0:0|0:0|0:0|1:0|0:0,0:0:0:0:
312,176,94247,1,8,1:0:0:0:
232,168,94380,6,0,P|208:112|208:16,1,150,4|0,0:0|0:0,0:0:0:0:
296,56,94778,2,0,P|328:128|328:240,1,150,8|0,0:0|1:0,0:0:0:0:
248,240,95176,1,2,0:0:0:0:
160,272,95309,6,0,P|72:240|64:160,1,150,8|0,0:0|0:0,0:0:0:0:
248,232,95840,2,0,P|272:176|272:80,1,150,8|0,0:0|1:0,0:0:0:0:
200,80,96238,2,0,L|88:64,1,75,0|8,1:0|0:0,0:0:0:0:
200,80,96503,6,0,P|264:128|312:272,2,225,4|8|0,0:0|0:0|0:0,0:0:0:0:
112,120,97433,6,0,P|48:208|32:344,2,225,8|0|2,0:0|0:0|2:0,0:0:0:0:
304,144,98495,1,8,0:0:0:0:
464,256,98760,6,0,L|496:352,2,75,4|0|8,0:0|0:0|0:0,0:0:0:0:
272,224,99291,2,0,L|224:152,2,75,0|0|8,1:0|0:0|0:0,0:0:0:0:
392,64,99822,6,0,L|456:128,2,75,0|0|8,1:0|0:0|0:0,0:0:0:0:
200,104,100353,2,0,L|96:232,1,150,0|8,1:0|0:0,0:0:0:0:
296,256,100884,6,0,L|312:88,1,150,4|8,0:0|1:3,0:0:0:0:
216,88,101282,2,0,L|144:136,2,75,0|8|0,0:0|1:0|0:0,0:0:0:0:
288,152,101680,6,0,L|320:256,2,75,8|0|8,1:0|0:0|1:0,0:0:0:0:
200,112,102079,2,0,L|168:24,2,75,4|4|8,0:3|1:3|1:3,0:0:0:0:
272,184,102477,2,0,P|304:312|184:360,1,225,4|0,0:0|0:0,0:0:0:0:
168,344,103008,6,0,L|144:192,1,112.500004291535,4|0,0:0|0:0,0:0:0:0:
288,192,103539,2,0,L|152:128,1,112.500004291535,8|0,0:0|0:0,0:0:0:0:
336,144,104070,6,0,L|384:288,1,112.500004291535,0|0,1:0|0:0,0:0:0:0:
224,248,104601,6,0,L|104:288,2,112.500004291535,8|0|0,0:0|0:0|1:0,0:0:0:0:
360,192,105397,6,0,L|488:144,2,112.500004291535,0|8|0,0:0|0:0|0:0,0:0:0:0:
216,200,106194,6,0,L|200:56,1,112.500004291535,4|0,0:3|0:0,0:0:0:0:
352,104,106725,1,8,0:0:0:0:
232,184,106990,1,0,1:0:0:0:
368,240,107256,6,0,L|432:360,2,112.500004291535,4|0|8,0:0|0:0|0:0,0:0:0:0:
224,232,108052,1,0,0:0:0:0:
320,120,108318,5,0,1:0:0:0:
168,88,108583,1,0,0:0:0:0:
288,168,108849,2,0,L|304:320,1,112.500004291535,8|0,0:0|0:0,0:0:0:0:
152,256,109380,6,0,L|48:336,1,112.500004291535,0|0,1:0|0:0,0:0:0:0:
200,272,109910,2,0,L|232:136,1,112.500004291535,8|0,0:0|0:0,0:0:0:0:
88,112,110441,6,0,L|136:-8,1,112.500004291535,4|0,0:3|0:0,0:0:0:0:
272,56,110972,1,8,0:0:0:0:
144,120,111238,1,8,1:3:0:0:
296,168,111503,6,0,L|432:224,2,112.500004291535,4|0|8,0:0|1:0|0:0,0:0:0:0:
160,120,112300,1,0,0:0:0:0:
304,80,112565,5,0,1:0:0:0:
160,112,112831,2,0,L|16:144,2,112.500004291535,0|8|0,0:0|0:0|0:0,0:0:0:0:
296,64,113627,6,0,L|440:96,2,112.500004291535,0|0|8,1:0|0:0|0:0,0:0:0:0:
176,152,114424,1,0,0:0:0:0:
288,248,114689,6,0,L|296:376,1,112.500004291535,0|0,1:0|0:0,0:0:0:0:
168,288,115220,2,0,L|160:144,1,112.500004291535,8|8,0:0|1:3,0:0:0:0:
304,160,115751,6,0,L|448:144,1,112.500004291535,4|0,0:0|0:0,0:0:0:0:
272,120,116282,2,0,L|264:0,1,112.500004291535,8|0,0:0|0:0,0:0:0:0:
120,24,116813,6,0,L|264:16,1,112.500004291535,4|0,2:0|0:0,0:0:0:0:
368,64,117344,2,0,L|224:56,1,112.500004291535,8|0,0:0|0:0,0:0:0:0:
120,104,117875,6,0,L|96:240,1,112.500004291535,4|0,0:0|0:0,0:0:0:0:
248,232,118406,2,0,L|280:368,1,112.500004291535,12|0,0:0|0:0,0:0:0:0:
128,312,118937,5,8,0:0:0:0:
272,272,119203,1,4,3:0:0:0:
320,264,119291,1,0,0:0:0:0:
360,232,119380,1,0,0:0:0:0:
376,184,119468,1,8,0:0:0:0:
360,136,119557,1,0,0:0:0:0:
320,104,119645,1,0,0:0:0:0:
272,96,119733,1,0,1:0:0:0:
144,168,119999,6,0,L|128:40,1,112.500004291535,4|0,0:0|0:0,0:0:0:0:
312,256,120530,2,0,L|336:16,1,225.000008583069,8|0,0:0|1:0,0:0:0:0:
192,56,121326,5,0,0:0:0:0:
328,112,121592,2,0,L|456:128,1,112.500004291535,8|0,0:0|0:0,0:0:0:0:
304,184,122123,6,0,L|168:232,2,112.500004291535,0|0|8,1:0|0:0|0:0,0:0:0:0:
160,160,122919,6,0,L|24:136,2,112.500004291535,0|0|0,0:0|1:0|0:0,0:0:0:0:
304,184,123716,2,0,L|320:328,1,112.500004291535,12|0,1:2|0:0,0:0:0:0:
176,248,124247,6,0,L|48:256,1,112.500004291535,4|0,0:0|0:0,0:0:0:0:
208,216,124778,2,0,L|352:208,1,112.500004291535,8|0,0:0|0:0,0:0:0:0:
464,176,125309,6,0,L|480:32,1,112.500004291535,0|0,1:0|0:0,0:0:0:0:
328,80,125840,1,8,0:0:0:0:
456,152,126105,1,0,0:0:0:0:
320,208,126371,6,0,L|192:288,1,112.500004291535,0|0,1:0|0:0,0:0:0:0:
80,304,126902,2,0,L|208:240,1,112.500004291535,8|0,1:0|0:0,0:0:0:0:
320,200,127433,1,8,0:0:0:0:
160,144,127698,1,4,1:2:0:0:
328,168,127964,2,0,L|352:16,1,112.500004291535,4|4,1:2|3:0,0:0:0:0:
176,88,128495,6,0,P|139:117|136:216,2,112.500004291535,4|0|8,0:0|0:0|1:0,0:0:0:0:
328,160,129291,1,0,0:0:0:0:
192,256,129557,5,0,1:0:0:0:
360,264,129822,2,0,L|368:128,1,112.500004291535,0|8,0:0|1:0,0:0:0:0:
200,168,130353,6,0,P|96:256|88:280,2,112.500004291535,0|0|0,0:0|1:0|0:0,0:0:0:0:
344,72,131149,6,0,P|240:160|232:184,2,112.500004291535,8|0|0,0:0|1:0|1:0,0:0:0:0:
176,112,131946,1,0,0:0:0:0:
280,248,132211,2,0,L|288:360,1,112.500004291535,8|4,1:0|1:3,0:0:0:0:
144,272,132742,6,0,L|288:256,1,112.500004291535,4|0,0:0|0:0,0:0:0:0:
424,216,133273,2,0,L|272:208,1,112.500004291535,8|0,0:0|0:0,0:0:0:0:
144,208,133804,6,0,P|72:112|80:80,1,112.500004291535,0|0,1:0|0:0,0:0:0:0:
240,152,134335,2,0,P|304:64|296:16,1,112.500004291535,8|8,0:0|1:3,0:0:0:0:
64,40,134866,5,4,0:0:0:0:
256,192,136990,12,4,138052,1:2:0:0:
