osu file format v14

[General]
AudioFilename: audio.mp3
AudioLeadIn: 0
PreviewTime: -1
Countdown: 0
SampleSet: Soft
StackLeniency: 0.7
Mode: 2
LetterboxInBreaks: 0
WidescreenStoryboard: 0

[Editor]
Bookmarks: 26415,43539,64645,90132,103008,136990
DistanceSpacing: 1.1
BeatDivisor: 4
GridSize: 8
TimelineZoom: 2.2

[Metadata]
Title:King For A Day (feat Kellin Quinn)
TitleUnicode:King For A Day (feat Kellin Quinn)
Artist:Pierce The Veil
ArtistUnicode:Pierce The Veil
Creator:Spectator
Version:Overdose
Source:
Tags:collide the sky metal punk sleeping with sirens
BeatmapID:1327881
BeatmapSetID:629069

[Difficulty]
HPDrainRate:7
CircleSize:5
OverallDifficulty:9.6
ApproachRate:9.6
SliderMultiplier:1.9
SliderTickRate:1

[Events]
//Background and Video events
0,0,"BG.png",0,0
//Break Periods
2,41615,43030
//Storyboard Layer 0 (Background)
//Storyboard Layer 1 (Fail)
//Storyboard Layer 2 (Pass)
//Storyboard Layer 3 (Foreground)
//Storyboard Sound Samples

[TimingPoints]
9557,265.486725663717,4,2,1,80,1,0
43539,-125,4,1,1,80,0,0
60530,-125,4,1,1,40,0,0
61592,-125,4,1,1,45,0,0
62123,-125,4,1,1,50,0,0
62654,-125,4,1,1,52,0,0
62919,-125,4,1,1,54,0,0
63185,-125,4,1,1,56,0,0
63450,-125,4,1,1,58,0,0
63716,-125,4,1,1,60,0,0
63981,-125,4,1,1,62,0,0
64247,-125,4,1,1,65,0,0
64645,-100,4,2,1,80,0,0
68893,-111.111111111111,4,2,1,70,0,0
77388,-100,4,2,1,80,0,0
90132,-100,4,2,1,80,0,1
90198,-100,4,2,1,80,0,0
103008,-125,4,2,1,80,0,1
134866,-125,4,2,1,80,0,0
137189,-111.111111111111,4,2,1,68,0,1
138052,-111.111111111111,4,2,1,80,0,0

[Colours]
Combo1 : 132,142,166
Combo2 : 164,148,117
Combo3 : 124,171,139
Combo4 : 119,147,162

[HitObjects]
104,216,9291,5,0,1:0:0:0:
398,292,9424,2,0,P|432:249|335:166,1,190,4|0,0:0|0:0,0:0:0:0:
216,96,9822,2,0,L|320:88,1,95,8|0,0:0|0:0,0:0:0:0:
67,299,10087,2,0,L|56:186,1,95,0|0,1:0|0:0,0:0:0:0:
169,160,10353,1,8,0:0:0:0:
80,119,10486,1,0,0:0:0:0:
323,362,10618,2,0,L|334:249,1,95,0|0,1:0|0:0,0:0:0:0:
221,223,10884,1,8,0:0:0:0:
310,182,11017,1,0,0:0:0:0:
57,332,11149,6,0,L|46:231,1,95,0|0,1:0|0:0,0:0:0:0:
136,174,11415,1,8,0:0:0:0:
443,287,11548,6,0,P|456:217|345:142,1,190,4|0,0:0|0:0,0:0:0:0:
270,318,11946,2,0,L|376:309,1,95,8|0,0:0|0:0,0:0:0:0:
127,263,12211,1,0,1:0:0:0:
114,154,12344,1,0,0:0:0:0:
290,57,12477,2,0,L|188:50,1,95,8|0,0:0|0:0,0:0:0:0:
424,200,12742,5,0,0:0:0:0:
104,320,12875,2,0,L|72:216,1,95,2|8,1:0|0:0,0:0:0:0:
382,75,13141,2,0,L|409:165,1,95,2|0,1:0|0:0,0:0:0:0:
32,135,13406,2,0,L|55:30,1,95,2|8,1:0|0:0,0:0:0:0:
326,263,13672,6,0,L|134:251,1,190,4|2,0:0|0:0,0:0:0:0:
244,306,14070,2,0,L|254:211,1,95,8|0,0:0|0:0,0:0:0:0:
152,166,14335,1,0,1:0:0:0:
394,158,14468,1,0,0:0:0:0:
485,27,14601,2,0,L|499:123,1,95,8|0,0:0|0:0,0:0:0:0:
172,186,14866,5,0,1:0:0:0:
294,244,14999,1,0,0:0:0:0:
176,302,15132,1,8,0:0:0:0:
301,353,15264,2,0,L|417:350,1,95,0|0,2:0|0:0,0:0:0:0:
117,227,15530,2,0,L|10:232,1,95,0|8,1:0|0:0,0:0:0:0:
394,237,15795,6,0,P|418:171|301:103,1,190,4|0,0:0|0:0,0:0:0:0:
199,108,16194,2,0,L|180:205,1,95,8|0,0:0|0:0,0:0:0:0:
326,197,16459,1,2,0:0:0:0:
195,296,16592,1,0,1:0:0:0:
454,296,16725,1,0,0:0:0:0:
195,296,16857,1,0,0:0:0:0:
312,256,16990,5,0,1:0:0:0:
53,165,17123,2,8,L|26:124,2,47.5
320,104,17388,2,0,L|424:96,1,95,8|0,0:0|0:0,0:0:0:0:
120,296,17654,2,0,L|25:289,1,95,8|8,0:0|0:0,0:0:0:0:
416,346,17919,6,0,P|449:275|370:197,1,190,4|0,0:0|1:0,0:0:0:0:
263,222,18318,1,8,0:0:0:0:
383,333,18450,2,0,L|406:219,1,95,2|0,0:0|0:0,0:0:0:0:
278,140,18716,2,0,L|388:137,1,95,2|8,0:0|0:0,0:0:0:0:
96,346,18981,6,0,P|63:275|142:197,1,190,4|0,0:0|0:0,1:0:0:0:
249,222,19380,1,8,0:0:0:0:
128,332,19512,2,0,L|93:222,1,95,2|0,0:0|0:0,0:0:0:0:
227,141,19778,2,0,L|125:117,1,95,2|8,0:0|0:0,0:0:0:0:
385,347,20043,6,0,P|466:326|481:214,1,190,4|0,0:0|1:0,0:0:0:0:
256,192,20441,1,8,0:0:0:0:
366,250,20574,2,0,L|466:248,1,95
330,166,20840,2,0,L|301:52,1,95,2|8,0:0|0:0,0:0:0:0:
440,64,21105,1,0,0:0:0:0:
231,323,21238,6,0,L|111:308,1,95,0|0,1:0|0:0,0:0:0:0:
272,240,21503,2,0,L|286:142,1,95,8|0,0:0|0:0,0:0:0:0:
167,98,21769,1,2,0:0:0:0:
455,187,21902,2,0,L|481:89,1,95,0|0,1:0|0:0,0:0:0:0:
103,284,22167,6,0,P|52:217|132:175,1,190,4|0,0:0|0:0,0:0:0:0:
264,249,22565,1,8,0:0:0:0:
148,195,22698,1,0,0:0:0:0:
381,169,22831,1,8,0:0:0:0:
258,117,22964,1,0,0:0:0:0:
375,377,23096,1,8,0:0:0:0:
252,325,23229,1,0,0:0:0:0:
512,80,23362,1,8,0:0:0:0:
389,28,23495,1,0,0:0:0:0:
501,294,23627,1,8,0:0:0:0:
378,242,23760,1,0,0:0:0:0:
153,260,23893,5,8,0:0:0:0:
388,157,24026,2,0,L|270:148,1,95,8|0,0:0|1:0,0:0:0:0:
168,192,24291,1,0,0:0:0:0:
435,334,24424,6,0,L|457:223,1,95,4|0,0:0|0:0,0:0:0:0:
50,233,24689,1,8,0:0:0:0:
168,192,24822,1,2,0:0:0:0:
435,334,24955,6,0,L|457:223,1,95,8|2,0:0|0:0,0:0:0:0:
50,233,25220,1,8,0:0:0:0:
168,192,25353,1,2,0:0:0:0:
413,225,25486,5,8,0:0:0:0:
128,315,25618,2,8,L|76:307,2,47.5
272,186,25884,1,8,0:0:0:0:
20,172,26017,1,4,0:3:0:0:
148,95,26149,1,4,0:3:0:0:
12,34,26282,1,8,0:3:0:0:
385,289,26415,6,0,P|434:242|376:126,1,190,4|0,0:0|0:0,0:0:0:0:
272,300,26813,2,0,L|261:191,1,95,8|0,0:0|0:0,0:0:0:0:
377,116,27079,2,0,L|275:102,1,95,0|0,1:0|0:0,0:0:0:0:
416,297,27344,2,0,L|439:195,1,95,8|0,0:0|0:0,0:0:0:0:
196,319,27610,6,0,L|83:299,1,95,0|0,1:0|0:0,0:0:0:0:
361,196,27875,2,0,L|477:182,1,95,8|0,0:0|0:0,0:0:0:0:
204,222,28141,1,0,1:0:0:0:
107,157,28273,1,0,1:0:0:0:
224,100,28406,1,8,0:0:0:0:
441,352,28539,6,0,P|465:281|369:214,1,190,4|0,0:0|0:0,0:0:0:0:
117,345,28937,2,0,L|106:245,1,95,8|0,0:0|0:0,0:0:0:0:
227,216,29203,1,0,1:0:0:0:
119,163,29335,2,0,P|116:110|156:87,1,95,0|8,0:0|0:0,0:0:0:0:
271,91,29601,1,0,0:0:0:0:
34,284,29733,6,0,L|147:286,1,95,0|0,1:0|0:0,0:0:0:0:
386,176,29999,2,0,L|267:167,1,95,8|0,0:0|0:0,0:0:0:0:
167,104,30264,1,0,1:0:0:0:
476,290,30397,1,8,0:0:0:0:
476,290,30464,1,8,0:0:0:0:
476,290,30530,1,8,0:0:0:0:
138,348,30663,6,0,P|132:289|246:219,1,190,4|0,0:0|0:0,0:0:0:0:
465,116,31061,2,0,L|354:110,1,95,8|0,0:0|0:0,0:0:0:0:
77,322,31326,2,0,L|65:203,1,95,0|0,1:0|0:0,0:0:0:0:
216,127,31592,2,0,L|117:118,1,95,8|0,0:0|0:0,0:0:0:0:
435,322,31857,6,0,L|447:203,1,95,0|0,1:0|0:0,0:0:0:0:
296,127,32123,2,0,L|395:118,1,95,8|0,0:0|0:0,0:0:0:0:
261,255,32388,1,2,0:0:0:0:
388,346,32521,2,0,L|433:236,1,95,0|8,1:0|0:0,0:0:0:0:
148,303,32787,6,0,L|350:293,1,190,4|0,0:0|0:0,0:0:0:0:
77,208,33185,1,8,0:0:0:0:
201,140,33318,2,0,L|9:117,1,190,2|0,0:0|1:0,0:0:0:0:
126,82,33716,1,8,0:0:0:0:
390,192,33849,1,4,0:0:0:0:
279,261,33981,5,0,1:0:0:0:
496,313,34114,1,8,0:0:0:0:
454,281,34180,1,8,0:0:0:0:
401,278,34247,1,8,0:0:0:0:
292,353,34380,1,0,1:0:0:0:
32,187,34512,2,0,L|157:187,2,95,8|8|0,0:0|0:0|1:0,0:0:0:0:
374,338,34910,6,0,P|448:295|464:194,1,190,4|0,0:0|0:0,0:0:0:0:
178,248,35309,2,0,L|163:135,1,95,8|0,0:0|0:0,0:0:0:0:
303,185,35574,1,0,1:0:0:0:
412,125,35707,1,0,0:0:0:0:
305,69,35840,1,8,0:0:0:0:
83,311,35972,6,0,P|68:252|176:183,1,190,2|0,0:0|0:0,0:0:0:0:
322,90,36371,2,0,L|202:85,1,95,8|0,0:0|0:0,0:0:0:0:
70,242,36636,1,0,1:0:0:0:
210,333,36769,2,0,L|101:339,1,95,0|8,1:0|0:0,0:0:0:0:
424,313,37034,6,0,P|473:261|407:160,1,190,4|0,0:0|0:0,0:0:0:0:
184,200,37433,2,0,L|80:196,1,95,8|0,0:0|0:0,0:0:0:0:
309,328,37698,1,0,1:0:0:0:
194,257,37831,1,0,0:0:0:0:
404,222,37964,2,0,L|423:102,1,95,8|0,0:0|0:0,0:0:0:0:
184,318,38229,5,0,1:0:0:0:
81,246,38362,1,8,0:0:0:0:
67,195,38428,1,8,0:0:0:0:
106,160,38495,1,8,0:0:0:0:
247,158,38627,1,0,1:0:0:0:
16,80,38760,2,0,L|120:80,1,95,8|0,0:0|0:0,0:0:0:0:
237,245,39026,2,0,L|225:131,1,95,8|0,0:0|0:0,0:0:0:0:
457,325,39291,6,0,P|480:243|371:179,1,190,4|8,0:0|0:0,0:0:0:0:
299,175,39689,1,0,0:0:0:0:
93,302,39822,2,0,L|214:298,1,95,0|0,1:0|0:0,0:0:0:0:
445,79,40087,2,0,L|318:68,1,95,8|0,0:0|0:0,0:0:0:0:
55,325,40353,6,0,P|32:243|141:179,1,190,0|8,1:0|0:0,0:0:0:0:
213,175,40751,1,0,0:0:0:0:
472,177,40884,2,0,L|366:177,1,95,8|0,0:0|2:0,0:0:0:0:
262,109,41149,1,0,1:0:0:0:
511,113,41415,1,4,0:0:0:0:
134,355,43539,6,0,P|118:299|143:204,1,152,4|0,0:2|2:0,0:0:0:0:
377,148,44070,1,8,1:0:0:0:
209,73,44335,1,0,0:0:0:0:
421,271,44601,6,0,L|251:285,1,152,4|0,1:3|2:0,1:0:0:0:
207,174,45132,1,8,1:0:0:0:
429,103,45397,1,0,2:0:0:0:
157,313,45663,6,0,P|136:241|210:199,1,152,4|0,1:3|2:0,0:0:0:0:
399,212,46194,2,0,P|420:140|346:98,1,152,8|0,1:0|2:0,0:0:0:0:
131,271,46725,5,4,1:3:0:0:
343,207,46990,1,0,1:0:0:0:
379,131,47123,1,0,0:0:0:0:
336,58,47256,1,8,1:0:0:0:
112,147,47521,1,0,1:0:0:0:
469,348,47787,6,0,P|485:292|460:197,1,152,4|0,0:2|1:0,0:0:0:0:
226,141,48318,1,8,1:0:0:0:
394,66,48583,1,0,0:0:0:0:
91,271,48849,6,0,L|261:285,1,152,0|0,1:0|2:0,1:0:0:0:
470,150,49380,1,8,1:0:0:0:
248,79,49645,1,0,2:0:0:0:
470,333,49910,6,0,L|492:164,1,152
254,178,50441,1,8,0:0:0:0:
432,87,50707,1,0,0:0:0:0:
87,313,50972,6,0,P|53:225|187:144,1,228,0|0,1:0|2:0,0:0:0:0:
378,162,51503,1,8,1:0:0:0:
135,132,51769,1,4,1:3:0:0:
465,323,52034,6,0,L|483:169,1,152,4|0,0:2|0:0,0:0:0:0:
260,217,52565,2,0,P|243:127|340:114,1,152,8|0,0:0|2:0,0:0:0:0:
486,103,53096,1,4,0:3:0:0:
269,268,53362,1,0,1:0:0:0:
501,214,53627,2,0,L|311:209,1,152,8|0,0:0|0:0,0:0:0:0:
101,307,54158,5,0,1:2:0:0:
307,154,54424,1,0,0:0:0:0:
65,215,54689,2,0,P|52:132|152:99,1,152,8|0,0:0|0:0,0:0:0:0:
323,329,55220,2,0,P|441:274|443:157,1,228
364,145,55751,1,8,1:0:0:0:
130,145,56017,1,4,1:3:0:0:
455,329,56282,6,0,P|479:249|474:134,1,152,4|0,0:2|0:0,0:0:0:0:
242,193,56813,1,8,1:0:0:0:
450,84,57079,1,0,0:0:0:0:
185,317,57344,6,0,L|366:314,1,152,4|0,0:3|0:0,0:0:0:0:
445,207,57875,1,8,0:0:0:0:
234,79,58141,1,0,0:0:0:0:
457,335,58406,6,0,P|466:257|379:204,1,152,4|0,0:3|0:0,0:0:0:0:
62,234,58937,1,8,0:0:0:0:
248,180,59203,1,0,0:0:0:0:
50,294,59468,2,0,P|27:217|44:98,1,152,8|0,0:0|0:0,0:0:0:0:
238,211,59999,5,8,0:0:0:0:
321,208,60132,1,8,0:0:0:0:
404,206,60264,1,8,0:0:0:0:
104,131,60397,1,4,2:2:0:0:
256,192,60530,12,0,64512,2:0:0:0:
383,323,64645,6,0,P|435:275|372:160,1,190,4|0,0:0|0:0,0:0:0:0:
158,241,65043,2,0,L|46:238,1,95,8|0,0:0|0:0,0:0:0:0:
335,106,65309,2,0,L|447:105,1,95,0|0,1:0|0:0,0:0:0:0:
130,343,65574,2,0,L|267:336,1,95,8|0,0:0|0:0,0:0:0:0:
448,280,65840,5,0,1:0:0:0:
312,200,65972,1,0,0:0:0:0:
440,171,66105,2,0,L|466:71,1,95,8|0,0:0|0:0,0:0:0:0:
141,275,66371,1,0,1:0:0:0:
371,327,66503,2,0,L|496:324,1,95,8|8,0:0|1:0,0:0:0:0:
129,323,66769,6,0,P|77:275|140:160,1,190,4|0,0:0|0:0,0:0:0:0:
354,241,67167,2,0,L|466:238,1,95,8|0,0:0|0:0,0:0:0:0:
177,106,67433,2,0,L|65:105,1,95,0|0,1:0|0:0,0:0:0:0:
382,343,67698,2,0,L|245:336,1,95,8|0,0:0|0:0,0:0:0:0:
151,370,67964,5,0,1:0:0:0:
391,249,68096,1,8,0:0:0:0:
408,199,68163,1,8,0:0:0:0:
372,161,68229,1,8,0:0:0:0:
231,219,68362,1,0,1:0:0:0:
493,74,68495,2,0,L|374:78,1,95,8|0,0:0|1:0,0:0:0:0:
263,90,68760,1,4,0:3:0:0:
48,278,68893,6,0,P|31:221|116:160,1,170.999994781494,4|0,1:2|2:0,1:0:0:0:
247,224,69291,2,0,L|150:215,1,85.4999973907472,8|0,0:0|0:0,0:0:0:0:
273,363,69557,2,0,L|283:258,1,85.4999973907472,0|0,1:0|0:0,0:0:0:0:
175,197,69822,2,0,P|117:190|76:196,1,85.4999973907472,8|0,0:0|0:0,0:0:0:0:
247,103,70087,6,0,P|294:109|361:101,1,85.4999973907472,0|4,1:0|0:3,0:0:0:0:
209,304,70353,2,0,L|189:199,1,85.4999973907472,8|0,0:0|0:0,0:0:0:0:
474,127,70618,2,0,L|371:114,2,85.4999973907472,0|0|8,1:0|1:0|0:0,0:0:0:0:
41,273,71017,6,0,P|37:203|116:138,1,170.999994781494,4|0,0:0|0:0,0:0:0:0:
242,222,71415,2,0,L|254:123,1,85.4999973907472,8|0,0:0|0:0,0:0:0:0:
371,335,71680,2,0,L|380:229,1,85.4999973907472,0|0,1:0|0:0,0:0:0:0:
260,197,71946,2,0,L|365:189,1,85.4999973907472,8|0,0:0|0:0,0:0:0:0:
234,325,72211,2,0,L|145:322,1,85.4999973907472,0|8,1:0|0:3,0:0:0:0:
252,247,72477,2,0,L|260:142,1,85.4999973907472,8|0,0:0|0:0,0:0:0:0:
5,120,72742,2,0,L|115:117,2,85.4999973907472,0|8|8,1:0|0:0|0:0,0:0:0:0:
361,354,73141,6,0,P|394:306|301:252,1,170.999994781494,4|0,0:0|0:0,0:0:0:0:
214,327,73539,1,8,0:0:0:0:
189,225,73672,1,0,0:0:0:0:
313,134,73804,2,0,L|407:134,1,85.4999973907472,0|0,1:0|0:0,0:0:0:0:
301,345,74070,2,0,L|322:244,1,85.4999973907472,8|0,0:0|0:0,0:0:0:0:
448,181,74335,2,0,L|343:162,1,85.4999973907472,0|0,1:0|0:0,0:0:0:0:
471,353,74601,2,0,L|449:257,1,85.4999973907472,8|0,0:0|0:0,0:0:0:0:
208,304,74866,1,0,1:0:0:0:
321,311,74999,2,0,P|351:276|366:219,1,85.4999973907472,8|8,0:0|1:0,0:0:0:0:
91,222,75264,6,0,P|80:145|181:93,1,170.999994781494,4|0,0:0|0:0,0:0:0:0:
274,156,75663,2,0,L|366:152,1,85.4999973907472,8|0,0:0|0:0,0:0:0:0:
214,296,75928,2,0,L|122:292,1,85.4999973907472,0|0,1:0|0:0,0:0:0:0:
269,367,76194,2,0,L|345:315,1,85.4999973907472,8|0,0:0|0:0,0:0:0:0:
64,288,76459,6,0,P|42:237|56:183,1,85.4999973907472,2|0,1:2|0:0,0:0:0:0:
400,167,76725,2,0,P|422:116|408:62,1,85.4999973907472,10|0,1:2|0:0,0:0:0:0:
116,207,76990,2,0,P|94:156|108:102,1,85.4999973907472,2|8,1:2|1:3,1:0:0:0:
219,84,77256,1,8,1:0:0:0:
477,282,77388,6,0,L|272:278,1,190,4|2,0:0|0:0,0:0:0:0:
19,306,77787,2,0,L|146:295,1,95,8|0,0:0|0:0,0:0:0:0:
369,196,78052,1,0,1:0:0:0:
268,138,78185,1,0,0:0:0:0:
14,99,78318,2,0,L|118:72,1,95,8|0,0:0|0:0,0:0:0:0:
400,348,78583,2,0,L|416:233,1,95,0|0,1:0|0:0,0:0:0:0:
124,230,78849,2,0,L|111:122,1,95,8|0,0:0|0:0,0:0:0:0:
381,137,79114,1,0,1:0:0:0:
276,140,79247,1,2,1:2:0:0:
171,145,79380,1,8,0:0:0:0:
453,331,79512,6,0,P|468:254|352:187,1,190,6|0,0:0|0:0,0:0:0:0:
59,311,79910,2,0,L|177:296,1,95,8|0,0:0|0:0,0:0:0:0:
290,182,80176,2,0,L|166:167,1,95,0|0,1:0|0:0,0:0:0:0:
462,85,80441,2,0,L|356:73,1,95,8|0,0:0|0:0,0:0:0:0:
141,351,80707,2,0,P|109:297|99:236,1,95,0|0,1:0|0:0,0:0:0:0:
371,351,80972,2,0,P|403:297|413:236,1,95,8|0,0:0|0:0,0:0:0:0:
142,196,81238,1,0,1:0:0:0:
251,207,81371,1,2,0:0:0:0:
361,220,81503,1,8,0:0:0:0:
40,264,81636,6,0,P|32:192|128:136,1,190,4|0,0:0|0:0,0:0:0:0:
385,280,82034,2,0,L|511:275,1,95,8|0,0:0|0:0,0:0:0:0:
204,345,82300,2,0,L|90:334,1,95,2|0,1:0|0:0,0:0:0:0:
346,150,82565,2,0,L|458:143,1,95
125,342,82831,2,0,P|104:279|98:227,1,95,0|0,1:0|0:0,0:0:0:0:
247,240,83096,2,0,L|279:120,1,95,8|0,0:0|0:0,0:0:0:0:
134,97,83362,1,0,1:0:0:0:
262,46,83495,1,4,0:3:0:0:
147,267,83627,2,0,L|49:257,1,95,8|0,0:0|0:0,0:0:0:0:
447,360,83893,6,0,P|470:286|388:197,1,190,4|8,2:0|1:0,0:0:0:0:
269,198,84291,1,0,0:0:0:0:
12,249,84424,2,0,L|128:252,1,95,8|0,0:0|0:0,0:0:0:0:
427,92,84689,2,0,L|304:98,1,95,8|0,0:0|0:0,0:0:0:0:
51,353,84955,2,0,L|167:356,1,95,8|0,0:0|0:0,0:0:0:0:
466,196,85220,2,0,L|343:202,1,95,8|0,0:0|0:0,0:0:0:0:
109,321,85486,5,8,0:0:0:0:
146,284,85552,1,0,0:0:0:0:
150,232,85618,1,0,1:0:0:0:
120,188,85685,1,0,0:0:0:0:
73,165,85751,1,8,1:3:0:0:
384,169,85884,1,4,0:0:0:0:
256,192,85950,12,0,89203,0:0:0:0:
122,302,89468,6,0,P|117:246|234:175,1,190,2|0,0:0|0:0,0:0:0:0:
366,181,89866,1,2,1:0:0:0:
209,168,89999,1,0,0:0:0:0:
486,318,90132,6,0,L|273:322,1,190,4|0,0:0|0:0,0:0:0:0:
34,329,90530,2,0,L|27:210,1,95,8|0,0:0|0:0,0:0:0:0:
265,208,90795,1,0,1:0:0:0:
151,156,90928,1,0,0:0:0:0:
390,302,91061,2,0,L|439:193,1,95,8|0,0:0|0:0,0:0:0:0:
265,208,91326,5,0,1:0:0:0:
380,147,91459,1,0,0:0:0:0:
122,302,91592,2,0,L|73:193,1,95,8|0,0:0|0:0,0:0:0:0:
316,106,91857,2,0,L|179:99,2,95,0|0|8,0:0|1:0|0:0,0:0:0:0:
67,326,92256,6,0,P|42:264|134:208,1,190,4|0,0:0|0:0,0:0:0:0:
441,318,92654,2,0,L|465:188,1,95,8|0,0:0|0:0,0:0:0:0:
46,163,92919,2,0,L|-8:66,1,95,8|0,0:0|1:0,0:0:0:0:
137,76,93185,1,8,0:0:0:0:
446,288,93318,6,0,L|408:178,1,95,4|0,0:0|1:0,0:0:0:0:
127,299,93583,1,8,0:0:0:0:
373,112,93716,2,0,L|500:110,1,95,0|0,0:0|1:0,0:0:0:0:
107,253,93981,1,8,0:0:0:0:
239,183,94114,1,0,1:0:0:0:
96,122,94247,1,8,1:0:0:0:
411,346,94380,6,0,P|461:285|364:207,1,190,4|0,0:0|0:0,0:0:0:0:
166,303,94778,2,0,L|151:170,1,95,8|0,0:0|0:0,0:0:0:0:
285,143,95043,2,0,L|384:135,1,95,0|2,1:0|0:0,0:0:0:0:
236,291,95309,2,0,L|133:280,1,95,8|0,0:0|0:0,0:0:0:0:
451,343,95574,2,0,L|466:239,1,95,0|0,1:0|0:0,0:0:0:0:
351,219,95840,2,0,L|332:125,1,95,8|0,0:0|0:0,0:0:0:0:
460,114,96105,1,0,1:0:0:0:
332,326,96238,2,0,L|433:334,1,95,0|8,1:0|0:0,0:0:0:0:
52,180,96503,6,0,P|138:163|280:172,1,190,4|0,0:0|0:0,0:0:0:0:
482,273,96902,2,0,L|509:158,1,95,8|0,0:0|0:0,0:0:0:0:
89,333,97167,1,0,1:0:0:0:
303,296,97300,2,0,L|333:204,1,95,0|8,0:0|0:0,0:0:0:0:
212,184,97565,2,0,L|192:83,1,95,0|0,0:0|1:0,0:0:0:0:
464,82,97831,6,0,L|366:74,2,95,0|8|0,0:0|0:0|0:0,0:0:0:0:
147,319,98229,1,2,2:0:0:0:
51,223,98362,1,0,1:0:0:0:
280,121,98495,2,0,L|397:118,1,95,8|0,0:0|0:0,0:0:0:0:
42,325,98760,6,0,P|47:242|141:198,1,190,4|8,0:0|0:0,0:0:0:0:
255,194,99158,1,0,0:0:0:0:
25,125,99291,2,0,L|149:113,1,95,0|0,1:0|0:0,0:0:0:0:
269,36,99557,2,0,L|141:25,1,95,8|0,0:0|0:0,0:0:0:0:
461,342,99822,6,0,L|481:223,1,95,0|0,1:0|0:0,0:0:0:0:
376,185,100087,1,8,0:0:0:0:
503,138,100220,1,0,0:0:0:0:
170,282,100353,2,0,L|64:276,1,95,0|0,1:0|0:0,0:0:0:0:
342,282,100618,2,0,L|448:276,1,95,8|0,0:0|0:0,0:0:0:0:
123,355,100884,5,4,0:0:0:0:
47,277,101017,1,4,0:3:0:0:
271,209,101149,1,8,1:3:0:0:
419,107,101415,2,0,L|319:95,1,95,8|0,1:0|0:0,0:0:0:0:
447,285,101680,1,8,1:0:0:0:
462,181,101813,1,0,0:0:0:0:
90,313,101946,2,0,L|195:307,1,95,8|0,1:0|0:0,0:0:0:0:
469,74,102211,2,0,L|364:68,1,95,4|8,1:3|1:3,0:0:0:0:
112,224,102477,2,0,P|34:148|152:74,1,285,4|0,0:0|0:0,0:0:0:0:
433,312,103008,6,0,P|455:257|445:152,1,152,4|0,0:0|0:0,0:0:0:0:
237,207,103539,1,8,0:0:0:0:
465,135,103804,1,0,0:0:0:0:
201,343,104070,2,0,L|34:327,1,152,0|0,1:0|0:0,0:0:0:0:
340,216,104601,2,0,L|507:200,1,152,8|0,0:0|0:0,0:0:0:0:
293,354,105132,5,0,1:0:0:0:
453,247,105397,1,0,0:0:0:0:
249,259,105663,2,0,P|177:205|119:250,1,152,8|0,0:0|0:0,0:0:0:0:
403,123,106194,5,2,1:0:0:0:
22,124,106459,1,0,0:0:0:0:
401,323,106725,2,0,P|433:249|426:146,1,152,10|0,1:0|1:0,2:0:0:0:
94,139,107256,6,0,L|272:140,1,152,4|0,0:0|0:0,0:0:0:0:
411,246,107787,1,8,0:0:0:0:
213,358,108052,1,0,0:0:0:0:
481,227,108318,2,0,L|302:222,1,152,0|0,1:0|0:0,0:0:0:0:
108,329,108849,1,8,0:0:0:0:
343,229,109114,1,0,0:0:0:0:
67,227,109380,6,0,P|52:145|150:106,1,152,0|0,1:0|0:0,0:0:0:0:
320,184,109910,2,0,P|335:102|237:63,1,152,8|0,0:0|0:0,0:0:0:0:
52,263,110441,2,0,L|301:274,1,228,2|0,1:0|0:0,0:0:0:0:
190,181,110972,1,10,1:0:0:0:
413,294,111238,1,8,1:3:0:0:
87,317,111503,6,0,P|45:260|30:171,1,152,4|0,0:0|1:0,0:0:0:0:
368,104,112034,1,8,0:0:0:0:
152,200,112300,1,0,0:0:0:0:
480,312,112565,2,0,L|328:324,1,152,0|0,1:0|0:0,0:0:0:0:
91,208,113096,1,8,0:0:0:0:
313,128,113362,1,0,0:0:0:0:
80,345,113627,6,0,L|61:182,1,152,0|0,1:0|0:0,0:0:0:0:
418,210,114158,1,8,0:0:0:0:
204,128,114424,1,0,0:0:0:0:
440,333,114689,2,0,P|491:263|354:201,1,228,0|0,1:0|0:0,0:0:0:0:
315,178,115220,1,8,0:0:0:0:
478,284,115486,1,8,1:3:0:0:
30,345,115751,6,0,L|203:316,1,152,4|0,0:0|0:0,0:0:0:0:
384,256,116282,1,8,0:0:0:0:
202,161,116548,1,0,0:0:0:0:
412,354,116813,6,0,L|239:325,1,152,4|0,2:0|0:0,0:0:0:0:
17,242,117344,1,8,0:0:0:0:
353,187,117610,1,0,0:0:0:0:
139,310,117875,6,0,P|64:282|47:170,1,152,4|0,0:0|0:0,0:0:0:0:
373,310,118406,2,0,P|448:282|465:170,1,152,12|0,0:0|0:0,0:0:0:0:
258,182,118937,1,8,0:0:0:0:
69,285,119203,2,4,L|61:236,1,38,4|4,3:0|3:0,3:0:0:0:
223,178,119335,2,4,L|231:134,1,38,4|4,3:0|3:0,3:0:0:0:
54,147,119468,2,0,L|139:141,1,76,8|0,0:0|0:0,0:0:0:0:
269,47,119733,2,0,L|193:52,1,76,0|0,1:0|0:0,0:0:0:0:
428,127,119999,5,4,0:0:0:0:
208,248,120264,1,0,0:0:0:0:
456,285,120530,1,12,0:0:0:0:
221,181,120795,1,0,0:0:0:0:
450,186,121061,2,0,L|290:160,1,152,0|0,1:0|0:0,0:0:0:0:
62,186,121592,2,8,L|222:160,1,152,8|0,0:0|0:0,0:0:0:0:
421,314,122123,5,0,1:0:0:0:
210,215,122388,1,0,0:0:0:0:
445,171,122654,1,8,0:0:0:0:
197,121,122919,1,0,0:0:0:0:
473,321,123185,2,0,L|487:160,1,152,0|0,1:0|0:0,0:0:0:0:
86,186,123716,1,12,1:2:0:0:
460,117,123981,1,0,0:0:0:0:
60,337,124247,6,0,L|21:145,1,152,4|0,0:0|0:0,0:0:0:0:
270,174,124778,1,8,0:0:0:0:
41,93,125043,1,0,0:0:0:0:
366,336,125309,2,0,P|435:290|466:200,1,152,0|0,1:0|0:0,0:0:0:0:
182,203,125840,1,8,0:0:0:0:
430,155,126105,1,0,0:0:0:0:
141,310,126371,6,0,L|322:310,1,152,0|0,1:0|0:0,0:0:0:0:
501,88,126902,2,0,L|319:84,1,152,8|0,1:0|0:0,0:0:0:0:
140,223,127433,1,8,0:0:0:0:
505,240,127698,1,4,1:2:0:0:
9,173,127964,2,0,P|86:197|157:267,1,152,4|4,1:2|3:0,0:0:0:0:
245,196,128362,1,8,3:0:0:0:
15,293,128495,5,4,0:0:0:0:
231,217,128760,1,0,0:0:0:0:
453,303,129026,1,8,1:0:0:0:
206,231,129291,1,0,0:0:0:0:
448,249,129557,2,0,P|466:170|364:124,1,152,0|0,1:0|0:0,0:0:0:0:
182,183,130087,2,0,P|164:104|266:58,1,152,8|0,1:0|0:0,0:0:0:0:
438,122,130618,5,0,1:0:0:0:
108,239,131017,1,0,1:0:0:0:
438,321,131415,1,0,1:0:0:0:
68,319,131680,2,0,P|23:249|52:158,1,152,0|0,1:0|0:0,0:0:0:0:
392,333,132211,2,0,P|437:263|408:172,1,152,8|4,1:0|1:3,0:0:0:0:
187,204,132742,5,4,0:0:0:0:
465,206,133008,1,0,0:0:0:0:
89,202,133273,1,8,0:0:0:0:
312,200,133539,1,0,0:0:0:0:
86,250,133804,6,0,L|262:249,1,152,0|0,1:0|0:0,0:0:0:0:
442,269,134335,1,8,0:0:0:0:
54,274,134601,1,8,1:3:0:0:
496,242,134866,1,4,0:0:0:0:
71,350,136990,2,0,P|50:269|80:224,1,114,12|0,1:3|2:0,0:0:0:0:
336,251,137256,6,0,L|393:249,1,42.7499986953736,0|0,1:0|1:0,1:0:0:0:
200,156,137388,2,0,L|140:147,1,42.7499986953736,0|0,1:0|1:0,1:0:0:0:
354,363,137521,6,0,L|363:318,1,42.7499986953736,0|0,1:0|1:0,1:0:0:0:
185,281,137654,2,0,L|176:236,1,42.7499986953736,0|0,1:0|1:0,1:0:0:0:
368,174,137787,6,0,L|425:172,1,42.7499986953736,0|0,1:0|1:0,1:0:0:0:
232,79,137919,2,0,L|172:70,1,42.7499986953736,0|0,1:0|1:0,1:0:0:0:
456,245,138052,1,4,1:2:0:0:
