osu file format v14

[General]
AudioFilename: audio140.mp3
AudioLeadIn: 0
PreviewTime: 18860
Countdown: 0
SampleSet: Normal
StackLeniency: 0.7
Mode: 3
LetterboxInBreaks: 0
SpecialStyle: 0
WidescreenStoryboard: 0

[Editor]
Bookmarks: 18908,49249
DistanceSpacing: 1.1
BeatDivisor: 4
GridSize: 8
TimelineZoom: 2.1

[Metadata]
Title:King For A Day (feat Kellin Quinn)
TitleUnicode:King For A Day (feat Kellin Quinn)
Artist:Pierce The Veil
ArtistUnicode:Pierce The Veil
Creator:CrumpetFiddler
Version:Insane [1.4x Rate]
Source:
Tags:collide the sky metal punk sleeping with sirens
BeatmapID:1817997
BeatmapSetID:869517

[Difficulty]
HPDrainRate:10
CircleSize:4
OverallDifficulty:10
ApproachRate:5
SliderMultiplier:1.4
SliderTickRate:1

[Events]
//Background and Video events
0,0,"ptvnotflip.png",0,0
//Break Periods
//Storyboard Layer 0 (Background)
//Storyboard Layer 1 (Fail)
//Storyboard Layer 2 (Pass)
//Storyboard Layer 3 (Foreground)
//Storyboard Sound Samples

[TimingPoints]
555,197.498354180382,4,1,1,20,1,0
6677,189.633375474084,4,1,1,50,1,8
6866,189.633375474084,4,1,1,50,1,0
14356,-100,4,1,1,50,0,0
15874,-100,4,1,1,50,0,0
31139,-100,4,1,1,45,0,1
42896,-100,4,1,1,45,0,1
43181,-100,4,1,1,50,0,0
46215,-100,4,1,1,50,0,0
49249,-100,4,1,1,50,0,0
54654,-100,4,1,1,50,0,0
55317,-100,4,1,1,50,0,0
60343,-100,4,1,1,50,0,0
71531,-100,4,1,1,50,0,0
73617,-100,4,1,1,45,0,1
85279,-100,4,1,1,45,0,1
85659,-100,4,1,1,45,0,0
85754,-100,4,1,1,45,0,1
91253,-100,4,1,1,45,0,1
91822,-100,4,1,1,45,0,1
96373,-100,4,1,1,45,0,0
97890,-100,4,1,1,45,0,1
98649,-100,4,1,1,45,0,0

[HitObjects]
64,192,6677,5,0,0:0:0:0:
192,192,6677,1,0,0:0:0:0:
448,192,6677,1,0,0:0:0:0:
64,192,6771,1,0,0:0:0:0:
320,192,6771,128,0,7245:0:0:0:0:
192,192,6960,1,0,0:0:0:0:
64,192,7055,1,0,0:0:0:0:
448,192,7055,1,0,0:0:0:0:
64,192,7150,1,0,0:0:0:0:
448,192,7245,1,0,0:0:0:0:
192,192,7245,1,0,0:0:0:0:
320,192,7340,1,0,0:0:0:0:
192,192,7340,1,0,0:0:0:0:
448,192,7434,1,0,0:0:0:0:
64,192,7434,1,0,0:0:0:0:
192,192,7434,1,0,0:0:0:0:
320,192,7624,1,0,0:0:0:0:
192,192,7624,1,0,0:0:0:0:
64,192,7719,1,0,0:0:0:0:
320,192,7719,1,0,0:0:0:0:
448,192,7814,1,0,0:0:0:0:
64,192,7814,1,0,0:0:0:0:
320,192,7814,1,0,0:0:0:0:
320,192,8003,1,0,0:0:0:0:
192,192,8003,1,0,0:0:0:0:
448,192,8098,1,0,0:0:0:0:
192,192,8098,1,0,0:0:0:0:
448,192,8193,1,0,0:0:0:0:
64,192,8193,1,0,0:0:0:0:
320,192,8193,1,0,0:0:0:0:
192,192,8288,128,0,8762:0:0:0:0:
320,192,8288,1,0,0:0:0:0:
64,192,8477,1,0,0:0:0:0:
320,192,8572,1,0,0:0:0:0:
448,192,8572,1,0,0:0:0:0:
448,192,8667,1,0,0:0:0:0:
64,192,8762,1,0,0:0:0:0:
320,192,8762,1,0,0:0:0:0:
192,192,8857,1,0,0:0:0:0:
320,192,8857,1,0,0:0:0:0:
64,192,8951,1,0,0:0:0:0:
448,192,8951,1,0,0:0:0:0:
320,192,8951,1,0,0:0:0:0:
192,192,9141,1,0,0:0:0:0:
320,192,9141,1,0,0:0:0:0:
448,192,9236,1,0,0:0:0:0:
192,192,9236,1,0,0:0:0:0:
448,192,9331,1,0,0:0:0:0:
64,192,9331,1,0,0:0:0:0:
192,192,9331,1,0,0:0:0:0:
192,192,9520,1,0,0:0:0:0:
320,192,9520,1,0,0:0:0:0:
64,192,9615,1,0,0:0:0:0:
320,192,9615,1,0,0:0:0:0:
64,192,9710,1,0,0:0:0:0:
448,192,9710,1,0,0:0:0:0:
320,192,9710,1,0,0:0:0:0:
320,192,9805,1,0,0:0:0:0:
192,192,9805,128,0,10184:0:0:0:0:
64,192,9994,1,0,0:0:0:0:
320,192,10089,1,0,0:0:0:0:
448,192,10089,1,0,0:0:0:0:
448,192,10184,1,0,0:0:0:0:
64,192,10184,1,0,0:0:0:0:
320,192,10279,1,0,0:0:0:0:
192,192,10374,1,0,0:0:0:0:
64,192,10374,1,0,0:0:0:0:
448,192,10469,1,0,0:0:0:0:
320,192,10469,1,0,0:0:0:0:
192,192,10563,1,0,0:0:0:0:
64,192,10563,1,0,0:0:0:0:
320,192,10658,1,0,0:0:0:0:
448,192,10658,1,0,0:0:0:0:
320,192,10753,1,0,0:0:0:0:
64,192,10753,1,0,0:0:0:0:
448,192,10848,1,0,0:0:0:0:
192,192,10848,1,0,0:0:0:0:
448,192,10943,1,0,0:0:0:0:
64,192,10943,1,0,0:0:0:0:
320,192,11037,1,0,0:0:0:0:
192,192,11037,1,0,0:0:0:0:
320,192,11132,1,0,0:0:0:0:
448,192,11132,1,0,0:0:0:0:
64,192,11132,1,0,0:0:0:0:
320,192,11227,1,0,0:0:0:0:
192,192,11227,1,0,0:0:0:0:
64,192,11322,128,0,11796:0:0:0:0:
320,192,11322,1,0,0:0:0:0:
448,192,11512,1,0,0:0:0:0:
320,192,11606,1,0,0:0:0:0:
192,192,11606,1,0,0:0:0:0:
192,192,11701,1,0,0:0:0:0:
448,192,11701,1,0,0:0:0:0:
320,192,11796,1,0,0:0:0:0:
64,192,11891,1,0,0:0:0:0:
448,192,11891,1,0,0:0:0:0:
192,192,11986,1,0,0:0:0:0:
320,192,11986,1,0,0:0:0:0:
64,192,12080,1,0,0:0:0:0:
448,192,12080,1,0,0:0:0:0:
192,192,12175,1,0,0:0:0:0:
320,192,12175,1,0,0:0:0:0:
64,192,12270,1,0,0:0:0:0:
192,192,12270,1,0,0:0:0:0:
448,192,12317,1,0,0:0:0:0:
320,192,12317,1,0,0:0:0:0:
192,192,12365,1,0,0:0:0:0:
64,192,12365,1,0,0:0:0:0:
192,192,12460,1,0,0:0:0:0:
64,192,12460,1,0,0:0:0:0:
320,192,12555,1,0,0:0:0:0:
448,192,12555,1,0,0:0:0:0:
64,192,12649,1,0,0:0:0:0:
448,192,12649,1,0,0:0:0:0:
64,192,12744,1,0,0:0:0:0:
320,192,12744,1,0,0:0:0:0:
448,192,12839,128,0,13313:0:0:0:0:
192,192,12839,1,0,0:0:0:0:
64,192,13029,1,0,0:0:0:0:
64,192,13123,1,0,0:0:0:0:
320,192,13123,1,0,0:0:0:0:
320,192,13218,1,0,0:0:0:0:
64,192,13313,1,0,0:0:0:0:
192,192,13313,1,0,0:0:0:0:
64,192,13408,1,0,0:0:0:0:
320,192,13408,1,0,0:0:0:0:
64,192,13503,1,0,0:0:0:0:
448,192,13503,1,0,0:0:0:0:
192,192,13503,1,0,0:0:0:0:
448,192,13692,1,0,0:0:0:0:
320,192,13692,1,0,0:0:0:0:
192,192,13787,1,0,0:0:0:0:
448,192,13787,1,0,0:0:0:0:
448,192,13882,1,0,0:0:0:0:
64,192,13882,1,0,0:0:0:0:
320,192,13882,1,0,0:0:0:0:
64,192,14072,1,0,0:0:0:0:
192,192,14072,1,0,0:0:0:0:
320,192,14166,1,0,0:0:0:0:
64,192,14166,1,0,0:0:0:0:
64,192,14261,1,0,0:0:0:0:
448,192,14261,1,0,0:0:0:0:
192,192,14261,1,0,0:0:0:0:
320,192,14356,128,0,14830:0:0:0:0:
448,192,14546,1,0,0:0:0:0:
448,192,14640,1,0,0:0:0:0:
64,192,14640,1,0,0:0:0:0:
192,192,14830,1,0,0:0:0:0:
448,192,14830,1,0,0:0:0:0:
320,192,14925,1,0,0:0:0:0:
448,192,14925,1,0,0:0:0:0:
448,192,15020,1,0,0:0:0:0:
64,192,15020,1,0,0:0:0:0:
320,192,15020,1,0,0:0:0:0:
192,192,15209,1,0,0:0:0:0:
64,192,15209,1,0,0:0:0:0:
64,192,15304,1,0,0:0:0:0:
320,192,15304,1,0,0:0:0:0:
448,192,15399,1,0,0:0:0:0:
64,192,15399,1,0,0:0:0:0:
192,192,15399,1,0,0:0:0:0:
448,192,15589,1,0,0:0:0:0:
320,192,15589,1,0,0:0:0:0:
448,192,15683,1,0,0:0:0:0:
192,192,15683,1,0,0:0:0:0:
448,192,15778,1,0,0:0:0:0:
64,192,15778,1,0,0:0:0:0:
320,192,15778,1,0,0:0:0:0:
192,192,15873,128,0,16347:0:0:0:0:
320,192,15873,1,0,0:0:0:0:
448,192,16063,1,0,0:0:0:0:
64,192,16158,1,0,0:0:0:0:
320,192,16158,1,0,0:0:0:0:
320,192,16252,1,0,0:0:0:0:
448,192,16347,1,0,0:0:0:0:
320,192,16347,1,0,0:0:0:0:
448,192,16442,1,0,0:0:0:0:
448,192,16537,1,0,0:0:0:0:
64,192,16537,1,0,0:0:0:0:
64,192,16632,1,0,0:0:0:0:
64,192,16726,1,0,0:0:0:0:
320,192,16726,1,0,0:0:0:0:
320,192,16821,1,0,0:0:0:0:
192,192,16916,1,0,0:0:0:0:
320,192,16916,1,0,0:0:0:0:
192,192,17011,1,0,0:0:0:0:
192,192,17106,1,0,0:0:0:0:
448,192,17106,1,0,0:0:0:0:
448,192,17201,1,0,0:0:0:0:
64,192,17295,1,0,0:0:0:0:
448,192,17295,1,0,0:0:0:0:
64,192,17390,1,0,0:0:0:0:
64,192,17485,1,0,0:0:0:0:
320,192,17485,1,0,0:0:0:0:
320,192,17580,1,0,0:0:0:0:
320,192,17675,1,0,0:0:0:0:
192,192,17675,1,0,0:0:0:0:
192,192,17769,1,0,0:0:0:0:
192,192,17864,1,0,0:0:0:0:
64,192,17864,1,0,0:0:0:0:
64,192,17959,1,0,0:0:0:0:
448,192,18054,1,0,0:0:0:0:
64,192,18054,1,0,0:0:0:0:
448,192,18149,1,0,0:0:0:0:
192,192,18244,1,0,0:0:0:0:
448,192,18244,1,0,0:0:0:0:
64,192,18338,1,0,0:0:0:0:
192,192,18338,1,0,0:0:0:0:
320,192,18386,1,0,0:0:0:0:
448,192,18386,1,0,0:0:0:0:
192,192,18433,1,0,0:0:0:0:
64,192,18433,1,0,0:0:0:0:
64,192,18528,1,0,0:0:0:0:
192,192,18528,1,0,0:0:0:0:
320,192,18575,1,0,0:0:0:0:
448,192,18623,1,0,0:0:0:0:
192,192,18623,1,0,0:0:0:0:
320,192,18718,1,0,0:0:0:0:
64,192,18718,1,0,0:0:0:0:
448,192,18812,1,0,0:0:0:0:
192,192,18812,1,0,0:0:0:0:
64,192,18907,1,0,0:0:0:0:
192,192,18907,1,0,0:0:0:0:
64,192,19097,1,0,0:0:0:0:
448,192,19192,1,0,0:0:0:0:
192,192,19192,1,0,0:0:0:0:
64,192,19381,1,0,0:0:0:0:
64,192,19476,1,0,0:0:0:0:
320,192,19571,1,0,0:0:0:0:
448,192,19571,1,0,0:0:0:0:
192,192,19571,1,0,0:0:0:0:
192,192,19761,1,0,0:0:0:0:
192,192,19855,1,0,0:0:0:0:
64,192,19950,1,0,0:0:0:0:
448,192,19950,1,0,0:0:0:0:
320,192,19950,1,0,0:0:0:0:
448,192,20140,1,0,0:0:0:0:
448,192,20235,1,0,0:0:0:0:
320,192,20329,1,0,0:0:0:0:
64,192,20329,1,0,0:0:0:0:
192,192,20329,1,0,0:0:0:0:
192,192,20424,1,0,0:0:0:0:
448,192,20424,128,0,20614:0:0:0:0:
192,192,20614,1,0,0:0:0:0:
448,192,20709,1,0,0:0:0:0:
192,192,20709,1,0,0:0:0:0:
64,192,20709,1,0,0:0:0:0:
320,192,20898,1,0,0:0:0:0:
320,192,20993,1,0,0:0:0:0:
64,192,21088,1,0,0:0:0:0:
448,192,21088,1,0,0:0:0:0:
192,192,21088,1,0,0:0:0:0:
192,192,21278,1,0,0:0:0:0:
192,192,21372,1,0,0:0:0:0:
64,192,21467,1,0,0:0:0:0:
320,192,21467,1,0,0:0:0:0:
448,192,21467,1,0,0:0:0:0:
320,192,21657,1,0,0:0:0:0:
320,192,21752,1,0,0:0:0:0:
64,192,21847,1,0,0:0:0:0:
192,192,21847,1,0,0:0:0:0:
448,192,21847,1,0,0:0:0:0:
320,192,21941,128,0,22131:0:0:0:0:
448,192,22131,1,0,0:0:0:0:
192,192,22226,1,0,0:0:0:0:
320,192,22226,1,0,0:0:0:0:
64,192,22226,1,0,0:0:0:0:
64,192,22415,1,0,0:0:0:0:
64,192,22510,1,0,0:0:0:0:
320,192,22605,1,0,0:0:0:0:
448,192,22605,1,0,0:0:0:0:
192,192,22605,1,0,0:0:0:0:
192,192,22795,1,0,0:0:0:0:
192,192,22890,1,0,0:0:0:0:
64,192,22984,1,0,0:0:0:0:
448,192,22984,1,0,0:0:0:0:
320,192,22984,1,0,0:0:0:0:
320,192,23174,1,0,0:0:0:0:
320,192,23269,1,0,0:0:0:0:
64,192,23364,1,0,0:0:0:0:
192,192,23364,1,0,0:0:0:0:
448,192,23364,1,0,0:0:0:0:
320,192,23458,128,0,23648:0:0:0:0:
448,192,23648,1,0,0:0:0:0:
64,192,23743,1,0,0:0:0:0:
448,192,23743,1,0,0:0:0:0:
192,192,23743,1,0,0:0:0:0:
192,192,23933,1,0,0:0:0:0:
192,192,24027,1,0,0:0:0:0:
64,192,24122,5,0,0:0:0:0:
320,192,24122,1,0,0:0:0:0:
448,192,24122,1,0,0:0:0:0:
448,192,24217,5,0,0:0:0:0:
320,192,24264,1,0,0:0:0:0:
64,192,24312,1,0,0:0:0:0:
192,192,24312,1,0,0:0:0:0:
448,192,24407,1,0,0:0:0:0:
320,192,24407,1,0,0:0:0:0:
192,192,24454,1,0,0:0:0:0:
64,192,24501,1,0,0:0:0:0:
448,192,24501,1,0,0:0:0:0:
448,192,24596,1,0,0:0:0:0:
320,192,24596,1,0,0:0:0:0:
320,192,24691,1,0,0:0:0:0:
448,192,24691,1,0,0:0:0:0:
192,192,24786,1,0,0:0:0:0:
320,192,24786,1,0,0:0:0:0:
192,192,24881,1,0,0:0:0:0:
64,192,24881,1,0,0:0:0:0:
320,192,24975,128,0,25165:0:0:0:0:
448,192,24975,128,0,25165:0:0:0:0:
64,192,24975,1,0,0:0:0:0:
192,192,25165,1,0,0:0:0:0:
192,192,25260,1,0,0:0:0:0:
448,192,25260,1,0,0:0:0:0:
320,192,25260,1,0,0:0:0:0:
192,192,25450,1,0,0:0:0:0:
192,192,25544,1,0,0:0:0:0:
64,192,25639,1,0,0:0:0:0:
448,192,25639,1,0,0:0:0:0:
320,192,25639,1,0,0:0:0:0:
320,192,25829,1,0,0:0:0:0:
320,192,25924,1,0,0:0:0:0:
64,192,26018,1,0,0:0:0:0:
192,192,26018,1,0,0:0:0:0:
448,192,26018,1,0,0:0:0:0:
192,192,26208,1,0,0:0:0:0:
192,192,26303,1,0,0:0:0:0:
320,192,26398,1,0,0:0:0:0:
192,192,26398,1,0,0:0:0:0:
64,192,26398,1,0,0:0:0:0:
448,192,26493,128,0,26682:0:0:0:0:
320,192,26682,1,0,0:0:0:0:
192,192,26777,1,0,0:0:0:0:
64,192,26777,1,0,0:0:0:0:
448,192,26777,1,0,0:0:0:0:
64,192,26967,1,0,0:0:0:0:
64,192,27061,1,0,0:0:0:0:
448,192,27156,1,0,0:0:0:0:
192,192,27156,1,0,0:0:0:0:
320,192,27156,1,0,0:0:0:0:
320,192,27346,1,0,0:0:0:0:
320,192,27441,1,0,0:0:0:0:
448,192,27536,1,0,0:0:0:0:
64,192,27536,1,0,0:0:0:0:
192,192,27536,1,0,0:0:0:0:
192,192,27725,1,0,0:0:0:0:
192,192,27820,1,0,0:0:0:0:
64,192,27915,1,0,0:0:0:0:
448,192,27915,1,0,0:0:0:0:
320,192,27915,1,0,0:0:0:0:
192,192,28010,128,0,28199:0:0:0:0:
320,192,28199,1,0,0:0:0:0:
64,192,28294,1,0,0:0:0:0:
448,192,28294,1,0,0:0:0:0:
192,192,28294,1,0,0:0:0:0:
320,192,28484,1,0,0:0:0:0:
320,192,28579,1,0,0:0:0:0:
448,192,28673,1,0,0:0:0:0:
192,192,28673,1,0,0:0:0:0:
64,192,28673,1,0,0:0:0:0:
192,192,28863,5,0,0:0:0:0:
192,192,28958,1,0,0:0:0:0:
64,192,29053,1,0,0:0:0:0:
320,192,29053,1,0,0:0:0:0:
448,192,29053,1,0,0:0:0:0:
448,192,29242,1,0,0:0:0:0:
448,192,29337,1,0,0:0:0:0:
192,192,29432,1,0,0:0:0:0:
320,192,29432,1,0,0:0:0:0:
64,192,29432,1,0,0:0:0:0:
320,192,29527,1,0,0:0:0:0:
64,192,29622,128,0,29811:0:0:0:0:
192,192,29622,128,0,29811:0:0:0:0:
320,192,29622,1,0,0:0:0:0:
448,192,29622,1,0,0:0:0:0:
64,192,31139,5,0,0:0:0:0:
448,192,31139,1,0,0:0:0:0:
320,192,31139,1,0,0:0:0:0:
64,192,31328,1,0,0:0:0:0:
320,192,31328,1,0,0:0:0:0:
192,192,31328,1,0,0:0:0:0:
64,192,31518,1,0,0:0:0:0:
192,192,31518,1,0,0:0:0:0:
320,192,31518,1,0,0:0:0:0:
448,192,31518,1,0,0:0:0:0:
64,192,31707,1,0,0:0:0:0:
448,192,31707,1,0,0:0:0:0:
192,192,31707,1,0,0:0:0:0:
192,192,31897,1,0,0:0:0:0:
320,192,31897,1,0,0:0:0:0:
448,192,31897,1,0,0:0:0:0:
64,192,32087,1,0,0:0:0:0:
448,192,32087,1,0,0:0:0:0:
320,192,32087,1,0,0:0:0:0:
64,192,32276,1,0,0:0:0:0:
192,192,32276,1,0,0:0:0:0:
320,192,32276,1,0,0:0:0:0:
448,192,32276,1,0,0:0:0:0:
320,192,32466,1,0,0:0:0:0:
192,192,32466,1,0,0:0:0:0:
448,192,32466,1,0,0:0:0:0:
320,192,32656,1,0,0:0:0:0:
192,192,32656,1,0,0:0:0:0:
64,192,32656,1,0,0:0:0:0:
64,192,32845,1,0,0:0:0:0:
192,192,32845,1,0,0:0:0:0:
448,192,32845,1,0,0:0:0:0:
448,192,33035,1,0,0:0:0:0:
320,192,33035,1,0,0:0:0:0:
64,192,33035,1,0,0:0:0:0:
192,192,33035,1,0,0:0:0:0:
448,192,33225,1,0,0:0:0:0:
320,192,33225,1,0,0:0:0:0:
64,192,33225,1,0,0:0:0:0:
192,192,33414,1,0,0:0:0:0:
320,192,33414,1,0,0:0:0:0:
448,192,33414,1,0,0:0:0:0:
64,192,33604,1,0,0:0:0:0:
320,192,33604,1,0,0:0:0:0:
192,192,33604,1,0,0:0:0:0:
64,192,33793,1,0,0:0:0:0:
192,192,33793,1,0,0:0:0:0:
448,192,33793,1,0,0:0:0:0:
320,192,33793,1,0,0:0:0:0:
64,192,33983,1,0,0:0:0:0:
448,192,33983,1,0,0:0:0:0:
320,192,33983,1,0,0:0:0:0:
64,192,34173,1,0,0:0:0:0:
192,192,34173,1,0,0:0:0:0:
320,192,34173,1,0,0:0:0:0:
64,192,34362,1,0,0:0:0:0:
448,192,34362,1,0,0:0:0:0:
192,192,34362,1,0,0:0:0:0:
64,192,34552,1,0,0:0:0:0:
192,192,34552,1,0,0:0:0:0:
320,192,34552,1,0,0:0:0:0:
448,192,34552,1,0,0:0:0:0:
320,192,34742,1,0,0:0:0:0:
448,192,34742,1,0,0:0:0:0:
192,192,34742,1,0,0:0:0:0:
320,192,34931,1,0,0:0:0:0:
448,192,34931,1,0,0:0:0:0:
64,192,34931,1,0,0:0:0:0:
320,192,35121,1,0,0:0:0:0:
192,192,35121,1,0,0:0:0:0:
64,192,35121,1,0,0:0:0:0:
448,192,35311,1,0,0:0:0:0:
64,192,35311,1,0,0:0:0:0:
192,192,35311,1,0,0:0:0:0:
320,192,35311,1,0,0:0:0:0:
64,192,35500,1,0,0:0:0:0:
192,192,35500,1,0,0:0:0:0:
448,192,35500,1,0,0:0:0:0:
64,192,35690,1,0,0:0:0:0:
192,192,35690,1,0,0:0:0:0:
320,192,35690,1,0,0:0:0:0:
192,192,35879,1,0,0:0:0:0:
448,192,35879,1,0,0:0:0:0:
320,192,35879,1,0,0:0:0:0:
448,192,36069,1,0,0:0:0:0:
320,192,36069,1,0,0:0:0:0:
192,192,36069,1,0,0:0:0:0:
64,192,36069,1,0,0:0:0:0:
448,192,36259,1,0,0:0:0:0:
320,192,36259,1,0,0:0:0:0:
192,192,36259,1,0,0:0:0:0:
192,192,36448,1,0,0:0:0:0:
448,192,36448,1,0,0:0:0:0:
64,192,36448,1,0,0:0:0:0:
320,192,36638,1,0,0:0:0:0:
192,192,36638,1,0,0:0:0:0:
64,192,36638,1,0,0:0:0:0:
192,192,36828,1,0,0:0:0:0:
320,192,36828,1,0,0:0:0:0:
448,192,36828,1,0,0:0:0:0:
64,192,36828,1,0,0:0:0:0:
64,192,37017,1,0,0:0:0:0:
448,192,37017,1,0,0:0:0:0:
320,192,37017,1,0,0:0:0:0:
64,192,37207,1,0,0:0:0:0:
192,192,37207,1,0,0:0:0:0:
448,192,37207,1,0,0:0:0:0:
192,192,37396,1,0,0:0:0:0:
64,192,37396,1,0,0:0:0:0:
320,192,37396,1,0,0:0:0:0:
448,192,37586,1,0,0:0:0:0:
320,192,37586,1,0,0:0:0:0:
192,192,37586,1,0,0:0:0:0:
64,192,37586,1,0,0:0:0:0:
320,192,37776,1,0,0:0:0:0:
448,192,37776,1,0,0:0:0:0:
64,192,37776,1,0,0:0:0:0:
320,192,37965,1,0,0:0:0:0:
192,192,37965,1,0,0:0:0:0:
448,192,37965,1,0,0:0:0:0:
320,192,38155,1,0,0:0:0:0:
192,192,38155,1,0,0:0:0:0:
64,192,38155,1,0,0:0:0:0:
448,192,38345,1,0,0:0:0:0:
320,192,38345,1,0,0:0:0:0:
192,192,38345,1,0,0:0:0:0:
64,192,38345,1,0,0:0:0:0:
448,192,38534,1,0,0:0:0:0:
64,192,38534,1,0,0:0:0:0:
320,192,38534,1,0,0:0:0:0:
448,192,38724,1,0,0:0:0:0:
320,192,38724,1,0,0:0:0:0:
192,192,38724,1,0,0:0:0:0:
64,192,38914,1,0,0:0:0:0:
448,192,38914,1,0,0:0:0:0:
192,192,38914,1,0,0:0:0:0:
64,192,39103,1,0,0:0:0:0:
192,192,39103,1,0,0:0:0:0:
320,192,39103,1,0,0:0:0:0:
448,192,39103,1,0,0:0:0:0:
320,192,39293,1,0,0:0:0:0:
448,192,39293,1,0,0:0:0:0:
192,192,39293,1,0,0:0:0:0:
64,192,39482,1,0,0:0:0:0:
192,192,39482,1,0,0:0:0:0:
320,192,39482,1,0,0:0:0:0:
448,192,39672,1,0,0:0:0:0:
320,192,39672,1,0,0:0:0:0:
64,192,39672,1,0,0:0:0:0:
64,192,39862,1,0,0:0:0:0:
192,192,39862,1,0,0:0:0:0:
320,192,39862,1,0,0:0:0:0:
448,192,39862,1,0,0:0:0:0:
64,192,40051,1,0,0:0:0:0:
192,192,40051,1,0,0:0:0:0:
448,192,40051,1,0,0:0:0:0:
448,192,40241,1,0,0:0:0:0:
320,192,40241,1,0,0:0:0:0:
192,192,40241,1,0,0:0:0:0:
64,192,40431,1,0,0:0:0:0:
192,192,40431,1,0,0:0:0:0:
320,192,40431,1,0,0:0:0:0:
64,192,40620,1,0,0:0:0:0:
192,192,40620,1,0,0:0:0:0:
320,192,40620,1,0,0:0:0:0:
448,192,40620,1,0,0:0:0:0:
64,192,40810,1,0,0:0:0:0:
192,192,40810,1,0,0:0:0:0:
448,192,40810,1,0,0:0:0:0:
64,192,41000,1,0,0:0:0:0:
192,192,41000,1,0,0:0:0:0:
320,192,41000,1,0,0:0:0:0:
448,192,41189,1,0,0:0:0:0:
64,192,41189,1,0,0:0:0:0:
320,192,41189,1,0,0:0:0:0:
448,192,41379,1,0,0:0:0:0:
192,192,41379,1,0,0:0:0:0:
64,192,41379,1,0,0:0:0:0:
320,192,41379,1,0,0:0:0:0:
64,192,41568,1,0,0:0:0:0:
192,192,41568,1,0,0:0:0:0:
320,192,41568,1,0,0:0:0:0:
192,192,41758,1,0,0:0:0:0:
448,192,41758,1,0,0:0:0:0:
64,192,41758,1,0,0:0:0:0:
192,192,41948,1,0,0:0:0:0:
448,192,41948,1,0,0:0:0:0:
320,192,41948,1,0,0:0:0:0:
192,192,42137,1,0,0:0:0:0:
64,192,42137,1,0,0:0:0:0:
320,192,42137,1,0,0:0:0:0:
448,192,42137,1,0,0:0:0:0:
64,192,42327,1,0,0:0:0:0:
320,192,42327,1,0,0:0:0:0:
192,192,42327,1,0,0:0:0:0:
448,192,42517,1,0,0:0:0:0:
192,192,42517,1,0,0:0:0:0:
64,192,42517,1,0,0:0:0:0:
192,192,42706,1,0,0:0:0:0:
320,192,42706,1,0,0:0:0:0:
448,192,42706,1,0,0:0:0:0:
192,192,42896,1,0,0:0:0:0:
64,192,42896,1,0,0:0:0:0:
320,192,42991,1,0,0:0:0:0:
192,192,42991,1,0,0:0:0:0:
320,192,43085,1,0,0:0:0:0:
448,192,43085,1,0,0:0:0:0:
64,192,43180,128,0,43465:0:0:0:0:
192,192,43180,128,0,43465:0:0:0:0:
320,192,46214,128,0,46499:0:0:0:0:
192,192,46214,1,0,0:0:0:0:
192,192,46404,1,0,0:0:0:0:
448,192,46499,1,0,0:0:0:0:
64,192,46499,1,0,0:0:0:0:
192,192,46594,1,0,0:0:0:0:
320,192,46689,1,0,0:0:0:0:
448,192,46689,1,0,0:0:0:0:
192,192,46783,1,0,0:0:0:0:
448,192,46878,1,0,0:0:0:0:
320,192,46878,1,0,0:0:0:0:
64,192,46878,1,0,0:0:0:0:
192,192,46973,1,0,0:0:0:0:
64,192,47068,1,0,0:0:0:0:
448,192,47068,1,0,0:0:0:0:
192,192,47163,1,0,0:0:0:0:
320,192,47257,1,0,0:0:0:0:
64,192,47257,1,0,0:0:0:0:
448,192,47257,1,0,0:0:0:0:
192,192,47352,1,0,0:0:0:0:
320,192,47447,1,0,0:0:0:0:
64,192,47447,1,0,0:0:0:0:
192,192,47542,1,0,0:0:0:0:
448,192,47637,1,0,0:0:0:0:
320,192,47637,1,0,0:0:0:0:
64,192,47637,1,0,0:0:0:0:
192,192,47731,128,0,48016:0:0:0:0:
448,192,47731,1,0,0:0:0:0:
448,192,47921,1,0,0:0:0:0:
448,192,48016,1,0,0:0:0:0:
64,192,48016,1,0,0:0:0:0:
64,192,48111,1,0,0:0:0:0:
448,192,48206,1,0,0:0:0:0:
320,192,48206,1,0,0:0:0:0:
64,192,48300,1,0,0:0:0:0:
448,192,48395,1,0,0:0:0:0:
192,192,48395,1,0,0:0:0:0:
320,192,48395,1,0,0:0:0:0:
64,192,48490,1,0,0:0:0:0:
448,192,48585,1,0,0:0:0:0:
192,192,48585,1,0,0:0:0:0:
64,192,48680,1,0,0:0:0:0:
192,192,48727,1,0,0:0:0:0:
448,192,48774,1,0,0:0:0:0:
320,192,48774,1,0,0:0:0:0:
192,192,48869,1,0,0:0:0:0:
320,192,48869,1,0,0:0:0:0:
448,192,48964,1,0,0:0:0:0:
64,192,48964,1,0,0:0:0:0:
64,192,49059,1,0,0:0:0:0:
320,192,49059,1,0,0:0:0:0:
448,192,49154,1,0,0:0:0:0:
192,192,49154,1,0,0:0:0:0:
64,192,49249,128,0,49533:0:0:0:0:
192,192,49249,1,0,0:0:0:0:
320,192,49438,1,0,0:0:0:0:
448,192,49533,1,0,0:0:0:0:
192,192,49533,1,0,0:0:0:0:
192,192,49628,1,0,0:0:0:0:
64,192,49723,1,0,0:0:0:0:
320,192,49723,1,0,0:0:0:0:
64,192,49817,1,0,0:0:0:0:
192,192,49817,1,0,0:0:0:0:
64,192,49912,1,0,0:0:0:0:
448,192,49912,1,0,0:0:0:0:
320,192,49912,1,0,0:0:0:0:
192,192,50007,1,0,0:0:0:0:
320,192,50007,1,0,0:0:0:0:
64,192,50102,1,0,0:0:0:0:
448,192,50102,1,0,0:0:0:0:
320,192,50197,1,0,0:0:0:0:
192,192,50197,1,0,0:0:0:0:
448,192,50292,1,0,0:0:0:0:
64,192,50292,1,0,0:0:0:0:
192,192,50292,1,0,0:0:0:0:
448,192,50386,1,0,0:0:0:0:
192,192,50481,1,0,0:0:0:0:
64,192,50481,1,0,0:0:0:0:
320,192,50576,1,0,0:0:0:0:
64,192,50671,1,0,0:0:0:0:
448,192,50671,1,0,0:0:0:0:
320,192,50671,1,0,0:0:0:0:
192,192,50766,128,0,51050:0:0:0:0:
448,192,50955,1,0,0:0:0:0:
64,192,51050,1,0,0:0:0:0:
320,192,51050,1,0,0:0:0:0:
64,192,51145,1,0,0:0:0:0:
448,192,51240,1,0,0:0:0:0:
192,192,51240,1,0,0:0:0:0:
320,192,51335,1,0,0:0:0:0:
448,192,51335,1,0,0:0:0:0:
448,192,51429,1,0,0:0:0:0:
64,192,51429,1,0,0:0:0:0:
192,192,51429,1,0,0:0:0:0:
320,192,51524,1,0,0:0:0:0:
192,192,51524,1,0,0:0:0:0:
448,192,51619,1,0,0:0:0:0:
192,192,51619,1,0,0:0:0:0:
64,192,51714,1,0,0:0:0:0:
320,192,51714,1,0,0:0:0:0:
192,192,51809,1,0,0:0:0:0:
448,192,51809,1,0,0:0:0:0:
320,192,51809,1,0,0:0:0:0:
64,192,51903,1,0,0:0:0:0:
192,192,51998,1,0,0:0:0:0:
448,192,51998,1,0,0:0:0:0:
320,192,52093,1,0,0:0:0:0:
64,192,52093,1,0,0:0:0:0:
64,192,52188,1,0,0:0:0:0:
192,192,52188,1,0,0:0:0:0:
320,192,52188,1,0,0:0:0:0:
448,192,52283,128,0,52567:0:0:0:0:
320,192,52472,1,0,0:0:0:0:
192,192,52567,1,0,0:0:0:0:
64,192,52567,1,0,0:0:0:0:
320,192,52662,1,0,0:0:0:0:
320,192,52757,1,0,0:0:0:0:
64,192,52757,1,0,0:0:0:0:
192,192,52852,1,0,0:0:0:0:
448,192,52852,1,0,0:0:0:0:
448,192,52946,1,0,0:0:0:0:
64,192,52946,1,0,0:0:0:0:
192,192,52946,1,0,0:0:0:0:
64,192,53041,1,0,0:0:0:0:
192,192,53136,1,0,0:0:0:0:
320,192,53136,1,0,0:0:0:0:
448,192,53231,1,0,0:0:0:0:
64,192,53231,1,0,0:0:0:0:
64,192,53326,1,0,0:0:0:0:
320,192,53326,1,0,0:0:0:0:
448,192,53326,1,0,0:0:0:0:
448,192,53420,1,0,0:0:0:0:
192,192,53420,1,0,0:0:0:0:
192,192,53515,1,0,0:0:0:0:
320,192,53515,1,0,0:0:0:0:
192,192,53610,1,0,0:0:0:0:
64,192,53610,1,0,0:0:0:0:
320,192,53705,1,0,0:0:0:0:
448,192,53705,1,0,0:0:0:0:
64,192,53705,1,0,0:0:0:0:
192,192,53800,128,0,54084:0:0:0:0:
448,192,53989,1,0,0:0:0:0:
320,192,54084,1,0,0:0:0:0:
64,192,54084,1,0,0:0:0:0:
448,192,54179,1,0,0:0:0:0:
192,192,54274,1,0,0:0:0:0:
320,192,54274,1,0,0:0:0:0:
192,192,54369,1,0,0:0:0:0:
448,192,54369,1,0,0:0:0:0:
64,192,54463,1,0,0:0:0:0:
320,192,54463,1,0,0:0:0:0:
448,192,54463,1,0,0:0:0:0:
448,192,54558,1,0,0:0:0:0:
192,192,54653,1,0,0:0:0:0:
64,192,54653,1,0,0:0:0:0:
448,192,54748,1,0,0:0:0:0:
320,192,54843,1,0,0:0:0:0:
192,192,54843,1,0,0:0:0:0:
64,192,54938,1,0,0:0:0:0:
448,192,55032,1,0,0:0:0:0:
320,192,55032,1,0,0:0:0:0:
64,192,55080,1,0,0:0:0:0:
448,192,55127,1,0,0:0:0:0:
192,192,55175,1,0,0:0:0:0:
64,192,55222,1,0,0:0:0:0:
448,192,55317,1,0,0:0:0:0:
320,192,55317,128,0,55601:0:0:0:0:
64,192,55506,1,0,0:0:0:0:
448,192,55601,1,0,0:0:0:0:
192,192,55601,1,0,0:0:0:0:
192,192,55696,1,0,0:0:0:0:
320,192,55791,1,0,0:0:0:0:
64,192,55886,1,0,0:0:0:0:
448,192,55981,1,0,0:0:0:0:
320,192,55981,1,0,0:0:0:0:
192,192,56075,1,0,0:0:0:0:
320,192,56170,1,0,0:0:0:0:
64,192,56265,1,0,0:0:0:0:
448,192,56360,1,0,0:0:0:0:
320,192,56360,1,0,0:0:0:0:
192,192,56455,1,0,0:0:0:0:
320,192,56549,1,0,0:0:0:0:
64,192,56644,1,0,0:0:0:0:
448,192,56739,1,0,0:0:0:0:
320,192,56739,1,0,0:0:0:0:
192,192,56834,128,0,57118:0:0:0:0:
64,192,57024,1,0,0:0:0:0:
448,192,57071,1,0,0:0:0:0:
64,192,57118,1,0,0:0:0:0:
320,192,57118,1,0,0:0:0:0:
448,192,57213,1,0,0:0:0:0:
64,192,57308,1,0,0:0:0:0:
320,192,57403,1,0,0:0:0:0:
64,192,57498,1,0,0:0:0:0:
192,192,57498,1,0,0:0:0:0:
448,192,57592,1,0,0:0:0:0:
192,192,57687,1,0,0:0:0:0:
320,192,57782,1,0,0:0:0:0:
64,192,57877,1,0,0:0:0:0:
448,192,57877,1,0,0:0:0:0:
448,192,57972,1,0,0:0:0:0:
192,192,58067,1,0,0:0:0:0:
448,192,58161,1,0,0:0:0:0:
320,192,58161,1,0,0:0:0:0:
64,192,58256,1,0,0:0:0:0:
192,192,58256,1,0,0:0:0:0:
448,192,58351,128,0,58635:0:0:0:0:
64,192,58351,1,0,0:0:0:0:
320,192,58541,1,0,0:0:0:0:
64,192,58635,1,0,0:0:0:0:
192,192,58635,1,0,0:0:0:0:
64,192,58730,1,0,0:0:0:0:
192,192,58825,1,0,0:0:0:0:
448,192,58920,1,0,0:0:0:0:
320,192,59015,1,0,0:0:0:0:
192,192,59015,1,0,0:0:0:0:
64,192,59109,1,0,0:0:0:0:
320,192,59204,1,0,0:0:0:0:
448,192,59299,1,0,0:0:0:0:
64,192,59394,1,0,0:0:0:0:
320,192,59394,1,0,0:0:0:0:
64,192,59489,1,0,0:0:0:0:
320,192,59584,1,0,0:0:0:0:
448,192,59678,1,0,0:0:0:0:
192,192,59773,1,0,0:0:0:0:
320,192,59773,1,0,0:0:0:0:
448,192,59868,1,0,0:0:0:0:
64,192,59868,128,0,60152:0:0:0:0:
320,192,60058,1,0,0:0:0:0:
448,192,60152,1,0,0:0:0:0:
320,192,60152,1,0,0:0:0:0:
192,192,60152,1,0,0:0:0:0:
64,192,60247,1,0,0:0:0:0:
64,192,60342,1,0,0:0:0:0:
320,192,60342,1,0,0:0:0:0:
448,192,60342,1,0,0:0:0:0:
320,192,60437,1,0,0:0:0:0:
320,192,60532,1,0,0:0:0:0:
192,192,60532,1,0,0:0:0:0:
64,192,60532,1,0,0:0:0:0:
192,192,60627,1,0,0:0:0:0:
448,192,60721,1,0,0:0:0:0:
192,192,60721,1,0,0:0:0:0:
320,192,60721,1,0,0:0:0:0:
448,192,60816,1,0,0:0:0:0:
448,192,60911,1,0,0:0:0:0:
64,192,60911,1,0,0:0:0:0:
192,192,60911,1,0,0:0:0:0:
64,192,61006,1,0,0:0:0:0:
64,192,61101,1,0,0:0:0:0:
448,192,61101,1,0,0:0:0:0:
320,192,61101,1,0,0:0:0:0:
448,192,61195,1,0,0:0:0:0:
192,192,61290,1,0,0:0:0:0:
64,192,61385,1,0,0:0:0:0:
192,192,61385,1,0,0:0:0:0:
448,192,61385,1,0,0:0:0:0:
64,192,64419,5,0,0:0:0:0:
320,192,64419,1,0,0:0:0:0:
448,192,64419,1,0,0:0:0:0:
64,192,64609,1,0,0:0:0:0:
64,192,64704,1,0,0:0:0:0:
192,192,64704,1,0,0:0:0:0:
448,192,64704,1,0,0:0:0:0:
448,192,64893,1,0,0:0:0:0:
448,192,64988,1,0,0:0:0:0:
64,192,65083,1,0,0:0:0:0:
320,192,65083,1,0,0:0:0:0:
192,192,65083,1,0,0:0:0:0:
192,192,65273,1,0,0:0:0:0:
192,192,65367,1,0,0:0:0:0:
448,192,65462,1,0,0:0:0:0:
320,192,65462,1,0,0:0:0:0:
64,192,65462,1,0,0:0:0:0:
64,192,65652,1,0,0:0:0:0:
64,192,65747,1,0,0:0:0:0:
448,192,65841,1,0,0:0:0:0:
192,192,65841,1,0,0:0:0:0:
320,192,65841,1,0,0:0:0:0:
64,192,65936,128,0,66126:0:0:0:0:
192,192,66126,1,0,0:0:0:0:
64,192,66221,1,0,0:0:0:0:
448,192,66221,1,0,0:0:0:0:
320,192,66221,1,0,0:0:0:0:
320,192,66410,1,0,0:0:0:0:
320,192,66505,1,0,0:0:0:0:
64,192,66600,1,0,0:0:0:0:
448,192,66600,1,0,0:0:0:0:
192,192,66600,1,0,0:0:0:0:
448,192,66790,1,0,0:0:0:0:
448,192,66884,1,0,0:0:0:0:
64,192,66979,1,0,0:0:0:0:
192,192,66979,1,0,0:0:0:0:
320,192,67074,1,0,0:0:0:0:
64,192,67074,1,0,0:0:0:0:
448,192,67169,1,0,0:0:0:0:
64,192,67169,1,0,0:0:0:0:
320,192,67264,1,0,0:0:0:0:
192,192,67359,1,0,0:0:0:0:
320,192,67453,1,0,0:0:0:0:
64,192,67453,1,0,0:0:0:0:
448,192,67453,1,0,0:0:0:0:
64,192,67643,1,0,0:0:0:0:
192,192,67738,1,0,0:0:0:0:
320,192,67738,1,0,0:0:0:0:
448,192,67738,1,0,0:0:0:0:
320,192,67927,1,0,0:0:0:0:
320,192,68022,1,0,0:0:0:0:
192,192,68117,1,0,0:0:0:0:
64,192,68117,1,0,0:0:0:0:
448,192,68117,1,0,0:0:0:0:
448,192,68307,1,0,0:0:0:0:
448,192,68402,1,0,0:0:0:0:
320,192,68496,1,0,0:0:0:0:
64,192,68496,1,0,0:0:0:0:
192,192,68496,1,0,0:0:0:0:
192,192,68686,1,0,0:0:0:0:
192,192,68781,1,0,0:0:0:0:
64,192,68876,1,0,0:0:0:0:
320,192,68876,1,0,0:0:0:0:
448,192,68876,1,0,0:0:0:0:
192,192,68970,128,0,69160:0:0:0:0:
64,192,69160,1,0,0:0:0:0:
64,192,69255,1,0,0:0:0:0:
448,192,69255,1,0,0:0:0:0:
320,192,69255,1,0,0:0:0:0:
448,192,69445,1,0,0:0:0:0:
448,192,69539,1,0,0:0:0:0:
64,192,69634,1,0,0:0:0:0:
320,192,69634,1,0,0:0:0:0:
192,192,69634,1,0,0:0:0:0:
192,192,69824,1,0,0:0:0:0:
192,192,69919,1,0,0:0:0:0:
64,192,70013,1,0,0:0:0:0:
320,192,70013,1,0,0:0:0:0:
448,192,70013,1,0,0:0:0:0:
448,192,70203,1,0,0:0:0:0:
448,192,70298,1,0,0:0:0:0:
192,192,70393,1,0,0:0:0:0:
64,192,70393,1,0,0:0:0:0:
320,192,70393,1,0,0:0:0:0:
448,192,70487,128,0,70677:0:0:0:0:
64,192,70582,1,0,0:0:0:0:
192,192,70582,1,0,0:0:0:0:
192,192,70677,1,0,0:0:0:0:
64,192,70772,1,0,0:0:0:0:
320,192,70772,1,0,0:0:0:0:
448,192,70772,1,0,0:0:0:0:
192,192,70962,1,0,0:0:0:0:
192,192,71056,1,0,0:0:0:0:
64,192,71151,1,0,0:0:0:0:
448,192,71151,1,0,0:0:0:0:
320,192,71151,1,0,0:0:0:0:
64,192,71341,1,0,0:0:0:0:
64,192,71436,1,0,0:0:0:0:
192,192,71530,1,0,0:0:0:0:
320,192,71530,1,0,0:0:0:0:
448,192,71530,1,0,0:0:0:0:
448,192,71720,1,0,0:0:0:0:
448,192,71815,1,0,0:0:0:0:
320,192,71910,1,0,0:0:0:0:
192,192,71910,1,0,0:0:0:0:
64,192,71910,1,0,0:0:0:0:
320,192,72099,1,0,0:0:0:0:
64,192,72099,1,0,0:0:0:0:
320,192,72194,1,0,0:0:0:0:
192,192,72194,1,0,0:0:0:0:
192,192,72289,1,0,0:0:0:0:
64,192,72384,1,0,0:0:0:0:
448,192,72384,1,0,0:0:0:0:
448,192,72479,1,0,0:0:0:0:
320,192,72479,1,0,0:0:0:0:
192,192,72573,1,0,0:0:0:0:
64,192,72668,1,0,0:0:0:0:
320,192,72668,1,0,0:0:0:0:
448,192,72763,5,0,0:0:0:0:
64,192,72858,1,0,0:0:0:0:
192,192,72858,1,0,0:0:0:0:
320,192,72953,1,0,0:0:0:0:
448,192,72953,1,0,0:0:0:0:
64,192,73048,1,0,0:0:0:0:
320,192,73048,1,0,0:0:0:0:
192,192,73142,1,0,0:0:0:0:
64,192,73142,1,0,0:0:0:0:
320,192,73237,128,0,73522:0:0:0:0:
448,192,73237,128,0,73522:0:0:0:0:
64,192,73237,1,0,0:0:0:0:
192,192,73237,1,0,0:0:0:0:
448,192,73616,5,0,0:0:0:0:
192,192,73616,1,0,0:0:0:0:
64,192,73616,1,0,0:0:0:0:
320,192,73806,1,0,0:0:0:0:
192,192,73806,1,0,0:0:0:0:
448,192,73806,1,0,0:0:0:0:
192,192,73996,1,0,0:0:0:0:
64,192,73996,1,0,0:0:0:0:
448,192,73996,1,0,0:0:0:0:
320,192,73996,1,0,0:0:0:0:
320,192,74185,1,0,0:0:0:0:
64,192,74185,1,0,0:0:0:0:
448,192,74185,1,0,0:0:0:0:
64,192,74375,1,0,0:0:0:0:
192,192,74375,1,0,0:0:0:0:
320,192,74375,1,0,0:0:0:0:
192,192,74565,1,0,0:0:0:0:
64,192,74565,1,0,0:0:0:0:
448,192,74565,1,0,0:0:0:0:
192,192,74754,1,0,0:0:0:0:
64,192,74754,1,0,0:0:0:0:
448,192,74754,1,0,0:0:0:0:
320,192,74754,1,0,0:0:0:0:
64,192,74944,1,0,0:0:0:0:
320,192,74944,1,0,0:0:0:0:
192,192,74944,1,0,0:0:0:0:
448,192,75134,1,0,0:0:0:0:
320,192,75134,1,0,0:0:0:0:
192,192,75134,1,0,0:0:0:0:
64,192,75323,1,0,0:0:0:0:
320,192,75323,1,0,0:0:0:0:
448,192,75323,1,0,0:0:0:0:
448,192,75513,1,0,0:0:0:0:
320,192,75513,1,0,0:0:0:0:
64,192,75513,1,0,0:0:0:0:
192,192,75513,1,0,0:0:0:0:
448,192,75702,1,0,0:0:0:0:
192,192,75702,1,0,0:0:0:0:
64,192,75702,1,0,0:0:0:0:
64,192,75892,1,0,0:0:0:0:
192,192,75892,1,0,0:0:0:0:
320,192,75892,1,0,0:0:0:0:
320,192,76082,1,0,0:0:0:0:
192,192,76082,1,0,0:0:0:0:
448,192,76082,1,0,0:0:0:0:
64,192,76271,1,0,0:0:0:0:
192,192,76271,1,0,0:0:0:0:
448,192,76271,1,0,0:0:0:0:
320,192,76271,1,0,0:0:0:0:
192,192,76461,1,0,0:0:0:0:
64,192,76461,1,0,0:0:0:0:
448,192,76461,1,0,0:0:0:0:
192,192,76651,1,0,0:0:0:0:
320,192,76651,1,0,0:0:0:0:
448,192,76651,1,0,0:0:0:0:
320,192,76840,1,0,0:0:0:0:
64,192,76840,1,0,0:0:0:0:
448,192,76840,1,0,0:0:0:0:
192,192,77030,1,0,0:0:0:0:
64,192,77030,1,0,0:0:0:0:
448,192,77030,1,0,0:0:0:0:
320,192,77030,1,0,0:0:0:0:
320,192,77219,1,0,0:0:0:0:
64,192,77219,1,0,0:0:0:0:
192,192,77219,1,0,0:0:0:0:
448,192,77409,1,0,0:0:0:0:
64,192,77409,1,0,0:0:0:0:
192,192,77409,1,0,0:0:0:0:
448,192,77599,1,0,0:0:0:0:
320,192,77599,1,0,0:0:0:0:
192,192,77599,1,0,0:0:0:0:
320,192,77788,1,0,0:0:0:0:
192,192,77788,1,0,0:0:0:0:
64,192,77788,1,0,0:0:0:0:
448,192,77788,1,0,0:0:0:0:
64,192,77978,1,0,0:0:0:0:
320,192,77978,1,0,0:0:0:0:
448,192,77978,1,0,0:0:0:0:
192,192,78168,1,0,0:0:0:0:
320,192,78168,1,0,0:0:0:0:
448,192,78168,1,0,0:0:0:0:
192,192,78357,1,0,0:0:0:0:
64,192,78357,1,0,0:0:0:0:
320,192,78357,1,0,0:0:0:0:
320,192,78547,1,0,0:0:0:0:
448,192,78547,1,0,0:0:0:0:
64,192,78547,1,0,0:0:0:0:
192,192,78547,1,0,0:0:0:0:
320,192,78737,1,0,0:0:0:0:
192,192,78737,1,0,0:0:0:0:
64,192,78737,1,0,0:0:0:0:
448,192,78926,1,0,0:0:0:0:
64,192,78926,1,0,0:0:0:0:
320,192,78926,1,0,0:0:0:0:
448,192,79116,1,0,0:0:0:0:
320,192,79116,1,0,0:0:0:0:
192,192,79116,1,0,0:0:0:0:
64,192,79305,1,0,0:0:0:0:
448,192,79305,1,0,0:0:0:0:
320,192,79305,1,0,0:0:0:0:
192,192,79305,1,0,0:0:0:0:
192,192,79495,1,0,0:0:0:0:
64,192,79495,1,0,0:0:0:0:
448,192,79495,1,0,0:0:0:0:
64,192,79685,1,0,0:0:0:0:
320,192,79685,1,0,0:0:0:0:
448,192,79685,1,0,0:0:0:0:
192,192,79874,1,0,0:0:0:0:
448,192,79874,1,0,0:0:0:0:
320,192,79874,1,0,0:0:0:0:
320,192,80064,1,0,0:0:0:0:
448,192,80064,1,0,0:0:0:0:
64,192,80064,1,0,0:0:0:0:
192,192,80064,1,0,0:0:0:0:
448,192,80254,1,0,0:0:0:0:
64,192,80254,1,0,0:0:0:0:
192,192,80254,1,0,0:0:0:0:
64,192,80443,1,0,0:0:0:0:
320,192,80443,1,0,0:0:0:0:
192,192,80443,1,0,0:0:0:0:
448,192,80633,1,0,0:0:0:0:
320,192,80633,1,0,0:0:0:0:
192,192,80633,1,0,0:0:0:0:
320,192,80823,1,0,0:0:0:0:
448,192,80823,1,0,0:0:0:0:
64,192,80823,1,0,0:0:0:0:
192,192,80823,1,0,0:0:0:0:
192,192,81012,1,0,0:0:0:0:
448,192,81012,1,0,0:0:0:0:
64,192,81012,1,0,0:0:0:0:
320,192,81202,1,0,0:0:0:0:
192,192,81202,1,0,0:0:0:0:
64,192,81202,1,0,0:0:0:0:
320,192,81391,1,0,0:0:0:0:
64,192,81391,1,0,0:0:0:0:
448,192,81391,1,0,0:0:0:0:
192,192,81581,1,0,0:0:0:0:
64,192,81581,1,0,0:0:0:0:
448,192,81581,1,0,0:0:0:0:
320,192,81581,1,0,0:0:0:0:
320,192,81771,1,0,0:0:0:0:
64,192,81771,1,0,0:0:0:0:
192,192,81771,1,0,0:0:0:0:
192,192,81960,1,0,0:0:0:0:
320,192,81960,1,0,0:0:0:0:
448,192,81960,1,0,0:0:0:0:
448,192,82150,1,0,0:0:0:0:
192,192,82150,1,0,0:0:0:0:
64,192,82150,1,0,0:0:0:0:
192,192,82340,1,0,0:0:0:0:
64,192,82340,1,0,0:0:0:0:
448,192,82340,1,0,0:0:0:0:
320,192,82340,1,0,0:0:0:0:
64,192,82529,1,0,0:0:0:0:
320,192,82529,1,0,0:0:0:0:
448,192,82529,1,0,0:0:0:0:
320,192,82719,1,0,0:0:0:0:
192,192,82719,1,0,0:0:0:0:
64,192,82719,1,0,0:0:0:0:
192,192,82908,1,0,0:0:0:0:
320,192,82908,1,0,0:0:0:0:
448,192,82908,1,0,0:0:0:0:
192,192,83098,1,0,0:0:0:0:
64,192,83098,1,0,0:0:0:0:
448,192,83098,1,0,0:0:0:0:
320,192,83098,1,0,0:0:0:0:
64,192,83288,1,0,0:0:0:0:
320,192,83288,1,0,0:0:0:0:
448,192,83288,1,0,0:0:0:0:
192,192,83477,1,0,0:0:0:0:
320,192,83477,1,0,0:0:0:0:
448,192,83477,1,0,0:0:0:0:
192,192,83667,1,0,0:0:0:0:
448,192,83667,1,0,0:0:0:0:
64,192,83667,1,0,0:0:0:0:
448,192,83857,1,0,0:0:0:0:
192,192,83857,1,0,0:0:0:0:
64,192,83857,1,0,0:0:0:0:
320,192,83857,1,0,0:0:0:0:
192,192,84046,1,0,0:0:0:0:
320,192,84046,1,0,0:0:0:0:
448,192,84046,1,0,0:0:0:0:
448,192,84236,1,0,0:0:0:0:
64,192,84236,1,0,0:0:0:0:
320,192,84236,1,0,0:0:0:0:
192,192,84426,1,0,0:0:0:0:
64,192,84426,1,0,0:0:0:0:
320,192,84426,1,0,0:0:0:0:
192,192,84615,1,0,0:0:0:0:
64,192,84615,1,0,0:0:0:0:
320,192,84615,1,0,0:0:0:0:
448,192,84615,1,0,0:0:0:0:
320,192,84805,1,0,0:0:0:0:
192,192,84805,1,0,0:0:0:0:
448,192,84805,1,0,0:0:0:0:
448,192,84994,1,0,0:0:0:0:
320,192,84994,1,0,0:0:0:0:
64,192,84994,1,0,0:0:0:0:
64,192,85184,1,0,0:0:0:0:
192,192,85184,1,0,0:0:0:0:
320,192,85231,1,0,0:0:0:0:
448,192,85231,1,0,0:0:0:0:
192,192,85279,1,0,0:0:0:0:
64,192,85279,1,0,0:0:0:0:
320,192,85326,1,0,0:0:0:0:
64,192,85374,1,0,0:0:0:0:
448,192,85374,1,0,0:0:0:0:
320,192,85421,1,0,0:0:0:0:
192,192,85469,1,0,0:0:0:0:
64,192,85563,1,0,0:0:0:0:
448,192,85563,1,0,0:0:0:0:
192,192,85658,1,0,0:0:0:0:
320,192,85658,1,0,0:0:0:0:
64,192,85753,5,0,0:0:0:0:
320,192,85753,1,0,0:0:0:0:
448,192,85753,1,0,0:0:0:0:
192,192,85943,1,0,0:0:0:0:
320,192,85943,1,0,0:0:0:0:
64,192,85943,1,0,0:0:0:0:
320,192,86132,1,0,0:0:0:0:
448,192,86132,1,0,0:0:0:0:
64,192,86132,1,0,0:0:0:0:
192,192,86132,1,0,0:0:0:0:
192,192,86322,1,0,0:0:0:0:
448,192,86322,1,0,0:0:0:0:
64,192,86322,1,0,0:0:0:0:
448,192,86512,1,0,0:0:0:0:
320,192,86512,1,0,0:0:0:0:
192,192,86512,1,0,0:0:0:0:
320,192,86701,1,0,0:0:0:0:
448,192,86701,1,0,0:0:0:0:
64,192,86701,1,0,0:0:0:0:
320,192,86891,1,0,0:0:0:0:
448,192,86891,1,0,0:0:0:0:
64,192,86891,1,0,0:0:0:0:
192,192,86891,1,0,0:0:0:0:
448,192,87080,1,0,0:0:0:0:
192,192,87080,1,0,0:0:0:0:
320,192,87080,1,0,0:0:0:0:
64,192,87270,1,0,0:0:0:0:
192,192,87270,1,0,0:0:0:0:
320,192,87270,1,0,0:0:0:0:
448,192,87460,1,0,0:0:0:0:
192,192,87460,1,0,0:0:0:0:
64,192,87460,1,0,0:0:0:0:
64,192,87649,1,0,0:0:0:0:
192,192,87649,1,0,0:0:0:0:
448,192,87649,1,0,0:0:0:0:
320,192,87649,1,0,0:0:0:0:
64,192,87839,1,0,0:0:0:0:
320,192,87839,1,0,0:0:0:0:
448,192,87839,1,0,0:0:0:0:
448,192,88029,1,0,0:0:0:0:
320,192,88029,1,0,0:0:0:0:
192,192,88029,1,0,0:0:0:0:
64,192,88218,1,0,0:0:0:0:
448,192,88218,1,0,0:0:0:0:
192,192,88218,1,0,0:0:0:0:
320,192,88313,1,0,0:0:0:0:
192,192,88313,1,0,0:0:0:0:
448,192,88408,1,0,0:0:0:0:
320,192,88408,1,0,0:0:0:0:
64,192,88408,1,0,0:0:0:0:
192,192,88408,1,0,0:0:0:0:
320,192,88597,1,0,0:0:0:0:
448,192,88597,1,0,0:0:0:0:
64,192,88597,1,0,0:0:0:0:
320,192,88787,1,0,0:0:0:0:
192,192,88787,1,0,0:0:0:0:
64,192,88787,1,0,0:0:0:0:
192,192,88977,1,0,0:0:0:0:
448,192,88977,1,0,0:0:0:0:
64,192,88977,1,0,0:0:0:0:
320,192,89166,1,0,0:0:0:0:
448,192,89166,1,0,0:0:0:0:
64,192,89166,1,0,0:0:0:0:
192,192,89166,1,0,0:0:0:0:
192,192,89356,1,0,0:0:0:0:
448,192,89356,1,0,0:0:0:0:
320,192,89356,1,0,0:0:0:0:
64,192,89546,1,0,0:0:0:0:
448,192,89546,1,0,0:0:0:0:
320,192,89546,1,0,0:0:0:0:
64,192,89735,1,0,0:0:0:0:
192,192,89735,1,0,0:0:0:0:
320,192,89735,1,0,0:0:0:0:
192,192,89925,1,0,0:0:0:0:
320,192,89925,1,0,0:0:0:0:
448,192,89925,1,0,0:0:0:0:
64,192,89925,1,0,0:0:0:0:
448,192,90115,1,0,0:0:0:0:
192,192,90115,1,0,0:0:0:0:
64,192,90115,1,0,0:0:0:0:
320,192,90304,1,0,0:0:0:0:
192,192,90304,1,0,0:0:0:0:
64,192,90304,1,0,0:0:0:0:
320,192,90494,1,0,0:0:0:0:
448,192,90494,1,0,0:0:0:0:
192,192,90494,1,0,0:0:0:0:
192,192,90683,1,0,0:0:0:0:
64,192,90683,1,0,0:0:0:0:
448,192,90683,1,0,0:0:0:0:
320,192,90683,1,0,0:0:0:0:
192,192,90873,1,0,0:0:0:0:
320,192,90873,1,0,0:0:0:0:
448,192,90873,1,0,0:0:0:0:
64,192,91063,1,0,0:0:0:0:
448,192,91063,1,0,0:0:0:0:
192,192,91063,1,0,0:0:0:0:
64,192,91252,1,0,0:0:0:0:
192,192,91252,1,0,0:0:0:0:
320,192,91252,1,0,0:0:0:0:
448,192,91252,1,0,0:0:0:0:
448,192,91442,1,0,0:0:0:0:
64,192,91442,1,0,0:0:0:0:
192,192,91442,1,0,0:0:0:0:
320,192,91442,1,0,0:0:0:0:
320,192,91632,1,0,0:0:0:0:
448,192,91632,1,0,0:0:0:0:
64,192,91632,1,0,0:0:0:0:
192,192,91726,1,0,0:0:0:0:
320,192,91726,1,0,0:0:0:0:
448,192,91821,1,0,0:0:0:0:
64,192,91821,1,0,0:0:0:0:
192,192,91821,1,0,0:0:0:0:
320,192,92011,1,0,0:0:0:0:
64,192,92011,1,0,0:0:0:0:
192,192,92011,1,0,0:0:0:0:
64,192,92201,1,0,0:0:0:0:
448,192,92201,1,0,0:0:0:0:
320,192,92201,1,0,0:0:0:0:
192,192,92201,1,0,0:0:0:0:
64,192,92390,1,0,0:0:0:0:
448,192,92390,1,0,0:0:0:0:
320,192,92390,1,0,0:0:0:0:
448,192,92580,1,0,0:0:0:0:
192,192,92580,1,0,0:0:0:0:
320,192,92580,1,0,0:0:0:0:
64,192,92769,1,0,0:0:0:0:
192,192,92769,1,0,0:0:0:0:
320,192,92769,1,0,0:0:0:0:
192,192,92959,1,0,0:0:0:0:
64,192,92959,1,0,0:0:0:0:
448,192,92959,1,0,0:0:0:0:
320,192,92959,1,0,0:0:0:0:
320,192,93149,1,0,0:0:0:0:
64,192,93149,1,0,0:0:0:0:
448,192,93149,1,0,0:0:0:0:
192,192,93338,1,0,0:0:0:0:
320,192,93338,1,0,0:0:0:0:
448,192,93338,1,0,0:0:0:0:
192,192,93528,1,0,0:0:0:0:
448,192,93528,1,0,0:0:0:0:
64,192,93528,1,0,0:0:0:0:
320,192,93718,1,0,0:0:0:0:
448,192,93718,1,0,0:0:0:0:
64,192,93718,1,0,0:0:0:0:
192,192,93718,1,0,0:0:0:0:
192,192,93907,1,0,0:0:0:0:
448,192,93907,1,0,0:0:0:0:
320,192,93907,1,0,0:0:0:0:
320,192,94097,1,0,0:0:0:0:
192,192,94097,1,0,0:0:0:0:
64,192,94097,1,0,0:0:0:0:
64,192,94286,1,0,0:0:0:0:
320,192,94286,1,0,0:0:0:0:
448,192,94286,1,0,0:0:0:0:
320,192,94476,1,0,0:0:0:0:
448,192,94476,1,0,0:0:0:0:
64,192,94476,1,0,0:0:0:0:
192,192,94476,1,0,0:0:0:0:
448,192,94666,1,0,0:0:0:0:
192,192,94666,1,0,0:0:0:0:
64,192,94666,1,0,0:0:0:0:
192,192,94855,1,0,0:0:0:0:
320,192,94855,1,0,0:0:0:0:
448,192,94855,1,0,0:0:0:0:
320,192,95045,1,0,0:0:0:0:
192,192,95045,1,0,0:0:0:0:
64,192,95045,1,0,0:0:0:0:
320,192,95235,1,0,0:0:0:0:
448,192,95235,1,0,0:0:0:0:
64,192,95235,1,0,0:0:0:0:
192,192,95235,1,0,0:0:0:0:
448,192,95424,1,0,0:0:0:0:
192,192,95424,1,0,0:0:0:0:
64,192,95424,1,0,0:0:0:0:
320,192,95614,1,0,0:0:0:0:
192,192,95614,1,0,0:0:0:0:
64,192,95614,1,0,0:0:0:0:
320,192,95804,1,0,0:0:0:0:
64,192,95804,1,0,0:0:0:0:
448,192,95804,1,0,0:0:0:0:
64,192,95993,1,0,0:0:0:0:
320,192,95993,1,0,0:0:0:0:
448,192,95993,1,0,0:0:0:0:
192,192,95993,1,0,0:0:0:0:
320,192,96183,1,0,0:0:0:0:
192,192,96183,1,0,0:0:0:0:
64,192,96183,1,0,0:0:0:0:
64,192,96372,1,0,0:0:0:0:
448,192,96372,1,0,0:0:0:0:
192,192,96372,1,0,0:0:0:0:
320,192,96372,1,0,0:0:0:0:
64,192,97890,1,0,0:0:0:0:
448,192,97890,1,0,0:0:0:0:
192,192,97937,1,0,0:0:0:0:
320,192,97984,1,0,0:0:0:0:
192,192,98032,1,0,0:0:0:0:
64,192,98079,1,0,0:0:0:0:
448,192,98079,1,0,0:0:0:0:
320,192,98127,1,0,0:0:0:0:
192,192,98174,1,0,0:0:0:0:
320,192,98221,1,0,0:0:0:0:
448,192,98269,1,0,0:0:0:0:
64,192,98269,1,0,0:0:0:0:
192,192,98316,1,0,0:0:0:0:
320,192,98364,1,0,0:0:0:0:
192,192,98411,1,0,0:0:0:0:
64,192,98458,1,0,0:0:0:0:
448,192,98458,1,0,0:0:0:0:
320,192,98506,1,0,0:0:0:0:
192,192,98553,1,0,0:0:0:0:
320,192,98601,1,0,0:0:0:0:
64,192,98648,128,0,98838:0:0:0:0:
448,192,98648,128,0,98838:0:0:0:0:
