osu file format v14

[General]
AudioFilename: audio120.mp3
AudioLeadIn: 0
PreviewTime: 21997
Countdown: 0
SampleSet: Normal
StackLeniency: 0.7
Mode: 3
LetterboxInBreaks: 0
SpecialStyle: 0
WidescreenStoryboard: 0

[Editor]
Bookmarks: 22052,57451
DistanceSpacing: 1.1
BeatDivisor: 4
GridSize: 8
TimelineZoom: 2.1

[Metadata]
Title:King For A Day (feat Kellin Quinn)
TitleUnicode:King For A Day (feat Kellin Quinn)
Artist:Pierce The Veil
ArtistUnicode:Pierce The Veil
Creator:CrumpetFiddler
Version:Insane [1.2x Rate]
Source:
Tags:collide the sky metal punk sleeping with sirens
BeatmapID:1817995
BeatmapSetID:869517

[Difficulty]
HPDrainRate:10
CircleSize:4
OverallDifficulty:10
ApproachRate:5
SliderMultiplier:1.4
SliderTickRate:1

[Events]
//Background and Video events
0,0,"ptvnotflip.png",0,0
//Break Periods
//Storyboard Layer 0 (Background)
//Storyboard Layer 1 (Fail)
//Storyboard Layer 2 (Pass)
//Storyboard Layer 3 (Foreground)
//Storyboard Sound Samples

[TimingPoints]
641,230.414746543779,4,1,1,20,1,0
7783,221.238938053097,4,1,1,50,1,8
8004,221.238938053097,4,1,1,50,1,0
16742,-100,4,1,1,50,0,0
18512,-100,4,1,1,50,0,0
36322,-100,4,1,1,45,0,1
50039,-100,4,1,1,45,0,1
50371,-100,4,1,1,50,0,0
53911,-100,4,1,1,50,0,0
57451,-100,4,1,1,50,0,0
63756,-100,4,1,1,50,0,0
64530,-100,4,1,1,50,0,0
70393,-100,4,1,1,50,0,0
83446,-100,4,1,1,50,0,0
85880,-100,4,1,1,45,0,1
99486,-100,4,1,1,45,0,1
99928,-100,4,1,1,45,0,0
100039,-100,4,1,1,45,0,1
106455,-100,4,1,1,45,0,1
107119,-100,4,1,1,45,0,1
112428,-100,4,1,1,45,0,0
114198,-100,4,1,1,45,0,1
115083,-100,4,1,1,45,0,0

[HitObjects]
64,192,7783,5,0,0:0:0:0:
192,192,7783,1,0,0:0:0:0:
448,192,7783,1,0,0:0:0:0:
64,192,7893,1,0,0:0:0:0:
320,192,7893,128,0,8446:0:0:0:0:
192,192,8114,1,0,0:0:0:0:
64,192,8225,1,0,0:0:0:0:
448,192,8225,1,0,0:0:0:0:
64,192,8335,1,0,0:0:0:0:
448,192,8446,1,0,0:0:0:0:
192,192,8446,1,0,0:0:0:0:
320,192,8557,1,0,0:0:0:0:
192,192,8557,1,0,0:0:0:0:
448,192,8667,1,0,0:0:0:0:
64,192,8667,1,0,0:0:0:0:
192,192,8667,1,0,0:0:0:0:
320,192,8888,1,0,0:0:0:0:
192,192,8888,1,0,0:0:0:0:
64,192,8999,1,0,0:0:0:0:
320,192,8999,1,0,0:0:0:0:
448,192,9110,1,0,0:0:0:0:
64,192,9110,1,0,0:0:0:0:
320,192,9110,1,0,0:0:0:0:
320,192,9331,1,0,0:0:0:0:
192,192,9331,1,0,0:0:0:0:
448,192,9442,1,0,0:0:0:0:
192,192,9442,1,0,0:0:0:0:
448,192,9552,1,0,0:0:0:0:
64,192,9552,1,0,0:0:0:0:
320,192,9552,1,0,0:0:0:0:
192,192,9663,128,0,10216:0:0:0:0:
320,192,9663,1,0,0:0:0:0:
64,192,9884,1,0,0:0:0:0:
320,192,9995,1,0,0:0:0:0:
448,192,9995,1,0,0:0:0:0:
448,192,10105,1,0,0:0:0:0:
64,192,10216,1,0,0:0:0:0:
320,192,10216,1,0,0:0:0:0:
192,192,10327,1,0,0:0:0:0:
320,192,10327,1,0,0:0:0:0:
64,192,10437,1,0,0:0:0:0:
448,192,10437,1,0,0:0:0:0:
320,192,10437,1,0,0:0:0:0:
192,192,10658,1,0,0:0:0:0:
320,192,10658,1,0,0:0:0:0:
448,192,10769,1,0,0:0:0:0:
192,192,10769,1,0,0:0:0:0:
448,192,10880,1,0,0:0:0:0:
64,192,10880,1,0,0:0:0:0:
192,192,10880,1,0,0:0:0:0:
192,192,11101,1,0,0:0:0:0:
320,192,11101,1,0,0:0:0:0:
64,192,11211,1,0,0:0:0:0:
320,192,11211,1,0,0:0:0:0:
64,192,11322,1,0,0:0:0:0:
448,192,11322,1,0,0:0:0:0:
320,192,11322,1,0,0:0:0:0:
320,192,11433,1,0,0:0:0:0:
192,192,11433,128,0,11875:0:0:0:0:
64,192,11654,1,0,0:0:0:0:
320,192,11765,1,0,0:0:0:0:
448,192,11765,1,0,0:0:0:0:
448,192,11875,1,0,0:0:0:0:
64,192,11875,1,0,0:0:0:0:
320,192,11986,1,0,0:0:0:0:
192,192,12096,1,0,0:0:0:0:
64,192,12096,1,0,0:0:0:0:
448,192,12207,1,0,0:0:0:0:
320,192,12207,1,0,0:0:0:0:
192,192,12318,1,0,0:0:0:0:
64,192,12318,1,0,0:0:0:0:
320,192,12428,1,0,0:0:0:0:
448,192,12428,1,0,0:0:0:0:
320,192,12539,1,0,0:0:0:0:
64,192,12539,1,0,0:0:0:0:
448,192,12650,1,0,0:0:0:0:
192,192,12650,1,0,0:0:0:0:
448,192,12760,1,0,0:0:0:0:
64,192,12760,1,0,0:0:0:0:
320,192,12871,1,0,0:0:0:0:
192,192,12871,1,0,0:0:0:0:
320,192,12981,1,0,0:0:0:0:
448,192,12981,1,0,0:0:0:0:
64,192,12981,1,0,0:0:0:0:
320,192,13092,1,0,0:0:0:0:
192,192,13092,1,0,0:0:0:0:
64,192,13203,128,0,13756:0:0:0:0:
320,192,13203,1,0,0:0:0:0:
448,192,13424,1,0,0:0:0:0:
320,192,13534,1,0,0:0:0:0:
192,192,13534,1,0,0:0:0:0:
192,192,13645,1,0,0:0:0:0:
448,192,13645,1,0,0:0:0:0:
320,192,13756,1,0,0:0:0:0:
64,192,13866,1,0,0:0:0:0:
448,192,13866,1,0,0:0:0:0:
192,192,13977,1,0,0:0:0:0:
320,192,13977,1,0,0:0:0:0:
64,192,14088,1,0,0:0:0:0:
448,192,14088,1,0,0:0:0:0:
192,192,14198,1,0,0:0:0:0:
320,192,14198,1,0,0:0:0:0:
64,192,14309,1,0,0:0:0:0:
192,192,14309,1,0,0:0:0:0:
448,192,14364,1,0,0:0:0:0:
320,192,14364,1,0,0:0:0:0:
192,192,14419,1,0,0:0:0:0:
64,192,14419,1,0,0:0:0:0:
192,192,14530,1,0,0:0:0:0:
64,192,14530,1,0,0:0:0:0:
320,192,14641,1,0,0:0:0:0:
448,192,14641,1,0,0:0:0:0:
64,192,14751,1,0,0:0:0:0:
448,192,14751,1,0,0:0:0:0:
64,192,14862,1,0,0:0:0:0:
320,192,14862,1,0,0:0:0:0:
448,192,14973,128,0,15526:0:0:0:0:
192,192,14973,1,0,0:0:0:0:
64,192,15194,1,0,0:0:0:0:
64,192,15304,1,0,0:0:0:0:
320,192,15304,1,0,0:0:0:0:
320,192,15415,1,0,0:0:0:0:
64,192,15526,1,0,0:0:0:0:
192,192,15526,1,0,0:0:0:0:
64,192,15636,1,0,0:0:0:0:
320,192,15636,1,0,0:0:0:0:
64,192,15747,1,0,0:0:0:0:
448,192,15747,1,0,0:0:0:0:
192,192,15747,1,0,0:0:0:0:
448,192,15968,1,0,0:0:0:0:
320,192,15968,1,0,0:0:0:0:
192,192,16079,1,0,0:0:0:0:
448,192,16079,1,0,0:0:0:0:
448,192,16189,1,0,0:0:0:0:
64,192,16189,1,0,0:0:0:0:
320,192,16189,1,0,0:0:0:0:
64,192,16411,1,0,0:0:0:0:
192,192,16411,1,0,0:0:0:0:
320,192,16521,1,0,0:0:0:0:
64,192,16521,1,0,0:0:0:0:
64,192,16632,1,0,0:0:0:0:
448,192,16632,1,0,0:0:0:0:
192,192,16632,1,0,0:0:0:0:
320,192,16742,128,0,17296:0:0:0:0:
448,192,16964,1,0,0:0:0:0:
448,192,17074,1,0,0:0:0:0:
64,192,17074,1,0,0:0:0:0:
192,192,17296,1,0,0:0:0:0:
448,192,17296,1,0,0:0:0:0:
320,192,17406,1,0,0:0:0:0:
448,192,17406,1,0,0:0:0:0:
448,192,17517,1,0,0:0:0:0:
64,192,17517,1,0,0:0:0:0:
320,192,17517,1,0,0:0:0:0:
192,192,17738,1,0,0:0:0:0:
64,192,17738,1,0,0:0:0:0:
64,192,17849,1,0,0:0:0:0:
320,192,17849,1,0,0:0:0:0:
448,192,17959,1,0,0:0:0:0:
64,192,17959,1,0,0:0:0:0:
192,192,17959,1,0,0:0:0:0:
448,192,18180,1,0,0:0:0:0:
320,192,18180,1,0,0:0:0:0:
448,192,18291,1,0,0:0:0:0:
192,192,18291,1,0,0:0:0:0:
448,192,18402,1,0,0:0:0:0:
64,192,18402,1,0,0:0:0:0:
320,192,18402,1,0,0:0:0:0:
192,192,18512,128,0,19065:0:0:0:0:
320,192,18512,1,0,0:0:0:0:
448,192,18734,1,0,0:0:0:0:
64,192,18844,1,0,0:0:0:0:
320,192,18844,1,0,0:0:0:0:
320,192,18955,1,0,0:0:0:0:
448,192,19065,1,0,0:0:0:0:
320,192,19065,1,0,0:0:0:0:
448,192,19176,1,0,0:0:0:0:
448,192,19287,1,0,0:0:0:0:
64,192,19287,1,0,0:0:0:0:
64,192,19397,1,0,0:0:0:0:
64,192,19508,1,0,0:0:0:0:
320,192,19508,1,0,0:0:0:0:
320,192,19619,1,0,0:0:0:0:
192,192,19729,1,0,0:0:0:0:
320,192,19729,1,0,0:0:0:0:
192,192,19840,1,0,0:0:0:0:
192,192,19950,1,0,0:0:0:0:
448,192,19950,1,0,0:0:0:0:
448,192,20061,1,0,0:0:0:0:
64,192,20172,1,0,0:0:0:0:
448,192,20172,1,0,0:0:0:0:
64,192,20282,1,0,0:0:0:0:
64,192,20393,1,0,0:0:0:0:
320,192,20393,1,0,0:0:0:0:
320,192,20503,1,0,0:0:0:0:
320,192,20614,1,0,0:0:0:0:
192,192,20614,1,0,0:0:0:0:
192,192,20725,1,0,0:0:0:0:
192,192,20835,1,0,0:0:0:0:
64,192,20835,1,0,0:0:0:0:
64,192,20946,1,0,0:0:0:0:
448,192,21057,1,0,0:0:0:0:
64,192,21057,1,0,0:0:0:0:
448,192,21167,1,0,0:0:0:0:
192,192,21278,1,0,0:0:0:0:
448,192,21278,1,0,0:0:0:0:
64,192,21388,1,0,0:0:0:0:
192,192,21388,1,0,0:0:0:0:
320,192,21444,1,0,0:0:0:0:
448,192,21444,1,0,0:0:0:0:
192,192,21499,1,0,0:0:0:0:
64,192,21499,1,0,0:0:0:0:
64,192,21610,1,0,0:0:0:0:
192,192,21610,1,0,0:0:0:0:
320,192,21665,1,0,0:0:0:0:
448,192,21720,1,0,0:0:0:0:
192,192,21720,1,0,0:0:0:0:
320,192,21831,1,0,0:0:0:0:
64,192,21831,1,0,0:0:0:0:
448,192,21942,1,0,0:0:0:0:
192,192,21942,1,0,0:0:0:0:
64,192,22052,1,0,0:0:0:0:
192,192,22052,1,0,0:0:0:0:
64,192,22273,1,0,0:0:0:0:
448,192,22384,1,0,0:0:0:0:
192,192,22384,1,0,0:0:0:0:
64,192,22605,1,0,0:0:0:0:
64,192,22716,1,0,0:0:0:0:
320,192,22827,1,0,0:0:0:0:
448,192,22827,1,0,0:0:0:0:
192,192,22827,1,0,0:0:0:0:
192,192,23048,1,0,0:0:0:0:
192,192,23158,1,0,0:0:0:0:
64,192,23269,1,0,0:0:0:0:
448,192,23269,1,0,0:0:0:0:
320,192,23269,1,0,0:0:0:0:
448,192,23490,1,0,0:0:0:0:
448,192,23601,1,0,0:0:0:0:
320,192,23711,1,0,0:0:0:0:
64,192,23711,1,0,0:0:0:0:
192,192,23711,1,0,0:0:0:0:
192,192,23822,1,0,0:0:0:0:
448,192,23822,128,0,24043:0:0:0:0:
192,192,24043,1,0,0:0:0:0:
448,192,24154,1,0,0:0:0:0:
192,192,24154,1,0,0:0:0:0:
64,192,24154,1,0,0:0:0:0:
320,192,24375,1,0,0:0:0:0:
320,192,24486,1,0,0:0:0:0:
64,192,24596,1,0,0:0:0:0:
448,192,24596,1,0,0:0:0:0:
192,192,24596,1,0,0:0:0:0:
192,192,24818,1,0,0:0:0:0:
192,192,24928,1,0,0:0:0:0:
64,192,25039,1,0,0:0:0:0:
320,192,25039,1,0,0:0:0:0:
448,192,25039,1,0,0:0:0:0:
320,192,25260,1,0,0:0:0:0:
320,192,25371,1,0,0:0:0:0:
64,192,25481,1,0,0:0:0:0:
192,192,25481,1,0,0:0:0:0:
448,192,25481,1,0,0:0:0:0:
320,192,25592,128,0,25813:0:0:0:0:
448,192,25813,1,0,0:0:0:0:
192,192,25924,1,0,0:0:0:0:
320,192,25924,1,0,0:0:0:0:
64,192,25924,1,0,0:0:0:0:
64,192,26145,1,0,0:0:0:0:
64,192,26256,1,0,0:0:0:0:
320,192,26366,1,0,0:0:0:0:
448,192,26366,1,0,0:0:0:0:
192,192,26366,1,0,0:0:0:0:
192,192,26588,1,0,0:0:0:0:
192,192,26698,1,0,0:0:0:0:
64,192,26809,1,0,0:0:0:0:
448,192,26809,1,0,0:0:0:0:
320,192,26809,1,0,0:0:0:0:
320,192,27030,1,0,0:0:0:0:
320,192,27141,1,0,0:0:0:0:
64,192,27251,1,0,0:0:0:0:
192,192,27251,1,0,0:0:0:0:
448,192,27251,1,0,0:0:0:0:
320,192,27362,128,0,27583:0:0:0:0:
448,192,27583,1,0,0:0:0:0:
64,192,27694,1,0,0:0:0:0:
448,192,27694,1,0,0:0:0:0:
192,192,27694,1,0,0:0:0:0:
192,192,27915,1,0,0:0:0:0:
192,192,28026,1,0,0:0:0:0:
64,192,28136,5,0,0:0:0:0:
320,192,28136,1,0,0:0:0:0:
448,192,28136,1,0,0:0:0:0:
448,192,28247,5,0,0:0:0:0:
320,192,28302,1,0,0:0:0:0:
64,192,28357,1,0,0:0:0:0:
192,192,28357,1,0,0:0:0:0:
448,192,28468,1,0,0:0:0:0:
320,192,28468,1,0,0:0:0:0:
192,192,28523,1,0,0:0:0:0:
64,192,28579,1,0,0:0:0:0:
448,192,28579,1,0,0:0:0:0:
448,192,28689,1,0,0:0:0:0:
320,192,28689,1,0,0:0:0:0:
320,192,28800,1,0,0:0:0:0:
448,192,28800,1,0,0:0:0:0:
192,192,28911,1,0,0:0:0:0:
320,192,28911,1,0,0:0:0:0:
192,192,29021,1,0,0:0:0:0:
64,192,29021,1,0,0:0:0:0:
320,192,29132,128,0,29353:0:0:0:0:
448,192,29132,128,0,29353:0:0:0:0:
64,192,29132,1,0,0:0:0:0:
192,192,29353,1,0,0:0:0:0:
192,192,29464,1,0,0:0:0:0:
448,192,29464,1,0,0:0:0:0:
320,192,29464,1,0,0:0:0:0:
192,192,29685,1,0,0:0:0:0:
192,192,29796,1,0,0:0:0:0:
64,192,29906,1,0,0:0:0:0:
448,192,29906,1,0,0:0:0:0:
320,192,29906,1,0,0:0:0:0:
320,192,30127,1,0,0:0:0:0:
320,192,30238,1,0,0:0:0:0:
64,192,30349,1,0,0:0:0:0:
192,192,30349,1,0,0:0:0:0:
448,192,30349,1,0,0:0:0:0:
192,192,30570,1,0,0:0:0:0:
192,192,30680,1,0,0:0:0:0:
320,192,30791,1,0,0:0:0:0:
192,192,30791,1,0,0:0:0:0:
64,192,30791,1,0,0:0:0:0:
448,192,30902,128,0,31123:0:0:0:0:
320,192,31123,1,0,0:0:0:0:
192,192,31234,1,0,0:0:0:0:
64,192,31234,1,0,0:0:0:0:
448,192,31234,1,0,0:0:0:0:
64,192,31455,1,0,0:0:0:0:
64,192,31565,1,0,0:0:0:0:
448,192,31676,1,0,0:0:0:0:
192,192,31676,1,0,0:0:0:0:
320,192,31676,1,0,0:0:0:0:
320,192,31897,1,0,0:0:0:0:
320,192,32008,1,0,0:0:0:0:
448,192,32119,1,0,0:0:0:0:
64,192,32119,1,0,0:0:0:0:
192,192,32119,1,0,0:0:0:0:
192,192,32340,1,0,0:0:0:0:
192,192,32450,1,0,0:0:0:0:
64,192,32561,1,0,0:0:0:0:
448,192,32561,1,0,0:0:0:0:
320,192,32561,1,0,0:0:0:0:
192,192,32672,128,0,32893:0:0:0:0:
320,192,32893,1,0,0:0:0:0:
64,192,33003,1,0,0:0:0:0:
448,192,33003,1,0,0:0:0:0:
192,192,33003,1,0,0:0:0:0:
320,192,33225,1,0,0:0:0:0:
320,192,33335,1,0,0:0:0:0:
448,192,33446,1,0,0:0:0:0:
192,192,33446,1,0,0:0:0:0:
64,192,33446,1,0,0:0:0:0:
192,192,33667,5,0,0:0:0:0:
192,192,33778,1,0,0:0:0:0:
64,192,33888,1,0,0:0:0:0:
320,192,33888,1,0,0:0:0:0:
448,192,33888,1,0,0:0:0:0:
448,192,34110,1,0,0:0:0:0:
448,192,34220,1,0,0:0:0:0:
192,192,34331,1,0,0:0:0:0:
320,192,34331,1,0,0:0:0:0:
64,192,34331,1,0,0:0:0:0:
320,192,34442,1,0,0:0:0:0:
64,192,34552,128,0,34773:0:0:0:0:
192,192,34552,128,0,34773:0:0:0:0:
320,192,34552,1,0,0:0:0:0:
448,192,34552,1,0,0:0:0:0:
64,192,36322,5,0,0:0:0:0:
448,192,36322,1,0,0:0:0:0:
320,192,36322,1,0,0:0:0:0:
64,192,36543,1,0,0:0:0:0:
320,192,36543,1,0,0:0:0:0:
192,192,36543,1,0,0:0:0:0:
64,192,36765,1,0,0:0:0:0:
192,192,36765,1,0,0:0:0:0:
320,192,36765,1,0,0:0:0:0:
448,192,36765,1,0,0:0:0:0:
64,192,36986,1,0,0:0:0:0:
448,192,36986,1,0,0:0:0:0:
192,192,36986,1,0,0:0:0:0:
192,192,37207,1,0,0:0:0:0:
320,192,37207,1,0,0:0:0:0:
448,192,37207,1,0,0:0:0:0:
64,192,37428,1,0,0:0:0:0:
448,192,37428,1,0,0:0:0:0:
320,192,37428,1,0,0:0:0:0:
64,192,37650,1,0,0:0:0:0:
192,192,37650,1,0,0:0:0:0:
320,192,37650,1,0,0:0:0:0:
448,192,37650,1,0,0:0:0:0:
320,192,37871,1,0,0:0:0:0:
192,192,37871,1,0,0:0:0:0:
448,192,37871,1,0,0:0:0:0:
320,192,38092,1,0,0:0:0:0:
192,192,38092,1,0,0:0:0:0:
64,192,38092,1,0,0:0:0:0:
64,192,38313,1,0,0:0:0:0:
192,192,38313,1,0,0:0:0:0:
448,192,38313,1,0,0:0:0:0:
448,192,38534,1,0,0:0:0:0:
320,192,38534,1,0,0:0:0:0:
64,192,38534,1,0,0:0:0:0:
192,192,38534,1,0,0:0:0:0:
448,192,38756,1,0,0:0:0:0:
320,192,38756,1,0,0:0:0:0:
64,192,38756,1,0,0:0:0:0:
192,192,38977,1,0,0:0:0:0:
320,192,38977,1,0,0:0:0:0:
448,192,38977,1,0,0:0:0:0:
64,192,39198,1,0,0:0:0:0:
320,192,39198,1,0,0:0:0:0:
192,192,39198,1,0,0:0:0:0:
64,192,39419,1,0,0:0:0:0:
192,192,39419,1,0,0:0:0:0:
448,192,39419,1,0,0:0:0:0:
320,192,39419,1,0,0:0:0:0:
64,192,39641,1,0,0:0:0:0:
448,192,39641,1,0,0:0:0:0:
320,192,39641,1,0,0:0:0:0:
64,192,39862,1,0,0:0:0:0:
192,192,39862,1,0,0:0:0:0:
320,192,39862,1,0,0:0:0:0:
64,192,40083,1,0,0:0:0:0:
448,192,40083,1,0,0:0:0:0:
192,192,40083,1,0,0:0:0:0:
64,192,40304,1,0,0:0:0:0:
192,192,40304,1,0,0:0:0:0:
320,192,40304,1,0,0:0:0:0:
448,192,40304,1,0,0:0:0:0:
320,192,40526,1,0,0:0:0:0:
448,192,40526,1,0,0:0:0:0:
192,192,40526,1,0,0:0:0:0:
320,192,40747,1,0,0:0:0:0:
448,192,40747,1,0,0:0:0:0:
64,192,40747,1,0,0:0:0:0:
320,192,40968,1,0,0:0:0:0:
192,192,40968,1,0,0:0:0:0:
64,192,40968,1,0,0:0:0:0:
448,192,41189,1,0,0:0:0:0:
64,192,41189,1,0,0:0:0:0:
192,192,41189,1,0,0:0:0:0:
320,192,41189,1,0,0:0:0:0:
64,192,41411,1,0,0:0:0:0:
192,192,41411,1,0,0:0:0:0:
448,192,41411,1,0,0:0:0:0:
64,192,41632,1,0,0:0:0:0:
192,192,41632,1,0,0:0:0:0:
320,192,41632,1,0,0:0:0:0:
192,192,41853,1,0,0:0:0:0:
448,192,41853,1,0,0:0:0:0:
320,192,41853,1,0,0:0:0:0:
448,192,42074,1,0,0:0:0:0:
320,192,42074,1,0,0:0:0:0:
192,192,42074,1,0,0:0:0:0:
64,192,42074,1,0,0:0:0:0:
448,192,42296,1,0,0:0:0:0:
320,192,42296,1,0,0:0:0:0:
192,192,42296,1,0,0:0:0:0:
192,192,42517,1,0,0:0:0:0:
448,192,42517,1,0,0:0:0:0:
64,192,42517,1,0,0:0:0:0:
320,192,42738,1,0,0:0:0:0:
192,192,42738,1,0,0:0:0:0:
64,192,42738,1,0,0:0:0:0:
192,192,42959,1,0,0:0:0:0:
320,192,42959,1,0,0:0:0:0:
448,192,42959,1,0,0:0:0:0:
64,192,42959,1,0,0:0:0:0:
64,192,43180,1,0,0:0:0:0:
448,192,43180,1,0,0:0:0:0:
320,192,43180,1,0,0:0:0:0:
64,192,43402,1,0,0:0:0:0:
192,192,43402,1,0,0:0:0:0:
448,192,43402,1,0,0:0:0:0:
192,192,43623,1,0,0:0:0:0:
64,192,43623,1,0,0:0:0:0:
320,192,43623,1,0,0:0:0:0:
448,192,43844,1,0,0:0:0:0:
320,192,43844,1,0,0:0:0:0:
192,192,43844,1,0,0:0:0:0:
64,192,43844,1,0,0:0:0:0:
320,192,44065,1,0,0:0:0:0:
448,192,44065,1,0,0:0:0:0:
64,192,44065,1,0,0:0:0:0:
320,192,44287,1,0,0:0:0:0:
192,192,44287,1,0,0:0:0:0:
448,192,44287,1,0,0:0:0:0:
320,192,44508,1,0,0:0:0:0:
192,192,44508,1,0,0:0:0:0:
64,192,44508,1,0,0:0:0:0:
448,192,44729,1,0,0:0:0:0:
320,192,44729,1,0,0:0:0:0:
192,192,44729,1,0,0:0:0:0:
64,192,44729,1,0,0:0:0:0:
448,192,44950,1,0,0:0:0:0:
64,192,44950,1,0,0:0:0:0:
320,192,44950,1,0,0:0:0:0:
448,192,45172,1,0,0:0:0:0:
320,192,45172,1,0,0:0:0:0:
192,192,45172,1,0,0:0:0:0:
64,192,45393,1,0,0:0:0:0:
448,192,45393,1,0,0:0:0:0:
192,192,45393,1,0,0:0:0:0:
64,192,45614,1,0,0:0:0:0:
192,192,45614,1,0,0:0:0:0:
320,192,45614,1,0,0:0:0:0:
448,192,45614,1,0,0:0:0:0:
320,192,45835,1,0,0:0:0:0:
448,192,45835,1,0,0:0:0:0:
192,192,45835,1,0,0:0:0:0:
64,192,46057,1,0,0:0:0:0:
192,192,46057,1,0,0:0:0:0:
320,192,46057,1,0,0:0:0:0:
448,192,46278,1,0,0:0:0:0:
320,192,46278,1,0,0:0:0:0:
64,192,46278,1,0,0:0:0:0:
64,192,46499,1,0,0:0:0:0:
192,192,46499,1,0,0:0:0:0:
320,192,46499,1,0,0:0:0:0:
448,192,46499,1,0,0:0:0:0:
64,192,46720,1,0,0:0:0:0:
192,192,46720,1,0,0:0:0:0:
448,192,46720,1,0,0:0:0:0:
448,192,46942,1,0,0:0:0:0:
320,192,46942,1,0,0:0:0:0:
192,192,46942,1,0,0:0:0:0:
64,192,47163,1,0,0:0:0:0:
192,192,47163,1,0,0:0:0:0:
320,192,47163,1,0,0:0:0:0:
64,192,47384,1,0,0:0:0:0:
192,192,47384,1,0,0:0:0:0:
320,192,47384,1,0,0:0:0:0:
448,192,47384,1,0,0:0:0:0:
64,192,47605,1,0,0:0:0:0:
192,192,47605,1,0,0:0:0:0:
448,192,47605,1,0,0:0:0:0:
64,192,47827,1,0,0:0:0:0:
192,192,47827,1,0,0:0:0:0:
320,192,47827,1,0,0:0:0:0:
448,192,48048,1,0,0:0:0:0:
64,192,48048,1,0,0:0:0:0:
320,192,48048,1,0,0:0:0:0:
448,192,48269,1,0,0:0:0:0:
192,192,48269,1,0,0:0:0:0:
64,192,48269,1,0,0:0:0:0:
320,192,48269,1,0,0:0:0:0:
64,192,48490,1,0,0:0:0:0:
192,192,48490,1,0,0:0:0:0:
320,192,48490,1,0,0:0:0:0:
192,192,48711,1,0,0:0:0:0:
448,192,48711,1,0,0:0:0:0:
64,192,48711,1,0,0:0:0:0:
192,192,48933,1,0,0:0:0:0:
448,192,48933,1,0,0:0:0:0:
320,192,48933,1,0,0:0:0:0:
192,192,49154,1,0,0:0:0:0:
64,192,49154,1,0,0:0:0:0:
320,192,49154,1,0,0:0:0:0:
448,192,49154,1,0,0:0:0:0:
64,192,49375,1,0,0:0:0:0:
320,192,49375,1,0,0:0:0:0:
192,192,49375,1,0,0:0:0:0:
448,192,49596,1,0,0:0:0:0:
192,192,49596,1,0,0:0:0:0:
64,192,49596,1,0,0:0:0:0:
192,192,49818,1,0,0:0:0:0:
320,192,49818,1,0,0:0:0:0:
448,192,49818,1,0,0:0:0:0:
192,192,50039,1,0,0:0:0:0:
64,192,50039,1,0,0:0:0:0:
320,192,50150,1,0,0:0:0:0:
192,192,50150,1,0,0:0:0:0:
320,192,50260,1,0,0:0:0:0:
448,192,50260,1,0,0:0:0:0:
64,192,50371,128,0,50703:0:0:0:0:
192,192,50371,128,0,50703:0:0:0:0:
320,192,53911,128,0,54242:0:0:0:0:
192,192,53911,1,0,0:0:0:0:
192,192,54132,1,0,0:0:0:0:
448,192,54242,1,0,0:0:0:0:
64,192,54242,1,0,0:0:0:0:
192,192,54353,1,0,0:0:0:0:
320,192,54464,1,0,0:0:0:0:
448,192,54464,1,0,0:0:0:0:
192,192,54574,1,0,0:0:0:0:
448,192,54685,1,0,0:0:0:0:
320,192,54685,1,0,0:0:0:0:
64,192,54685,1,0,0:0:0:0:
192,192,54796,1,0,0:0:0:0:
64,192,54906,1,0,0:0:0:0:
448,192,54906,1,0,0:0:0:0:
192,192,55017,1,0,0:0:0:0:
320,192,55127,1,0,0:0:0:0:
64,192,55127,1,0,0:0:0:0:
448,192,55127,1,0,0:0:0:0:
192,192,55238,1,0,0:0:0:0:
320,192,55349,1,0,0:0:0:0:
64,192,55349,1,0,0:0:0:0:
192,192,55459,1,0,0:0:0:0:
448,192,55570,1,0,0:0:0:0:
320,192,55570,1,0,0:0:0:0:
64,192,55570,1,0,0:0:0:0:
192,192,55680,128,0,56012:0:0:0:0:
448,192,55680,1,0,0:0:0:0:
448,192,55902,1,0,0:0:0:0:
448,192,56012,1,0,0:0:0:0:
64,192,56012,1,0,0:0:0:0:
64,192,56123,1,0,0:0:0:0:
448,192,56234,1,0,0:0:0:0:
320,192,56234,1,0,0:0:0:0:
64,192,56344,1,0,0:0:0:0:
448,192,56455,1,0,0:0:0:0:
192,192,56455,1,0,0:0:0:0:
320,192,56455,1,0,0:0:0:0:
64,192,56565,1,0,0:0:0:0:
448,192,56676,1,0,0:0:0:0:
192,192,56676,1,0,0:0:0:0:
64,192,56787,1,0,0:0:0:0:
192,192,56842,1,0,0:0:0:0:
448,192,56897,1,0,0:0:0:0:
320,192,56897,1,0,0:0:0:0:
192,192,57008,1,0,0:0:0:0:
320,192,57008,1,0,0:0:0:0:
448,192,57119,1,0,0:0:0:0:
64,192,57119,1,0,0:0:0:0:
64,192,57229,1,0,0:0:0:0:
320,192,57229,1,0,0:0:0:0:
448,192,57340,1,0,0:0:0:0:
192,192,57340,1,0,0:0:0:0:
64,192,57450,128,0,57782:0:0:0:0:
192,192,57450,1,0,0:0:0:0:
320,192,57672,1,0,0:0:0:0:
448,192,57782,1,0,0:0:0:0:
192,192,57782,1,0,0:0:0:0:
192,192,57893,1,0,0:0:0:0:
64,192,58003,1,0,0:0:0:0:
320,192,58003,1,0,0:0:0:0:
64,192,58114,1,0,0:0:0:0:
192,192,58114,1,0,0:0:0:0:
64,192,58225,1,0,0:0:0:0:
448,192,58225,1,0,0:0:0:0:
320,192,58225,1,0,0:0:0:0:
192,192,58335,1,0,0:0:0:0:
320,192,58335,1,0,0:0:0:0:
64,192,58446,1,0,0:0:0:0:
448,192,58446,1,0,0:0:0:0:
320,192,58557,1,0,0:0:0:0:
192,192,58557,1,0,0:0:0:0:
448,192,58667,1,0,0:0:0:0:
64,192,58667,1,0,0:0:0:0:
192,192,58667,1,0,0:0:0:0:
448,192,58778,1,0,0:0:0:0:
192,192,58888,1,0,0:0:0:0:
64,192,58888,1,0,0:0:0:0:
320,192,58999,1,0,0:0:0:0:
64,192,59110,1,0,0:0:0:0:
448,192,59110,1,0,0:0:0:0:
320,192,59110,1,0,0:0:0:0:
192,192,59220,128,0,59552:0:0:0:0:
448,192,59442,1,0,0:0:0:0:
64,192,59552,1,0,0:0:0:0:
320,192,59552,1,0,0:0:0:0:
64,192,59663,1,0,0:0:0:0:
448,192,59773,1,0,0:0:0:0:
192,192,59773,1,0,0:0:0:0:
320,192,59884,1,0,0:0:0:0:
448,192,59884,1,0,0:0:0:0:
448,192,59995,1,0,0:0:0:0:
64,192,59995,1,0,0:0:0:0:
192,192,59995,1,0,0:0:0:0:
320,192,60105,1,0,0:0:0:0:
192,192,60105,1,0,0:0:0:0:
448,192,60216,1,0,0:0:0:0:
192,192,60216,1,0,0:0:0:0:
64,192,60327,1,0,0:0:0:0:
320,192,60327,1,0,0:0:0:0:
192,192,60437,1,0,0:0:0:0:
448,192,60437,1,0,0:0:0:0:
320,192,60437,1,0,0:0:0:0:
64,192,60548,1,0,0:0:0:0:
192,192,60658,1,0,0:0:0:0:
448,192,60658,1,0,0:0:0:0:
320,192,60769,1,0,0:0:0:0:
64,192,60769,1,0,0:0:0:0:
64,192,60880,1,0,0:0:0:0:
192,192,60880,1,0,0:0:0:0:
320,192,60880,1,0,0:0:0:0:
448,192,60990,128,0,61322:0:0:0:0:
320,192,61211,1,0,0:0:0:0:
192,192,61322,1,0,0:0:0:0:
64,192,61322,1,0,0:0:0:0:
320,192,61433,1,0,0:0:0:0:
320,192,61543,1,0,0:0:0:0:
64,192,61543,1,0,0:0:0:0:
192,192,61654,1,0,0:0:0:0:
448,192,61654,1,0,0:0:0:0:
448,192,61765,1,0,0:0:0:0:
64,192,61765,1,0,0:0:0:0:
192,192,61765,1,0,0:0:0:0:
64,192,61875,1,0,0:0:0:0:
192,192,61986,1,0,0:0:0:0:
320,192,61986,1,0,0:0:0:0:
448,192,62096,1,0,0:0:0:0:
64,192,62096,1,0,0:0:0:0:
64,192,62207,1,0,0:0:0:0:
320,192,62207,1,0,0:0:0:0:
448,192,62207,1,0,0:0:0:0:
448,192,62318,1,0,0:0:0:0:
192,192,62318,1,0,0:0:0:0:
192,192,62428,1,0,0:0:0:0:
320,192,62428,1,0,0:0:0:0:
192,192,62539,1,0,0:0:0:0:
64,192,62539,1,0,0:0:0:0:
320,192,62650,1,0,0:0:0:0:
448,192,62650,1,0,0:0:0:0:
64,192,62650,1,0,0:0:0:0:
192,192,62760,128,0,63092:0:0:0:0:
448,192,62981,1,0,0:0:0:0:
320,192,63092,1,0,0:0:0:0:
64,192,63092,1,0,0:0:0:0:
448,192,63203,1,0,0:0:0:0:
192,192,63313,1,0,0:0:0:0:
320,192,63313,1,0,0:0:0:0:
192,192,63424,1,0,0:0:0:0:
448,192,63424,1,0,0:0:0:0:
64,192,63534,1,0,0:0:0:0:
320,192,63534,1,0,0:0:0:0:
448,192,63534,1,0,0:0:0:0:
448,192,63645,1,0,0:0:0:0:
192,192,63756,1,0,0:0:0:0:
64,192,63756,1,0,0:0:0:0:
448,192,63866,1,0,0:0:0:0:
320,192,63977,1,0,0:0:0:0:
192,192,63977,1,0,0:0:0:0:
64,192,64088,1,0,0:0:0:0:
448,192,64198,1,0,0:0:0:0:
320,192,64198,1,0,0:0:0:0:
64,192,64253,1,0,0:0:0:0:
448,192,64309,1,0,0:0:0:0:
192,192,64364,1,0,0:0:0:0:
64,192,64419,1,0,0:0:0:0:
448,192,64530,1,0,0:0:0:0:
320,192,64530,128,0,64862:0:0:0:0:
64,192,64751,1,0,0:0:0:0:
448,192,64862,1,0,0:0:0:0:
192,192,64862,1,0,0:0:0:0:
192,192,64973,1,0,0:0:0:0:
320,192,65083,1,0,0:0:0:0:
64,192,65194,1,0,0:0:0:0:
448,192,65304,1,0,0:0:0:0:
320,192,65304,1,0,0:0:0:0:
192,192,65415,1,0,0:0:0:0:
320,192,65526,1,0,0:0:0:0:
64,192,65636,1,0,0:0:0:0:
448,192,65747,1,0,0:0:0:0:
320,192,65747,1,0,0:0:0:0:
192,192,65857,1,0,0:0:0:0:
320,192,65968,1,0,0:0:0:0:
64,192,66079,1,0,0:0:0:0:
448,192,66189,1,0,0:0:0:0:
320,192,66189,1,0,0:0:0:0:
192,192,66300,128,0,66632:0:0:0:0:
64,192,66521,1,0,0:0:0:0:
448,192,66577,1,0,0:0:0:0:
64,192,66632,1,0,0:0:0:0:
320,192,66632,1,0,0:0:0:0:
448,192,66742,1,0,0:0:0:0:
64,192,66853,1,0,0:0:0:0:
320,192,66964,1,0,0:0:0:0:
64,192,67074,1,0,0:0:0:0:
192,192,67074,1,0,0:0:0:0:
448,192,67185,1,0,0:0:0:0:
192,192,67296,1,0,0:0:0:0:
320,192,67406,1,0,0:0:0:0:
64,192,67517,1,0,0:0:0:0:
448,192,67517,1,0,0:0:0:0:
448,192,67627,1,0,0:0:0:0:
192,192,67738,1,0,0:0:0:0:
448,192,67849,1,0,0:0:0:0:
320,192,67849,1,0,0:0:0:0:
64,192,67959,1,0,0:0:0:0:
192,192,67959,1,0,0:0:0:0:
448,192,68070,128,0,68402:0:0:0:0:
64,192,68070,1,0,0:0:0:0:
320,192,68291,1,0,0:0:0:0:
64,192,68402,1,0,0:0:0:0:
192,192,68402,1,0,0:0:0:0:
64,192,68512,1,0,0:0:0:0:
192,192,68623,1,0,0:0:0:0:
448,192,68734,1,0,0:0:0:0:
320,192,68844,1,0,0:0:0:0:
192,192,68844,1,0,0:0:0:0:
64,192,68955,1,0,0:0:0:0:
320,192,69065,1,0,0:0:0:0:
448,192,69176,1,0,0:0:0:0:
64,192,69287,1,0,0:0:0:0:
320,192,69287,1,0,0:0:0:0:
64,192,69397,1,0,0:0:0:0:
320,192,69508,1,0,0:0:0:0:
448,192,69619,1,0,0:0:0:0:
192,192,69729,1,0,0:0:0:0:
320,192,69729,1,0,0:0:0:0:
448,192,69840,1,0,0:0:0:0:
64,192,69840,128,0,70172:0:0:0:0:
320,192,70061,1,0,0:0:0:0:
448,192,70172,1,0,0:0:0:0:
320,192,70172,1,0,0:0:0:0:
192,192,70172,1,0,0:0:0:0:
64,192,70282,1,0,0:0:0:0:
64,192,70393,1,0,0:0:0:0:
320,192,70393,1,0,0:0:0:0:
448,192,70393,1,0,0:0:0:0:
320,192,70503,1,0,0:0:0:0:
320,192,70614,1,0,0:0:0:0:
192,192,70614,1,0,0:0:0:0:
64,192,70614,1,0,0:0:0:0:
192,192,70725,1,0,0:0:0:0:
448,192,70835,1,0,0:0:0:0:
192,192,70835,1,0,0:0:0:0:
320,192,70835,1,0,0:0:0:0:
448,192,70946,1,0,0:0:0:0:
448,192,71057,1,0,0:0:0:0:
64,192,71057,1,0,0:0:0:0:
192,192,71057,1,0,0:0:0:0:
64,192,71167,1,0,0:0:0:0:
64,192,71278,1,0,0:0:0:0:
448,192,71278,1,0,0:0:0:0:
320,192,71278,1,0,0:0:0:0:
448,192,71388,1,0,0:0:0:0:
192,192,71499,1,0,0:0:0:0:
64,192,71610,1,0,0:0:0:0:
192,192,71610,1,0,0:0:0:0:
448,192,71610,1,0,0:0:0:0:
64,192,75150,5,0,0:0:0:0:
320,192,75150,1,0,0:0:0:0:
448,192,75150,1,0,0:0:0:0:
64,192,75371,1,0,0:0:0:0:
64,192,75481,1,0,0:0:0:0:
192,192,75481,1,0,0:0:0:0:
448,192,75481,1,0,0:0:0:0:
448,192,75703,1,0,0:0:0:0:
448,192,75813,1,0,0:0:0:0:
64,192,75924,1,0,0:0:0:0:
320,192,75924,1,0,0:0:0:0:
192,192,75924,1,0,0:0:0:0:
192,192,76145,1,0,0:0:0:0:
192,192,76256,1,0,0:0:0:0:
448,192,76366,1,0,0:0:0:0:
320,192,76366,1,0,0:0:0:0:
64,192,76366,1,0,0:0:0:0:
64,192,76588,1,0,0:0:0:0:
64,192,76698,1,0,0:0:0:0:
448,192,76809,1,0,0:0:0:0:
192,192,76809,1,0,0:0:0:0:
320,192,76809,1,0,0:0:0:0:
64,192,76919,128,0,77141:0:0:0:0:
192,192,77141,1,0,0:0:0:0:
64,192,77251,1,0,0:0:0:0:
448,192,77251,1,0,0:0:0:0:
320,192,77251,1,0,0:0:0:0:
320,192,77473,1,0,0:0:0:0:
320,192,77583,1,0,0:0:0:0:
64,192,77694,1,0,0:0:0:0:
448,192,77694,1,0,0:0:0:0:
192,192,77694,1,0,0:0:0:0:
448,192,77915,1,0,0:0:0:0:
448,192,78026,1,0,0:0:0:0:
64,192,78136,1,0,0:0:0:0:
192,192,78136,1,0,0:0:0:0:
320,192,78247,1,0,0:0:0:0:
64,192,78247,1,0,0:0:0:0:
448,192,78357,1,0,0:0:0:0:
64,192,78357,1,0,0:0:0:0:
320,192,78468,1,0,0:0:0:0:
192,192,78579,1,0,0:0:0:0:
320,192,78689,1,0,0:0:0:0:
64,192,78689,1,0,0:0:0:0:
448,192,78689,1,0,0:0:0:0:
64,192,78911,1,0,0:0:0:0:
192,192,79021,1,0,0:0:0:0:
320,192,79021,1,0,0:0:0:0:
448,192,79021,1,0,0:0:0:0:
320,192,79242,1,0,0:0:0:0:
320,192,79353,1,0,0:0:0:0:
192,192,79464,1,0,0:0:0:0:
64,192,79464,1,0,0:0:0:0:
448,192,79464,1,0,0:0:0:0:
448,192,79685,1,0,0:0:0:0:
448,192,79796,1,0,0:0:0:0:
320,192,79906,1,0,0:0:0:0:
64,192,79906,1,0,0:0:0:0:
192,192,79906,1,0,0:0:0:0:
192,192,80127,1,0,0:0:0:0:
192,192,80238,1,0,0:0:0:0:
64,192,80349,1,0,0:0:0:0:
320,192,80349,1,0,0:0:0:0:
448,192,80349,1,0,0:0:0:0:
192,192,80459,128,0,80680:0:0:0:0:
64,192,80680,1,0,0:0:0:0:
64,192,80791,1,0,0:0:0:0:
448,192,80791,1,0,0:0:0:0:
320,192,80791,1,0,0:0:0:0:
448,192,81012,1,0,0:0:0:0:
448,192,81123,1,0,0:0:0:0:
64,192,81234,1,0,0:0:0:0:
320,192,81234,1,0,0:0:0:0:
192,192,81234,1,0,0:0:0:0:
192,192,81455,1,0,0:0:0:0:
192,192,81565,1,0,0:0:0:0:
64,192,81676,1,0,0:0:0:0:
320,192,81676,1,0,0:0:0:0:
448,192,81676,1,0,0:0:0:0:
448,192,81897,1,0,0:0:0:0:
448,192,82008,1,0,0:0:0:0:
192,192,82119,1,0,0:0:0:0:
64,192,82119,1,0,0:0:0:0:
320,192,82119,1,0,0:0:0:0:
448,192,82229,128,0,82450:0:0:0:0:
64,192,82340,1,0,0:0:0:0:
192,192,82340,1,0,0:0:0:0:
192,192,82450,1,0,0:0:0:0:
64,192,82561,1,0,0:0:0:0:
320,192,82561,1,0,0:0:0:0:
448,192,82561,1,0,0:0:0:0:
192,192,82782,1,0,0:0:0:0:
192,192,82893,1,0,0:0:0:0:
64,192,83003,1,0,0:0:0:0:
448,192,83003,1,0,0:0:0:0:
320,192,83003,1,0,0:0:0:0:
64,192,83225,1,0,0:0:0:0:
64,192,83335,1,0,0:0:0:0:
192,192,83446,1,0,0:0:0:0:
320,192,83446,1,0,0:0:0:0:
448,192,83446,1,0,0:0:0:0:
448,192,83667,1,0,0:0:0:0:
448,192,83778,1,0,0:0:0:0:
320,192,83888,1,0,0:0:0:0:
192,192,83888,1,0,0:0:0:0:
64,192,83888,1,0,0:0:0:0:
320,192,84110,1,0,0:0:0:0:
64,192,84110,1,0,0:0:0:0:
320,192,84220,1,0,0:0:0:0:
192,192,84220,1,0,0:0:0:0:
192,192,84331,1,0,0:0:0:0:
64,192,84442,1,0,0:0:0:0:
448,192,84442,1,0,0:0:0:0:
448,192,84552,1,0,0:0:0:0:
320,192,84552,1,0,0:0:0:0:
192,192,84663,1,0,0:0:0:0:
64,192,84773,1,0,0:0:0:0:
320,192,84773,1,0,0:0:0:0:
448,192,84884,5,0,0:0:0:0:
64,192,84995,1,0,0:0:0:0:
192,192,84995,1,0,0:0:0:0:
320,192,85105,1,0,0:0:0:0:
448,192,85105,1,0,0:0:0:0:
64,192,85216,1,0,0:0:0:0:
320,192,85216,1,0,0:0:0:0:
192,192,85327,1,0,0:0:0:0:
64,192,85327,1,0,0:0:0:0:
320,192,85437,128,0,85769:0:0:0:0:
448,192,85437,128,0,85769:0:0:0:0:
64,192,85437,1,0,0:0:0:0:
192,192,85437,1,0,0:0:0:0:
448,192,85880,5,0,0:0:0:0:
192,192,85880,1,0,0:0:0:0:
64,192,85880,1,0,0:0:0:0:
320,192,86101,1,0,0:0:0:0:
192,192,86101,1,0,0:0:0:0:
448,192,86101,1,0,0:0:0:0:
192,192,86322,1,0,0:0:0:0:
64,192,86322,1,0,0:0:0:0:
448,192,86322,1,0,0:0:0:0:
320,192,86322,1,0,0:0:0:0:
320,192,86543,1,0,0:0:0:0:
64,192,86543,1,0,0:0:0:0:
448,192,86543,1,0,0:0:0:0:
64,192,86765,1,0,0:0:0:0:
192,192,86765,1,0,0:0:0:0:
320,192,86765,1,0,0:0:0:0:
192,192,86986,1,0,0:0:0:0:
64,192,86986,1,0,0:0:0:0:
448,192,86986,1,0,0:0:0:0:
192,192,87207,1,0,0:0:0:0:
64,192,87207,1,0,0:0:0:0:
448,192,87207,1,0,0:0:0:0:
320,192,87207,1,0,0:0:0:0:
64,192,87428,1,0,0:0:0:0:
320,192,87428,1,0,0:0:0:0:
192,192,87428,1,0,0:0:0:0:
448,192,87650,1,0,0:0:0:0:
320,192,87650,1,0,0:0:0:0:
192,192,87650,1,0,0:0:0:0:
64,192,87871,1,0,0:0:0:0:
320,192,87871,1,0,0:0:0:0:
448,192,87871,1,0,0:0:0:0:
448,192,88092,1,0,0:0:0:0:
320,192,88092,1,0,0:0:0:0:
64,192,88092,1,0,0:0:0:0:
192,192,88092,1,0,0:0:0:0:
448,192,88313,1,0,0:0:0:0:
192,192,88313,1,0,0:0:0:0:
64,192,88313,1,0,0:0:0:0:
64,192,88534,1,0,0:0:0:0:
192,192,88534,1,0,0:0:0:0:
320,192,88534,1,0,0:0:0:0:
320,192,88756,1,0,0:0:0:0:
192,192,88756,1,0,0:0:0:0:
448,192,88756,1,0,0:0:0:0:
64,192,88977,1,0,0:0:0:0:
192,192,88977,1,0,0:0:0:0:
448,192,88977,1,0,0:0:0:0:
320,192,88977,1,0,0:0:0:0:
192,192,89198,1,0,0:0:0:0:
64,192,89198,1,0,0:0:0:0:
448,192,89198,1,0,0:0:0:0:
192,192,89419,1,0,0:0:0:0:
320,192,89419,1,0,0:0:0:0:
448,192,89419,1,0,0:0:0:0:
320,192,89641,1,0,0:0:0:0:
64,192,89641,1,0,0:0:0:0:
448,192,89641,1,0,0:0:0:0:
192,192,89862,1,0,0:0:0:0:
64,192,89862,1,0,0:0:0:0:
448,192,89862,1,0,0:0:0:0:
320,192,89862,1,0,0:0:0:0:
320,192,90083,1,0,0:0:0:0:
64,192,90083,1,0,0:0:0:0:
192,192,90083,1,0,0:0:0:0:
448,192,90304,1,0,0:0:0:0:
64,192,90304,1,0,0:0:0:0:
192,192,90304,1,0,0:0:0:0:
448,192,90526,1,0,0:0:0:0:
320,192,90526,1,0,0:0:0:0:
192,192,90526,1,0,0:0:0:0:
320,192,90747,1,0,0:0:0:0:
192,192,90747,1,0,0:0:0:0:
64,192,90747,1,0,0:0:0:0:
448,192,90747,1,0,0:0:0:0:
64,192,90968,1,0,0:0:0:0:
320,192,90968,1,0,0:0:0:0:
448,192,90968,1,0,0:0:0:0:
192,192,91189,1,0,0:0:0:0:
320,192,91189,1,0,0:0:0:0:
448,192,91189,1,0,0:0:0:0:
192,192,91411,1,0,0:0:0:0:
64,192,91411,1,0,0:0:0:0:
320,192,91411,1,0,0:0:0:0:
320,192,91632,1,0,0:0:0:0:
448,192,91632,1,0,0:0:0:0:
64,192,91632,1,0,0:0:0:0:
192,192,91632,1,0,0:0:0:0:
320,192,91853,1,0,0:0:0:0:
192,192,91853,1,0,0:0:0:0:
64,192,91853,1,0,0:0:0:0:
448,192,92074,1,0,0:0:0:0:
64,192,92074,1,0,0:0:0:0:
320,192,92074,1,0,0:0:0:0:
448,192,92296,1,0,0:0:0:0:
320,192,92296,1,0,0:0:0:0:
192,192,92296,1,0,0:0:0:0:
64,192,92517,1,0,0:0:0:0:
448,192,92517,1,0,0:0:0:0:
320,192,92517,1,0,0:0:0:0:
192,192,92517,1,0,0:0:0:0:
192,192,92738,1,0,0:0:0:0:
64,192,92738,1,0,0:0:0:0:
448,192,92738,1,0,0:0:0:0:
64,192,92959,1,0,0:0:0:0:
320,192,92959,1,0,0:0:0:0:
448,192,92959,1,0,0:0:0:0:
192,192,93180,1,0,0:0:0:0:
448,192,93180,1,0,0:0:0:0:
320,192,93180,1,0,0:0:0:0:
320,192,93402,1,0,0:0:0:0:
448,192,93402,1,0,0:0:0:0:
64,192,93402,1,0,0:0:0:0:
192,192,93402,1,0,0:0:0:0:
448,192,93623,1,0,0:0:0:0:
64,192,93623,1,0,0:0:0:0:
192,192,93623,1,0,0:0:0:0:
64,192,93844,1,0,0:0:0:0:
320,192,93844,1,0,0:0:0:0:
192,192,93844,1,0,0:0:0:0:
448,192,94065,1,0,0:0:0:0:
320,192,94065,1,0,0:0:0:0:
192,192,94065,1,0,0:0:0:0:
320,192,94287,1,0,0:0:0:0:
448,192,94287,1,0,0:0:0:0:
64,192,94287,1,0,0:0:0:0:
192,192,94287,1,0,0:0:0:0:
192,192,94508,1,0,0:0:0:0:
448,192,94508,1,0,0:0:0:0:
64,192,94508,1,0,0:0:0:0:
320,192,94729,1,0,0:0:0:0:
192,192,94729,1,0,0:0:0:0:
64,192,94729,1,0,0:0:0:0:
320,192,94950,1,0,0:0:0:0:
64,192,94950,1,0,0:0:0:0:
448,192,94950,1,0,0:0:0:0:
192,192,95172,1,0,0:0:0:0:
64,192,95172,1,0,0:0:0:0:
448,192,95172,1,0,0:0:0:0:
320,192,95172,1,0,0:0:0:0:
320,192,95393,1,0,0:0:0:0:
64,192,95393,1,0,0:0:0:0:
192,192,95393,1,0,0:0:0:0:
192,192,95614,1,0,0:0:0:0:
320,192,95614,1,0,0:0:0:0:
448,192,95614,1,0,0:0:0:0:
448,192,95835,1,0,0:0:0:0:
192,192,95835,1,0,0:0:0:0:
64,192,95835,1,0,0:0:0:0:
192,192,96057,1,0,0:0:0:0:
64,192,96057,1,0,0:0:0:0:
448,192,96057,1,0,0:0:0:0:
320,192,96057,1,0,0:0:0:0:
64,192,96278,1,0,0:0:0:0:
320,192,96278,1,0,0:0:0:0:
448,192,96278,1,0,0:0:0:0:
320,192,96499,1,0,0:0:0:0:
192,192,96499,1,0,0:0:0:0:
64,192,96499,1,0,0:0:0:0:
192,192,96720,1,0,0:0:0:0:
320,192,96720,1,0,0:0:0:0:
448,192,96720,1,0,0:0:0:0:
192,192,96942,1,0,0:0:0:0:
64,192,96942,1,0,0:0:0:0:
448,192,96942,1,0,0:0:0:0:
320,192,96942,1,0,0:0:0:0:
64,192,97163,1,0,0:0:0:0:
320,192,97163,1,0,0:0:0:0:
448,192,97163,1,0,0:0:0:0:
192,192,97384,1,0,0:0:0:0:
320,192,97384,1,0,0:0:0:0:
448,192,97384,1,0,0:0:0:0:
192,192,97605,1,0,0:0:0:0:
448,192,97605,1,0,0:0:0:0:
64,192,97605,1,0,0:0:0:0:
448,192,97827,1,0,0:0:0:0:
192,192,97827,1,0,0:0:0:0:
64,192,97827,1,0,0:0:0:0:
320,192,97827,1,0,0:0:0:0:
192,192,98048,1,0,0:0:0:0:
320,192,98048,1,0,0:0:0:0:
448,192,98048,1,0,0:0:0:0:
448,192,98269,1,0,0:0:0:0:
64,192,98269,1,0,0:0:0:0:
320,192,98269,1,0,0:0:0:0:
192,192,98490,1,0,0:0:0:0:
64,192,98490,1,0,0:0:0:0:
320,192,98490,1,0,0:0:0:0:
192,192,98711,1,0,0:0:0:0:
64,192,98711,1,0,0:0:0:0:
320,192,98711,1,0,0:0:0:0:
448,192,98711,1,0,0:0:0:0:
320,192,98933,1,0,0:0:0:0:
192,192,98933,1,0,0:0:0:0:
448,192,98933,1,0,0:0:0:0:
448,192,99154,1,0,0:0:0:0:
320,192,99154,1,0,0:0:0:0:
64,192,99154,1,0,0:0:0:0:
64,192,99375,1,0,0:0:0:0:
192,192,99375,1,0,0:0:0:0:
320,192,99430,1,0,0:0:0:0:
448,192,99430,1,0,0:0:0:0:
192,192,99486,1,0,0:0:0:0:
64,192,99486,1,0,0:0:0:0:
320,192,99541,1,0,0:0:0:0:
64,192,99596,1,0,0:0:0:0:
448,192,99596,1,0,0:0:0:0:
320,192,99652,1,0,0:0:0:0:
192,192,99707,1,0,0:0:0:0:
64,192,99818,1,0,0:0:0:0:
448,192,99818,1,0,0:0:0:0:
192,192,99928,1,0,0:0:0:0:
320,192,99928,1,0,0:0:0:0:
64,192,100039,5,0,0:0:0:0:
320,192,100039,1,0,0:0:0:0:
448,192,100039,1,0,0:0:0:0:
192,192,100260,1,0,0:0:0:0:
320,192,100260,1,0,0:0:0:0:
64,192,100260,1,0,0:0:0:0:
320,192,100481,1,0,0:0:0:0:
448,192,100481,1,0,0:0:0:0:
64,192,100481,1,0,0:0:0:0:
192,192,100481,1,0,0:0:0:0:
192,192,100703,1,0,0:0:0:0:
448,192,100703,1,0,0:0:0:0:
64,192,100703,1,0,0:0:0:0:
448,192,100924,1,0,0:0:0:0:
320,192,100924,1,0,0:0:0:0:
192,192,100924,1,0,0:0:0:0:
320,192,101145,1,0,0:0:0:0:
448,192,101145,1,0,0:0:0:0:
64,192,101145,1,0,0:0:0:0:
320,192,101366,1,0,0:0:0:0:
448,192,101366,1,0,0:0:0:0:
64,192,101366,1,0,0:0:0:0:
192,192,101366,1,0,0:0:0:0:
448,192,101588,1,0,0:0:0:0:
192,192,101588,1,0,0:0:0:0:
320,192,101588,1,0,0:0:0:0:
64,192,101809,1,0,0:0:0:0:
192,192,101809,1,0,0:0:0:0:
320,192,101809,1,0,0:0:0:0:
448,192,102030,1,0,0:0:0:0:
192,192,102030,1,0,0:0:0:0:
64,192,102030,1,0,0:0:0:0:
64,192,102251,1,0,0:0:0:0:
192,192,102251,1,0,0:0:0:0:
448,192,102251,1,0,0:0:0:0:
320,192,102251,1,0,0:0:0:0:
64,192,102473,1,0,0:0:0:0:
320,192,102473,1,0,0:0:0:0:
448,192,102473,1,0,0:0:0:0:
448,192,102694,1,0,0:0:0:0:
320,192,102694,1,0,0:0:0:0:
192,192,102694,1,0,0:0:0:0:
64,192,102915,1,0,0:0:0:0:
448,192,102915,1,0,0:0:0:0:
192,192,102915,1,0,0:0:0:0:
320,192,103026,1,0,0:0:0:0:
192,192,103026,1,0,0:0:0:0:
448,192,103136,1,0,0:0:0:0:
320,192,103136,1,0,0:0:0:0:
64,192,103136,1,0,0:0:0:0:
192,192,103136,1,0,0:0:0:0:
320,192,103357,1,0,0:0:0:0:
448,192,103357,1,0,0:0:0:0:
64,192,103357,1,0,0:0:0:0:
320,192,103579,1,0,0:0:0:0:
192,192,103579,1,0,0:0:0:0:
64,192,103579,1,0,0:0:0:0:
192,192,103800,1,0,0:0:0:0:
448,192,103800,1,0,0:0:0:0:
64,192,103800,1,0,0:0:0:0:
320,192,104021,1,0,0:0:0:0:
448,192,104021,1,0,0:0:0:0:
64,192,104021,1,0,0:0:0:0:
192,192,104021,1,0,0:0:0:0:
192,192,104242,1,0,0:0:0:0:
448,192,104242,1,0,0:0:0:0:
320,192,104242,1,0,0:0:0:0:
64,192,104464,1,0,0:0:0:0:
448,192,104464,1,0,0:0:0:0:
320,192,104464,1,0,0:0:0:0:
64,192,104685,1,0,0:0:0:0:
192,192,104685,1,0,0:0:0:0:
320,192,104685,1,0,0:0:0:0:
192,192,104906,1,0,0:0:0:0:
320,192,104906,1,0,0:0:0:0:
448,192,104906,1,0,0:0:0:0:
64,192,104906,1,0,0:0:0:0:
448,192,105127,1,0,0:0:0:0:
192,192,105127,1,0,0:0:0:0:
64,192,105127,1,0,0:0:0:0:
320,192,105349,1,0,0:0:0:0:
192,192,105349,1,0,0:0:0:0:
64,192,105349,1,0,0:0:0:0:
320,192,105570,1,0,0:0:0:0:
448,192,105570,1,0,0:0:0:0:
192,192,105570,1,0,0:0:0:0:
192,192,105791,1,0,0:0:0:0:
64,192,105791,1,0,0:0:0:0:
448,192,105791,1,0,0:0:0:0:
320,192,105791,1,0,0:0:0:0:
192,192,106012,1,0,0:0:0:0:
320,192,106012,1,0,0:0:0:0:
448,192,106012,1,0,0:0:0:0:
64,192,106234,1,0,0:0:0:0:
448,192,106234,1,0,0:0:0:0:
192,192,106234,1,0,0:0:0:0:
64,192,106455,1,0,0:0:0:0:
192,192,106455,1,0,0:0:0:0:
320,192,106455,1,0,0:0:0:0:
448,192,106455,1,0,0:0:0:0:
448,192,106676,1,0,0:0:0:0:
64,192,106676,1,0,0:0:0:0:
192,192,106676,1,0,0:0:0:0:
320,192,106676,1,0,0:0:0:0:
320,192,106897,1,0,0:0:0:0:
448,192,106897,1,0,0:0:0:0:
64,192,106897,1,0,0:0:0:0:
192,192,107008,1,0,0:0:0:0:
320,192,107008,1,0,0:0:0:0:
448,192,107119,1,0,0:0:0:0:
64,192,107119,1,0,0:0:0:0:
192,192,107119,1,0,0:0:0:0:
320,192,107340,1,0,0:0:0:0:
64,192,107340,1,0,0:0:0:0:
192,192,107340,1,0,0:0:0:0:
64,192,107561,1,0,0:0:0:0:
448,192,107561,1,0,0:0:0:0:
320,192,107561,1,0,0:0:0:0:
192,192,107561,1,0,0:0:0:0:
64,192,107782,1,0,0:0:0:0:
448,192,107782,1,0,0:0:0:0:
320,192,107782,1,0,0:0:0:0:
448,192,108003,1,0,0:0:0:0:
192,192,108003,1,0,0:0:0:0:
320,192,108003,1,0,0:0:0:0:
64,192,108225,1,0,0:0:0:0:
192,192,108225,1,0,0:0:0:0:
320,192,108225,1,0,0:0:0:0:
192,192,108446,1,0,0:0:0:0:
64,192,108446,1,0,0:0:0:0:
448,192,108446,1,0,0:0:0:0:
320,192,108446,1,0,0:0:0:0:
320,192,108667,1,0,0:0:0:0:
64,192,108667,1,0,0:0:0:0:
448,192,108667,1,0,0:0:0:0:
192,192,108888,1,0,0:0:0:0:
320,192,108888,1,0,0:0:0:0:
448,192,108888,1,0,0:0:0:0:
192,192,109110,1,0,0:0:0:0:
448,192,109110,1,0,0:0:0:0:
64,192,109110,1,0,0:0:0:0:
320,192,109331,1,0,0:0:0:0:
448,192,109331,1,0,0:0:0:0:
64,192,109331,1,0,0:0:0:0:
192,192,109331,1,0,0:0:0:0:
192,192,109552,1,0,0:0:0:0:
448,192,109552,1,0,0:0:0:0:
320,192,109552,1,0,0:0:0:0:
320,192,109773,1,0,0:0:0:0:
192,192,109773,1,0,0:0:0:0:
64,192,109773,1,0,0:0:0:0:
64,192,109995,1,0,0:0:0:0:
320,192,109995,1,0,0:0:0:0:
448,192,109995,1,0,0:0:0:0:
320,192,110216,1,0,0:0:0:0:
448,192,110216,1,0,0:0:0:0:
64,192,110216,1,0,0:0:0:0:
192,192,110216,1,0,0:0:0:0:
448,192,110437,1,0,0:0:0:0:
192,192,110437,1,0,0:0:0:0:
64,192,110437,1,0,0:0:0:0:
192,192,110658,1,0,0:0:0:0:
320,192,110658,1,0,0:0:0:0:
448,192,110658,1,0,0:0:0:0:
320,192,110880,1,0,0:0:0:0:
192,192,110880,1,0,0:0:0:0:
64,192,110880,1,0,0:0:0:0:
320,192,111101,1,0,0:0:0:0:
448,192,111101,1,0,0:0:0:0:
64,192,111101,1,0,0:0:0:0:
192,192,111101,1,0,0:0:0:0:
448,192,111322,1,0,0:0:0:0:
192,192,111322,1,0,0:0:0:0:
64,192,111322,1,0,0:0:0:0:
320,192,111543,1,0,0:0:0:0:
192,192,111543,1,0,0:0:0:0:
64,192,111543,1,0,0:0:0:0:
320,192,111765,1,0,0:0:0:0:
64,192,111765,1,0,0:0:0:0:
448,192,111765,1,0,0:0:0:0:
64,192,111986,1,0,0:0:0:0:
320,192,111986,1,0,0:0:0:0:
448,192,111986,1,0,0:0:0:0:
192,192,111986,1,0,0:0:0:0:
320,192,112207,1,0,0:0:0:0:
192,192,112207,1,0,0:0:0:0:
64,192,112207,1,0,0:0:0:0:
64,192,112428,1,0,0:0:0:0:
448,192,112428,1,0,0:0:0:0:
192,192,112428,1,0,0:0:0:0:
320,192,112428,1,0,0:0:0:0:
64,192,114198,1,0,0:0:0:0:
448,192,114198,1,0,0:0:0:0:
192,192,114253,1,0,0:0:0:0:
320,192,114309,1,0,0:0:0:0:
192,192,114364,1,0,0:0:0:0:
64,192,114419,1,0,0:0:0:0:
448,192,114419,1,0,0:0:0:0:
320,192,114475,1,0,0:0:0:0:
192,192,114530,1,0,0:0:0:0:
320,192,114585,1,0,0:0:0:0:
448,192,114641,1,0,0:0:0:0:
64,192,114641,1,0,0:0:0:0:
192,192,114696,1,0,0:0:0:0:
320,192,114751,1,0,0:0:0:0:
192,192,114807,1,0,0:0:0:0:
64,192,114862,1,0,0:0:0:0:
448,192,114862,1,0,0:0:0:0:
320,192,114917,1,0,0:0:0:0:
192,192,114973,1,0,0:0:0:0:
320,192,115028,1,0,0:0:0:0:
64,192,115083,128,0,115304:0:0:0:0:
448,192,115083,128,0,115304:0:0:0:0:
