osu file format v14

[General]
AudioFilename: audio.mp3
AudioLeadIn: 0
PreviewTime: 184300
Countdown: 0
SampleSet: Soft
StackLeniency: 0.7
Mode: 0
LetterboxInBreaks: 0
WidescreenStoryboard: 1

[Editor]
DistanceSpacing: 1
BeatDivisor: 4
GridSize: 32
TimelineZoom: 0.5999998

[Metadata]
Title:Hold On Till May (feat. Lindsey Stamey)
TitleUnicode:Hold On Till May (feat. Lindsey Stamey)
Artist:Pierce The Veil
ArtistUnicode:Pierce The Veil
Creator:Ruiz Duchamp
Version:Normal
Source:
Tags:collide with the sky english alternative punk rock post hardcore
BeatmapID:4130114
BeatmapSetID:1988187

[Difficulty]
HPDrainRate:4
CircleSize:3.5
OverallDifficulty:4
ApproachRate:5
SliderMultiplier:1
SliderTickRate:1

[Events]
//Background and Video events
0,0,"Qi8CvonsYnM.jpg",0,0
//Break Periods
2,39894,51406
2,131948,143255
//Storyboard Layer 0 (Background)
//Storyboard Layer 1 (Fail)
//Storyboard Layer 2 (Pass)
//Storyboard Layer 3 (Foreground)
//Storyboard Layer 4 (Overlay)
//Storyboard Sound Samples

[TimingPoints]
242,410.958904109589,4,2,1,55,1,0
184351,-133.333333333333,4,2,1,75,0,1
190105,-133.333333333333,4,2,1,65,0,0
190926,-133.333333333333,4,2,1,75,0,1
196680,-133.333333333333,4,2,1,65,0,0
197502,-133.333333333333,4,2,1,75,0,1
203255,-133.333333333333,4,2,1,65,0,0
204077,-133.333333333333,4,2,1,75,0,1
209831,-100,4,2,1,55,0,0

[Colours]
Combo1 : 240,125,155
Combo2 : 220,165,190
Combo3 : 110,100,155

[HitObjects]
448,192,12981,5,8,1:0:0:0:
362,244,13392,2,0,P|332:242|293:247,1,50,2|4,1:0|0:3,0:0:0:0:
271,213,13803,1,8,1:0:0:0:
271,213,14009,2,2,P|207:208|171:184,1,100,2|4,1:0|0:3,0:1:0:0:
149,148,14625,1,10,1:0:0:0:
213,71,15036,1,2,1:0:0:0:
307,117,15447,1,8,1:0:0:0:
307,117,15652,2,0,P|378:121|425:113,1,100,2|4,1:0|0:3,0:0:0:0:
455,105,16269,1,10,1:0:0:0:
478,202,16680,6,0,P|477:245|479:266,1,50,2|4,1:0|0:3,0:0:0:0:
445,291,17091,1,8,1:0:0:0:
445,291,17296,2,2,P|373:318|338:363,1,100,2|0,1:0|0:0,0:1:0:0:
337,379,17913,1,10,1:0:0:0:
245,339,18324,2,0,P|193:344|136:334,1,100,2|8,1:0|1:0,0:0:0:0:
63,280,19146,2,0,P|66:258|64:216,1,50,2|4,1:0|0:3,0:0:0:0:
88,185,19557,1,10,1:0:0:0:
49,92,19968,6,0,P|51:68|49:37,1,50,2|4,1:0|0:3,0:0:0:0:
94,19,20378,1,8,1:0:0:0:
94,19,20584,2,2,P|162:37|219:30,1,100,2|4,1:0|0:3,0:1:0:0:
240,27,21200,1,8,1:0:0:0:
324,80,21611,1,0,3:0:0:0:
420,51,22022,2,0,P|448:53|480:49,1,50,10|0,1:0|0:0,0:0:0:0:
504,87,22433,1,2,1:0:0:0:
456,175,22844,1,10,1:0:0:0:
498,265,23255,5,2,1:0:0:0:
481,312,23461,1,4,0:3:0:0:
490,360,23666,2,0,P|458:357|424:361,1,50,8|4,1:0|0:3,0:0:0:0:
397,331,24077,1,2,1:0:0:0:
302,362,24488,1,10,1:0:0:0:
211,320,24899,2,0,P|180:323|145:318,1,50,2|4,1:0|0:3,0:0:0:0:
119,348,25310,1,10,1:0:0:0:
49,276,25721,2,0,P|50:248|48:223,1,50,2|4,1:0|0:3,0:0:0:0:
82,190,26132,1,10,1:0:0:0:
82,190,26337,1,4,0:0:0:0:
129,207,26543,6,0,P|154:210|190:205,1,50,6|4,1:0|0:3,0:0:0:0:
221,180,26954,1,12,1:0:0:0:
221,180,27159,2,2,P|303:182|366:153,1,150,2|8,1:0|1:0,0:1:0:0:
313,67,28187,2,0,P|265:73|206:68,1,100,2|8,1:0|1:0,0:0:0:0:
180,106,28803,2,0,L|113:114,1,50,2|0,1:0|0:0,0:0:0:0:
90,91,29214,1,0,0:0:0:0:
90,91,29420,1,2,1:0:0:0:
32,172,29831,6,0,P|32:213|27:245,1,50,2|4,1:0|0:3,0:0:0:0:
69,262,30241,1,8,1:0:0:0:
69,262,30447,1,4,0:3:0:0:
42,304,30652,1,2,1:0:0:0:
129,352,31063,1,10,1:0:0:0:
199,281,31474,2,2,P|234:283|254:280,1,50,2|0,1:0|0:0,0:1:0:0:
294,313,31885,1,8,1:0:0:0:
294,313,32091,2,2,P|357:311|401:292,1,100,2|4,1:0|0:3,0:1:0:0:
428,264,32707,1,10,1:0:0:0:
488,184,33118,5,2,1:0:0:0:
466,138,33324,1,4,0:3:0:0:
488,93,33529,2,0,P|491:65|489:43,1,50,8|4,1:0|0:3,0:0:0:0:
448,13,33940,1,2,1:0:0:0:
361,63,34351,1,10,1:0:0:0:
268,24,34762,2,0,P|238:27|205:22,1,50,2|0,1:0|0:0,0:0:0:0:
183,60,35173,1,10,1:0:0:0:
130,144,35584,1,2,1:0:0:0:
41,98,35995,1,10,1:0:0:0:
5,193,36406,5,2,1:0:0:0:
5,193,36611,1,4,0:3:0:0:
37,231,36817,2,0,P|38:268|36:288,1,50,8|4,1:0|0:3,0:0:0:0:
73,314,37228,1,2,1:0:0:0:
164,273,37639,2,0,P|199:275|215:273,1,50,2|4,1:0|0:3,0:0:0:0:
254,302,38050,1,2,1:0:0:0:
299,281,38255,1,4,0:3:0:0:
343,303,38461,1,10,1:0:0:0:
418,237,38872,1,14,1:0:0:0:
359,155,39283,1,14,1:0:0:0:
388,114,39488,1,10,1:0:0:0:
361,71,39694,1,0,0:0:0:0:
256,192,52844,6,2,P|261:150|258:86,1,100,14|4,1:0|0:3,0:1:0:0:
292,55,53461,1,2,1:0:0:0:
407,150,54077,2,2,P|402:192|405:256,1,100,2|4,1:0|0:3,0:1:0:0:
381,294,54694,1,0,0:0:0:0:
381,294,54899,2,0,L|317:309,1,50,2|0,1:0|0:0,0:0:0:0:
294,337,55310,2,0,L|230:322,1,50,2|8,1:0|0:3,0:0:0:0:
210,289,55721,1,8,0:3:0:0:
127,345,56132,6,0,P|75:351|9:340,1,100,2|4,1:0|0:3,0:0:0:0:
1,303,56748,1,2,1:0:0:0:
71,170,57365,2,0,P|111:172|151:165,1,50,2|0,1:0|0:0,0:0:0:0:
168,191,57776,1,10,1:0:0:0:
229,112,58187,1,4,0:3:0:0:
209,66,58392,1,8,0:3:0:0:
230,20,58598,1,4,0:3:0:0:
318,66,59009,1,0,0:3:0:0:
404,14,59420,6,0,P|455:19|514:11,2,100,2|4|8,1:0|0:3|0:3,0:0:0:0:
318,66,60652,2,0,P|319:100|316:119,1,50,2|8,1:0|0:3,0:0:0:0:
349,153,61063,1,8,0:3:0:0:
437,199,61474,1,4,0:3:0:0:
441,298,61885,1,4,0:3:0:0:
357,351,62296,1,4,0:3:0:0:
269,305,62707,1,10,1:0:0:0:
256,192,65995,5,6,1:0:0:0:
171,245,66406,2,0,P|126:247|80:242,2,75,10|10|8,1:0|1:0|0:3,0:0:0:0:
205,281,67228,1,10,1:0:0:0:
302,258,67639,1,4,1:0:0:0:
394,295,68050,2,0,P|396:340|387:386,2,75,10|10|8,1:0|1:0|0:3,0:0:0:0:
423,254,68872,1,10,1:0:0:0:
433,154,69283,6,0,P|470:159|501:154,2,50,6|2|10,1:0|1:0|1:0,0:0:0:0:
403,113,69899,2,2,P|330:108|250:71,1,150,0|10,1:0|1:0,0:1:0:0:
173,27,70926,2,0,L|101:21,1,50,8|4,0:3|0:3,0:0:0:0:
81,50,71337,1,10,1:0:0:0:
116,143,71748,2,0,P|116:180|112:203,1,50,4|8,1:2|0:3,0:0:0:0:
75,224,72159,2,0,P|75:261|79:284,1,50,10|10,1:0|1:0,0:0:0:0:
85,324,72570,5,6,1:0:0:0:
179,357,72981,2,0,L|276:349,1,75,10|10,1:0|1:0,0:0:0:0:
316,305,73598,1,8,0:3:0:0:
316,305,73803,2,0,L|379:314,1,50,10|4,1:0|0:3,0:0:0:0:
408,285,74214,1,4,1:0:0:0:
445,252,74420,2,0,P|454:205|450:150,1,100,2|2,1:0|1:0,0:0:0:0:
411,121,75036,2,0,P|414:88|411:55,1,50,2|8,1:0|0:3,0:0:0:0:
388,27,75447,1,10,1:0:0:0:
298,72,75858,6,0,P|271:68|245:70,1,50,4|0,1:0|0:0,0:0:0:0:
207,40,76269,1,12,1:0:0:0:
162,62,76474,1,0,1:0:0:0:
115,42,76680,2,0,P|88:46|62:44,1,50,6|8,1:0|1:0,0:0:0:0:
27,75,77091,1,8,1:0:0:0:
27,75,77296,1,8,1:0:0:0:
45,121,77502,1,6,1:0:0:0:
256,192,78940,6,2,P|255:280|261:323,1,100,6|8,1:0|0:3,0:1:0:0:
293,325,79557,1,10,1:0:0:0:
334,353,79762,2,0,L|398:346,1,50,2|4,1:0|1:0,0:0:0:0:
421,314,80173,1,2,1:0:0:0:
484,237,80584,1,8,0:3:0:0:
484,237,80789,2,0,P|486:205|484:171,1,50,6|0,1:0|0:0,0:0:0:0:
511,144,81200,1,10,1:0:0:0:
511,144,81406,2,0,P|496:97|455:57,1,100,4|14,1:2|1:0,0:0:0:0:
415,81,82022,1,4,1:2:0:0:
367,65,82228,5,14,1:0:0:0:
279,109,82639,1,8,0:3:0:0:
279,109,82844,2,0,P|246:111|214:107,1,50,10|4,1:0|0:3,0:0:0:0:
187,81,83255,1,6,1:0:0:0:
102,134,83666,1,10,1:0:0:0:
81,179,83872,1,4,0:3:0:0:
104,222,84077,2,0,P|156:227|207:253,1,100,10|8,1:0|0:3,0:0:0:0:
227,288,84694,1,8,0:3:0:0:
142,342,85105,1,4,1:2:0:0:
50,301,85515,6,2,P|19:260|6:202,1,100,6|8,1:0|0:3,0:1:0:0:
33,170,86132,2,0,P|37:137|32:96,1,50,10|8,1:0|0:3,0:0:0:0:
68,81,86543,1,2,1:0:0:0:
158,38,86954,1,10,1:0:0:0:
229,110,87365,2,0,P|225:143|230:184,1,50,6|4,1:0|0:3,0:0:0:0:
264,199,87776,1,14,1:0:0:0:
264,199,87981,2,0,P|313:206|371:235,1,100,2|14,1:0|1:0,0:0:0:0:
398,256,88598,1,4,0:3:0:0:
445,239,88803,5,14,1:0:0:0:
493,153,89214,1,8,0:3:0:0:
493,153,89420,2,0,P|497:123|495:96,1,50,10|8,1:0|0:3,0:0:0:0:
469,60,89831,1,6,1:0:0:0:
383,108,90242,1,10,1:0:0:0:
383,108,90447,1,4,0:3:0:0:
339,83,90652,2,0,P|306:86|278:80,1,50,8|0,1:0|0:0,0:0:0:0:
250,112,91063,1,8,0:3:0:0:
250,112,91269,1,8,0:3:0:0:
181,39,91680,2,0,P|151:42|115:37,1,50,8|10,0:3|1:0,0:0:0:0:
93,73,92091,1,4,1:2:0:0:
256,192,93118,5,14,1:0:0:0:
256,192,93940,2,2,P|254:261|270:355,1,150,6|10,1:0|1:0,0:1:0:0:
317,360,94762,1,8,1:0:0:0:
317,360,94968,2,0,L|379:354,1,50,10|4,1:0|0:3,0:0:0:0:
405,324,95378,6,2,P|414:276|413:221,1,100,6|8,1:0|0:3,0:1:0:0:
446,187,95995,1,6,1:0:0:0:
491,97,96406,1,14,1:0:0:0:
413,42,96817,1,4,0:1:0:0:
413,42,97022,2,0,P|353:49|306:43,1,100,2|0,1:0|0:0,0:0:0:0:
275,77,97639,1,6,1:0:0:0:
228,60,97844,2,0,L|168:64,1,50,2|10,1:0|1:0,0:0:0:0:
141,97,98255,1,8,0:3:0:0:
43,72,98666,6,2,P|40:132|47:184,1,100,6|8,1:0|0:3,0:1:0:0:
9,208,99283,2,0,L|1:270,1,50,6|8,1:0|0:3,0:0:0:0:
32,298,99694,1,14,1:0:0:0:
121,353,100105,1,6,1:0:0:0:
121,353,100310,2,0,P|171:337|225:337,1,100,2|8,1:0|0:3,0:0:0:0:
245,293,100926,2,0,L|310:280,1,50,6|0,1:0|0:0,0:0:0:0:
335,253,101337,1,14,1:0:0:0:
335,253,101543,1,4,1:2:0:0:
423,298,101954,6,0,P|459:296|483:300,1,50,4|6,1:2|1:0,0:0:0:0:
504,259,102365,1,4,0:3:0:0:
504,259,102570,2,0,P|513:227|513:197,1,50,14|4,1:0|0:3,0:0:0:0:
488,167,102981,1,14,1:0:0:0:
510,69,103392,1,8,0:3:0:0:
418,27,103803,1,10,1:0:0:0:
256,192,105447,6,0,P|204:188|126:201,1,100,6|8,1:0|1:0,0:0:0:0:
121,157,106063,2,2,L|49:150,1,50,2|0,1:0|0:0,0:1:0:0:
35,187,106474,1,4,0:3:0:0:
35,187,106680,1,10,1:0:0:0:
75,278,107091,1,8,0:3:0:0:
174,269,107502,2,0,P|203:272|236:269,1,50,10|0,1:0|0:0,0:0:0:0:
268,292,107913,1,2,1:0:0:0:
314,273,108118,1,8,1:0:0:0:
360,292,108324,1,10,1:0:0:0:
427,218,108735,6,0,P|439:166|440:119,1,100,6|10,1:0|1:0,0:0:0:0:
406,82,109351,1,0,1:0:0:0:
358,96,109557,2,0,L|288:88,1,50,2|0,1:0|0:0,0:0:0:0:
273,53,109968,1,10,1:0:0:0:
186,102,110378,1,8,0:3:0:0:
110,36,110789,2,0,P|86:39|54:37,1,50,10|0,1:0|0:0,0:0:0:0:
26,75,111200,1,2,1:0:0:0:
61,168,111611,1,10,1:0:0:0:
33,264,112022,6,0,P|87:262|141:269,1,100,6|8,1:0|1:0,0:0:0:0:
214,324,112844,1,2,1:0:0:0:
260,305,113050,1,4,0:3:0:0:
297,338,113255,2,2,P|337:335|405:298,1,100,10|0,1:0|1:0,0:1:0:0:
451,230,114077,1,10,1:0:0:0:
394,147,114488,1,2,1:0:0:0:
417,102,114694,1,8,1:0:0:0:
394,57,114899,1,10,1:0:0:0:
304,101,115310,6,0,P|278:105|249:102,1,50,6|0,1:0|0:0,0:0:0:0:
220,66,115721,1,8,1:0:0:0:
143,130,116132,1,2,1:0:0:0:
44,115,116543,2,0,P|44:185|56:226,1,100,10|4,1:0|1:2,0:0:0:0:
122,283,117365,2,0,P|161:283|181:286,1,50,10|4,1:0|1:2,0:0:0:0:
212,254,117776,1,10,1:0:0:0:
289,316,118187,1,4,1:2:0:0:
384,287,118598,6,2,P|416:287|482:261,1,100,6|8,1:0|1:0,0:1:0:0:
499,217,119214,2,2,P|502:185|498:153,1,50,2|0,1:0|0:0,0:1:0:0:
477,128,119625,1,0,0:0:0:0:
477,128,119831,2,2,P|445:128|379:102,1,100,10|0,1:0|0:0,0:1:0:0:
315,30,120652,2,0,P|287:33|261:31,1,50,14|4,1:0|0:3,0:0:0:0:
225,62,121063,1,4,1:2:0:0:
180,38,121269,1,8,1:0:0:0:
140,68,121474,2,0,P|140:106|134:138,1,50,10|4,1:0|0:3,0:0:0:0:
97,147,121885,6,2,P|99:219|114:267,1,100,6|8,1:0|1:0,0:1:0:0:
136,285,122502,1,2,1:0:0:0:
229,244,122913,1,0,0:0:0:0:
229,244,123118,2,2,P|293:250|337:241,1,100,10|4,1:0|1:0,0:1:0:0:
368,273,123735,1,4,0:3:0:0:
415,259,123940,1,10,1:0:0:0:
478,181,124351,2,0,P|481:152|476:125,1,50,2|8,1:0|1:0,0:0:0:0:
441,96,124762,1,10,1:0:0:0:
346,128,125173,6,0,P|328:82|321:27,2,100,6|8|2,1:0|1:0|1:0,0:0:0:0:
390,217,126406,2,2,P|372:263|365:317,1,100,10|8,1:0|0:3,0:1:0:0:
323,339,127022,1,4,0:3:0:0:
276,319,127228,1,10,1:0:0:0:
183,358,127639,1,2,1:0:0:0:
117,281,128050,1,10,1:0:0:0:
169,194,128461,1,4,1:2:0:0:
256,192,128563,12,4,131748,1:0:0:0:
256,192,144899,6,0,P|207:197|154:192,1,100,4|2,1:0|0:0,0:0:0:0:
106,279,145721,1,8,1:0:0:0:
188,335,146132,2,0,P|237:330|290:335,1,100,2|2,0:0|0:0,0:0:0:0:
364,270,146954,2,0,P|426:289|468:288,2,100,2|8|2,0:0|1:0|0:0,0:0:0:0:
297,195,148187,1,4,0:3:0:0:
388,154,148598,2,0,P|437:151|484:135,1,100,2|8,0:0|1:0,0:0:0:0:
510,38,149420,1,0,0:0:0:0:
414,9,149831,2,0,P|380:12|348:7,1,50,2|0,0:0|0:0,0:0:0:0:
324,40,150242,1,2,0:0:0:0:
228,11,150652,1,8,1:0:0:0:
160,84,151063,1,2,0:0:0:0:
61,65,151474,6,2,P|57:124|80:244,1,150,4|0,1:0|0:0,0:1:0:0:
100,253,152296,2,2,P|156:249|209:256,1,100,8|2,1:0|0:0,0:1:0:0:
280,312,153118,1,4,0:3:0:0:
345,236,153529,1,2,0:0:0:0:
417,304,153940,2,0,P|455:302|475:306,1,50,8|0,1:0|0:0,0:0:0:0:
503,270,154351,1,2,0:0:0:0:
455,181,154762,6,0,P|458:144|454:113,1,50,4|0,0:3|0:0,0:0:0:0:
425,92,155173,1,2,0:0:0:0:
379,112,155378,1,2,0:0:0:0:
337,84,155584,2,0,P|284:81|238:59,1,100,10|0,1:0|0:0,0:0:0:0:
168,129,156406,1,4,1:2:0:0:
85,72,156817,1,2,0:0:0:0:
11,140,157228,1,12,1:0:0:0:
11,140,158050,6,2,P|13:213|5:306,1,150,6|0,1:0|3:0,0:1:0:0:
35,331,158872,1,10,1:0:0:0:
128,290,159283,1,8,0:3:0:0:
128,290,159488,2,0,P|188:289|251:269,1,100,4|8,0:3|0:3,0:0:0:0:
267,308,160105,2,0,L|328:318,1,50,4|0,0:3|0:0,0:0:0:0:
360,293,160515,1,10,1:0:0:0:
448,339,160926,1,2,0:0:0:0:
507,258,161337,6,2,P|513:213|508:150,2,100,6|0|10,1:0|0:0|1:0,0:1:0:0:
448,339,162570,1,8,0:3:0:0:
448,339,162776,2,0,P|392:326|344:331,1,100,4|8,0:3|0:3,0:0:0:0:
308,301,163392,2,0,L|247:297,1,50,4|0,0:3|0:0,0:0:0:0:
215,324,163803,1,10,1:0:0:0:
125,278,164214,1,2,0:0:0:0:
28,305,164625,6,2,P|10:255|5:154,1,150,6|0,1:0|0:0,0:1:0:0:
24,113,165447,1,10,1:0:0:0:
102,51,165858,2,0,P|142:54|169:47,1,50,8|4,0:3|0:3,0:0:0:0:
192,81,166269,1,2,1:0:0:0:
243,69,166474,1,8,0:3:0:0:
243,69,166680,2,0,P|307:72|350:60,1,100,4|10,0:3|1:0,0:0:0:0:
431,20,167502,1,2,0:0:0:0:
504,87,167913,6,2,P|502:190|510:250,1,150,2|0,1:0|0:0,0:1:0:0:
503,286,168735,1,10,1:0:0:0:
424,346,169146,1,8,0:3:0:0:
424,346,169351,1,4,0:3:0:0:
382,317,169557,2,0,P|384:284|380:236,1,50,2|8,1:0|0:3,0:0:0:0:
405,221,169968,1,4,0:3:0:0:
439,127,170378,1,10,1:0:0:0:
361,63,170789,1,2,0:0:0:0:
267,98,171200,6,2,P|261:37|273:-20,2,100,6|2|10,1:0|0:0|1:0,0:1:0:0:
192,164,172433,1,8,0:3:0:0:
192,164,172639,2,0,P|118:158|79:166,1,100,4|8,0:3|0:3,0:0:0:0:
55,195,173255,1,4,0:3:0:0:
83,290,173666,1,10,1:0:0:0:
175,252,174077,1,2,0:0:0:0:
238,328,174488,6,0,P|294:322|368:340,1,100,2|2,1:0|0:0,0:0:0:0:
422,276,175310,1,10,1:0:0:0:
366,192,175721,2,0,P|368:169|365:131,1,50,8|4,0:3|0:3,0:0:0:0:
413,119,176132,1,2,1:0:0:0:
413,119,176337,2,2,P|426:83|430:15,1,100,8|0,0:3|0:0,0:1:0:0:
384,3,176954,1,10,1:0:0:0:
301,59,177365,1,2,1:0:0:0:
205,30,177776,6,2,P|150:33|99:21,1,100,6|0,1:0|0:0,0:1:0:0:
85,69,178392,2,0,L|22:78,2,50,0|10|0,3:0|1:0|0:0,0:0:0:0:
115,109,179009,1,8,0:3:0:0:
78,202,179420,1,2,1:0:0:0:
124,290,179831,2,0,P|151:287|187:294,1,50,4|0,0:3|0:0,0:0:0:0:
217,313,180242,1,10,1:0:0:0:
290,245,180652,1,2,0:0:0:0:
369,305,181063,5,12,1:0:0:0:
459,261,181474,2,0,P|456:234|459:210,1,50,8|8,0:3|0:3,0:0:0:0:
423,176,181885,2,0,P|426:149|423:125,1,50,4|4,0:3|0:3,0:0:0:0:
454,86,182296,1,8,0:3:0:0:
429,42,182502,1,4,0:3:0:0:
379,48,182707,1,10,1:0:0:0:
313,123,183118,1,10,1:0:0:0:
313,123,183324,2,0,P|273:127|241:119,1,50,10|4,1:0|0:3,0:0:0:0:
228,98,183735,1,10,1:0:0:0:
228,98,183941,2,0,P|188:102|156:94,1,50,10|4,1:0|0:3,0:0:0:0:
134,124,184351,6,2,P|88:114|45:117,1,75.0000028610231,6|0,1:0|0:0,0:1:0:0:
28,154,184968,1,4,1:3:0:0:
49,199,185173,1,14,1:0:0:0:
27,297,185584,1,10,1:0:0:0:
3,341,185789,1,4,1:3:0:0:
34,380,185995,2,2,P|79:370|116:373,1,75.0000028610231,6|0,1:0|0:0,0:1:0:0:
189,310,186817,2,0,P|218:312|244:307,1,37.5000014305115,14|0,1:0|0:0,0:0:0:0:
269,337,187228,1,10,1:0:0:0:
349,275,187639,6,2,P|406:278|459:249,1,112.500004291535,6|4,1:0|1:3,0:1:0:0:
485,213,188461,1,14,1:0:0:0:
432,126,188872,1,10,1:0:0:0:
336,159,189283,2,0,P|290:157|278:153,1,37.5000014305115,6|4,1:0|1:3,0:0:0:0:
259,126,189694,1,2,1:0:0:0:
196,205,190105,2,0,P|169:205|132:214,1,37.5000014305115,12|0,1:0|1:0,0:0:0:0:
120,173,190515,1,8,1:0:0:0:
81,205,190721,1,4,1:3:0:0:
39,177,190926,6,2,P|17:134|18:73,1,75.0000028610231,6|0,1:0|0:0,0:1:0:0:
42,65,191543,1,4,1:3:0:0:
90,77,191748,1,14,1:0:0:0:
174,20,192159,1,10,1:0:0:0:
221,38,192365,1,4,1:3:0:0:
268,20,192570,2,2,P|310:25|353:19,1,75.0000028610231,6|8,1:0|1:3,0:1:0:0:
384,49,193187,1,4,1:3:0:0:
431,30,193392,1,14,1:0:0:0:
476,53,193598,1,2,1:0:0:0:
437,146,194009,1,4,1:3:0:0:
452,194,194214,6,2,P|385:189|329:197,1,112.500004291535,6|4,1:0|1:3,0:1:0:0:
307,233,195036,1,14,1:0:0:0:
353,323,195447,1,10,1:0:0:0:
318,359,195652,1,4,1:3:0:0:
270,342,195858,2,0,P|242:344|212:339,1,37.5000014305115,6|0,1:0|1:0,0:0:0:0:
186,364,196269,1,8,1:0:0:0:
142,338,196474,1,4,1:2:0:0:
95,359,196680,2,0,P|67:357|37:362,1,37.5000014305115,14|8,1:0|1:0,0:0:0:0:
23,320,197091,1,8,1:0:0:0:
82,237,197502,6,2,P|91:184|92:103,1,112.500004291535,6|4,1:0|1:3,0:1:0:0:
129,89,198324,1,14,1:0:0:0:
199,161,198735,1,14,1:0:0:0:
292,120,199146,2,2,P|317:122|347:116,1,37.5000014305115,6|0,1:0|0:0,0:1:0:0:
369,151,199557,1,4,1:2:0:0:
467,126,199968,2,2,P|472:186|459:271,1,112.500004291535,14|0,1:0|0:0,0:1:0:0:
450,287,200789,5,14,1:0:0:0:
450,287,200995,1,8,1:3:0:0:
399,280,201200,2,0,L|339:288,1,37.5000014305115,4|8,1:3|1:3,0:0:0:0:
324,319,201611,1,14,1:0:0:0:
231,278,202022,1,10,1:0:0:0:
288,194,202433,2,0,P|292:153|289:88,1,75.0000028610231,6|6,1:0|1:0,0:0:0:0:
222,45,203255,1,14,1:0:0:0:
94,128,203872,1,8,0:3:0:0:
72,173,204077,6,0,P|72:208|70:222,1,37.5000014305115,6|10,1:0|1:0,0:0:0:0:
108,244,204488,1,2,1:0:0:0:
156,229,204694,1,2,1:0:0:0:
190,265,204899,2,0,P|229:269|288:294,1,75.0000028610231,14|2,1:0|1:0,0:0:0:0:
306,305,205515,1,10,1:0:0:0:
354,288,205721,1,6,1:0:0:0:
444,344,206132,1,2,1:0:0:0:
444,344,206337,1,2,1:0:0:0:
488,319,206543,2,0,P|498:278|499:240,1,75.0000028610231,14|2,1:0|1:0,0:0:0:0:
439,163,207365,5,14,1:0:0:0:
391,147,207570,1,8,1:3:0:0:
366,102,207776,1,4,1:3:0:0:
377,52,207981,1,14,1:0:0:0:
278,27,208392,1,4,1:3:0:0:
234,53,208598,2,0,P|192:48|146:54,1,75.0000028610231,14|4,1:0|1:3,0:0:0:0:
121,26,209214,5,10,1:0:0:0:
121,26,209420,1,14,1:0:0:0:
27,79,209831,2,0,P|30:120|28:142,1,50,14|8,1:0|1:0,0:0:0:0:
60,167,210242,2,0,P|57:208|59:230,1,50,10|8,1:0|1:0,0:0:0:0:
38,263,210652,1,6,1:0:0:0:
256,192,210755,12,0,213118,0:0:0:0:
256,192,213940,6,0,P|261:131|261:93,1,100,6|10,1:0|1:0,0:0:0:0:
168,52,214762,1,2,1:0:0:0:
120,34,214968,1,4,0:3:0:0:
74,54,215173,2,2,P|68:114|69:153,1,100,10|8,1:0|0:3,0:1:0:0:
40,195,215789,1,4,0:3:0:0:
40,195,215995,1,10,1:0:0:0:
77,287,216406,2,0,P|103:286|135:289,1,50,4|10,0:3|1:0,0:0:0:0:
173,269,216817,1,10,1:0:0:0:
210,302,217022,1,0,1:0:0:0:
258,288,217228,6,0,P|312:286|365:261,1,100,6|10,1:0|1:0,0:0:0:0:
406,183,218050,1,2,1:0:0:0:
449,207,218255,1,4,0:3:0:0:
495,187,218461,2,2,P|512:128|511:51,1,100,10|8,1:0|0:3,0:1:0:0:
495,49,219077,1,4,0:3:0:0:
495,49,219283,1,10,1:0:0:0:
404,90,219694,1,2,1:0:0:0:
326,27,220105,1,10,1:0:0:0:
235,69,220515,6,0,P|237:142|233:171,2,100,6|8|2,1:0|1:0|1:0,0:0:0:0:
198,42,221543,1,4,0:3:0:0:
198,42,221748,1,10,1:0:0:0:
111,91,222159,1,4,0:3:0:0:
144,185,222570,2,0,P|143:227|145:243,1,50,4|0,0:3|1:0,0:0:0:0:
106,268,222981,2,0,P|107:310|105:326,1,50,10|8,1:0|1:0,0:0:0:0:
145,349,223392,1,10,1:0:0:0:
241,324,223803,6,2,P|293:318|339:325,1,100,6|4,1:0|1:2,0:1:0:0:
377,292,224420,2,2,P|371:239|378:193,1,100,6|4,1:0|1:2,0:1:0:0:
339,162,225036,2,2,P|313:166|287:161,1,50,6|4,1:0|1:2,0:1:0:0:
256,199,225447,1,12,1:0:0:0:
256,199,225652,1,14,1:0:0:0:
256,199,227091,6,2,P|204:193|158:200,1,100,6|4,1:0|1:2,0:1:0:0:
120,167,227708,2,2,P|126:114|119:68,1,100,6|4,1:0|1:2,0:1:0:0:
158,37,228324,2,2,P|184:41|210:36,1,50,6|4,1:0|1:2,0:1:0:0:
250,71,228735,1,12,1:0:0:0:
250,71,228940,1,14,1:0:0:0:
250,71,229762,5,8,1:0:0:0:
294,47,229968,2,0,P|328:50|348:47,1,50,14|8,1:0|0:3,0:0:0:0:
380,81,230378,1,6,1:0:0:0:
256,192,230481,12,14,233666,1:0:0:0:
256,192,234899,5,10,1:0:0:0:
339,247,235310,1,6,1:0:0:0:
384,226,235515,1,8,0:3:0:0:
427,250,235721,2,0,P|428:293|426:316,1,50,4|4,0:3|0:3,0:0:0:0:
405,344,236132,1,14,1:0:0:0:
307,321,236543,1,8,0:3:0:0:
211,349,236954,1,6,1:0:0:0:
