osu file format v14

[General]
AudioFilename: audio.mp3
AudioLeadIn: 0
PreviewTime: 43558
Countdown: 0
SampleSet: None
StackLeniency: 0.7
Mode: 0
LetterboxInBreaks: 0
WidescreenStoryboard: 0

[Editor]
DistanceSpacing: 1.6
BeatDivisor: 4
GridSize: 4
TimelineZoom: 1

[Metadata]
Title:Dive in
TitleUnicode:Dive in
Artist:Pierce The Veil
ArtistUnicode:Pierce The Veil
Creator:Loughje
Version:Extra
Source:
Tags:Metal Rock
BeatmapID:1025505
BeatmapSetID:480359

[Difficulty]
HPDrainRate:5
CircleSize:4.3
OverallDifficulty:9
ApproachRate:9.3
SliderMultiplier:1.6
SliderTickRate:1

[Events]
//Background and Video events
0,0,"have no fear.jpg",0,0
//Break Periods
2,22276,23195
2,64068,68651
//Storyboard Layer 0 (Background)
//Storyboard Layer 1 (Fail)
//Storyboard Layer 2 (Pass)
//Storyboard Layer 3 (Foreground)
//Storyboard Sound Samples

[TimingPoints]
4608,368.098159509202,4,2,2,70,1,0
4608,-133.333333333333,4,2,2,70,0,0
10497,-100,4,2,2,70,0,0
20804,-100,4,2,1,50,0,0
22000,-100,4,2,2,70,0,0
25221,-83.3333333333333,4,2,2,70,0,0
28166,-90.9090909090909,4,2,2,70,0,0
34055,372.670807453416,4,2,2,70,1,0
34055,-100,4,2,1,70,0,0
36850,-100,4,2,2,70,0,0
37036,-100,4,2,1,70,0,0
39458,-100,4,2,2,70,0,0
40017,-100,4,2,1,70,0,0
42999,-100,4,2,2,10,0,0
43185,-100,4,2,2,20,0,0
43371,-100,4,2,2,25,0,0
43558,-100,4,2,2,30,0,0
43744,-100,4,2,2,35,0,0
43930,-100,4,2,2,40,0,0
44117,-100,4,2,2,45,0,0
44303,-100,4,2,2,50,0,0
44489,-100,4,2,2,55,0,0
44676,-100,4,2,2,60,0,0
44862,-100,4,2,2,65,0,0
45048,-100,4,2,2,70,0,0
45980,-100,4,2,2,70,0,1
51291,-100,4,2,1,70,0,1
51477,-100,4,2,2,70,0,1
61166,-100,4,2,1,70,0,1
61353,-100,4,2,2,70,0,1
62657,-100,4,2,1,70,0,1
62843,-100,4,2,2,70,0,1
63868,368.098159509202,4,2,2,70,1,0
69757,-111.111111111111,4,3,2,70,0,0
75555,-111.111111111111,4,2,1,70,0,0
75739,-111.111111111111,4,3,2,70,0,0
76291,-111.111111111111,4,2,1,70,0,0
76475,-111.111111111111,4,3,2,70,0,0
77058,-111.111111111111,4,2,1,70,0,0
77180,-111.111111111111,4,3,2,70,0,0
77579,-111.111111111111,4,2,1,70,0,0
77763,-111.111111111111,4,3,2,70,0,0
78499,-111.111111111111,4,2,1,70,0,0
78683,-111.111111111111,4,3,2,70,0,0
79236,-111.111111111111,4,2,1,70,0,0
79420,-111.111111111111,4,3,2,70,0,0
80064,-111.111111111111,4,2,2,70,0,0
81536,-100,4,2,2,70,0,0
87426,-90.9090909090909,4,2,2,10,0,0
87794,-90.9090909090909,4,2,2,20,0,0
88162,-90.9090909090909,4,2,2,25,0,0
88530,-90.9090909090909,4,2,2,30,0,0
88898,-90.9090909090909,4,2,2,35,0,0
89266,-90.9090909090909,4,2,2,40,0,0
89634,-90.9090909090909,4,2,2,45,0,0
90002,-90.9090909090909,4,2,2,50,0,0
90371,-90.9090909090909,4,2,2,55,0,0
90739,-90.9090909090909,4,2,2,60,0,0
91107,-90.9090909090909,4,2,2,65,0,0
91475,-90.9090909090909,4,2,2,70,0,0
92211,-62.5,4,2,2,70,0,0
93315,372.670807453416,4,2,2,70,1,1
98532,-100,4,2,2,70,0,0
99277,-100,4,2,2,70,0,1
111110,-100,4,2,2,70,0,0
111203,-100,4,2,2,70,0,1
126110,-100,4,2,2,10,0,1
126482,-100,4,2,2,20,0,1
126855,-100,4,2,2,30,0,1
127228,-100,4,2,2,40,0,1
127600,-100,4,2,2,50,0,1
127973,-100,4,2,2,60,0,1
128346,-100,4,2,2,70,0,1
128718,-100,4,2,2,80,0,1
129091,-100,4,2,2,70,0,0

[HitObjects]
100,100,4608,6,0,L|120:240,1,120.000004577637
200,100,5344,2,0,L|220:240,1,120.000004577637
300,100,6080,2,0,L|320:240,1,120.000004577637
400,100,6816,2,0,L|420:240,1,120.000004577637
432,344,7552,1,0,0:0:0:0:
272,272,7920,1,0,0:0:0:0:
496,280,8288,5,0,0:0:0:0:
264,356,8657,1,0,0:0:0:0:
432,188,9025,1,8,0:0:0:0:
284,104,10497,5,0,0:0:0:0:
284,104,10681,1,8,0:0:0:0:
272,112,10773,1,8,0:0:0:0:
260,120,10865,1,8,0:0:0:0:
252,132,10957,1,0,0:0:0:0:
248,152,11049,2,0,P|264:216|356:248,2,160,2|0|8,0:0|0:0|0:0,0:0:0:0:
320,32,11969,1,0,0:0:0:0:
344,168,12154,1,8,0:0:0:0:
188,60,12338,1,0,0:0:0:0:
148,64,12430,1,0,0:0:0:0:
116,84,12522,1,8,0:0:0:0:
252,112,12706,6,0,P|312:88|340:92,1,80,0|8,0:0|0:0,0:0:0:0:
244,192,13074,1,0,0:0:0:0:
204,176,13166,1,0,0:0:0:0:
180,140,13258,1,8,0:0:0:0:
160,20,13442,1,2,0:0:0:0:
52,172,13626,2,0,L|44:232,1,40
184,256,13810,2,0,L|184:216,1,40
292,168,13994,6,0,L|332:256,1,80,8|0,0:0|0:0,0:0:0:0:
380,352,14362,1,8,0:0:0:0:
396,136,14546,1,0,0:0:0:0:
396,136,14638,1,0,0:0:0:0:
396,136,14730,1,8,0:0:0:0:
248,304,14914,2,0,B|204:312|204:312|152:300,1,80,0|8,0:0|0:0,0:0:0:0:
48,220,15282,1,0,0:0:0:0:
32,192,15374,1,0,0:0:0:0:
32,160,15466,1,8,0:0:0:0:
100,40,15650,5,0,0:0:0:0:
32,160,15834,1,8,0:0:0:0:
52,160,15927,1,8,0:0:0:0:
72,160,16019,1,8,0:0:0:0:
92,160,16111,1,8,0:0:0:0:
116,180,16203,1,8,0:0:0:0:
112,212,16295,1,8,0:0:0:0:
128,248,16387,2,0,B|156:288|156:288|196:288,1,80,2|0,0:0|0:0,0:0:0:0:
204,284,16663,5,0,0:0:0:0:
220,280,16755,1,0,0:0:0:0:
236,276,16847,1,0,0:0:0:0:
252,272,16939,1,8,0:0:0:0:
440,228,17123,1,0,0:0:0:0:
344,344,17307,1,8,0:0:0:0:
284,144,17491,1,0,0:0:0:0:
284,144,17583,1,0,0:0:0:0:
284,144,17675,1,8,0:0:0:0:
464,312,17859,5,0,0:0:0:0:
224,252,18043,1,8,0:0:0:0:
460,112,18227,1,0,0:0:0:0:
444,88,18319,1,0,0:0:0:0:
420,68,18411,1,8,0:0:0:0:
296,304,18595,2,0,B|248:332|248:332|192:328,1,80,0|8,0:0|0:0,0:0:0:0:
16,244,18963,1,0,0:0:0:0:
0,212,19055,1,0,0:0:0:0:
12,180,19147,1,8,0:0:0:0:
128,84,19331,5,2,0:0:0:0:
224,196,19515,2,0,L|220:244,1,40
224,196,19700,2,0,L|228:148,1,40
224,196,19884,2,0,B|360:200|360:200|316:168,1,160,0|8,0:0|0:0,0:0:0:0:
80,56,20436,1,8,0:0:0:0:
368,328,20620,1,0,0:0:0:0:
48,184,20804,6,0,L|40:232,3,40
124,152,21172,2,0,L|132:104,3,40
160,220,21540,2,0,L|152:268,3,40
224,160,21908,1,0,0:0:0:0:
256,192,23749,12,0,24853,0:0:0:0:
184,128,25221,5,2,0:0:0:0:
184,128,25405,1,0,0:0:0:0:
224,284,25589,2,0,B|244:324|244:324|296:336,1,95.9999970703126,8|0,0:0|0:0,0:0:0:0:
448,300,25957,1,0,0:0:0:0:
364,136,26141,1,0,0:0:0:0:
184,128,26325,1,0,0:0:0:0:
184,128,26509,1,0,0:0:0:0:
344,196,26693,2,0,P|408:196|464:176,2,95.9999970703126,0|0|8,0:0|0:0|0:0,0:0:0:0:
132,200,27246,5,0,0:0:0:0:
296,104,27430,1,0,0:0:0:0:
208,280,27614,1,8,0:0:0:0:
212,248,27706,1,8,0:0:0:0:
216,220,27798,1,8,0:0:0:0:
216,192,27890,1,0,0:0:0:0:
212,164,27982,1,0,0:0:0:0:
204,136,28074,1,0,0:0:0:0:
192,112,28166,6,0,B|180:88|160:76|160:76|212:48,1,95.9999970703126,2|0,0:0|0:0,0:0:0:0:
368,24,28534,1,8,0:0:0:0:
124,160,28718,1,0,0:0:0:0:
124,160,28810,1,0,0:0:0:0:
124,160,28902,1,0,0:0:0:0:
284,20,29086,1,0,0:0:0:0:
380,192,29270,1,8,0:0:0:0:
152,60,29454,1,0,0:0:0:0:
152,60,29546,1,0,0:0:0:0:
152,60,29638,1,0,0:0:0:0:
224,272,29822,5,0,0:0:0:0:
292,84,30006,2,0,P|328:52|380:48,1,88.000002685547,8|0,0:0|0:0,0:0:0:0:
366,45,30282,1,0,0:0:0:0:
366,45,30374,1,0,0:0:0:0:
496,172,30558,1,0,0:0:0:0:
232,40,30742,1,8,0:0:0:0:
304,200,30927,1,0,0:0:0:0:
304,200,31019,1,0,0:0:0:0:
304,200,31111,6,0,L|204:200,1,88.000002685547,10|0,0:0|0:0,0:0:0:0:
376,116,31479,2,0,L|276:116,1,88.000002685547,10|0,0:0|0:0,0:0:0:0:
448,28,31847,2,0,L|348:28,1,88.000002685547,10|0,0:0|0:0,0:0:0:0:
80,32,32215,1,8,0:0:0:0:
252,192,32399,1,0,0:0:0:0:
164,16,32583,1,0,0:0:0:0:
176,224,32767,1,8,0:0:0:0:
188,248,32859,1,8,0:0:0:0:
204,268,32951,1,8,0:0:0:0:
224,284,33043,1,0,0:0:0:0:
248,296,33135,1,0,0:0:0:0:
176,224,33319,5,0,0:0:0:0:
164,200,33411,1,0,0:0:0:0:
148,180,33503,1,8,0:0:0:0:
128,164,33595,1,0,0:0:0:0:
104,152,33687,1,0,0:0:0:0:
140,148,33779,1,0,0:0:0:0:
176,148,33871,1,0,0:0:0:0:
212,156,33963,1,0,0:0:0:0:
240,168,34055,6,0,P|296:180|384:116,1,160
268,64,34800,2,0,P|212:52|124:116,1,160
280,268,35545,2,0,B|408:272|408:272|376:244,1,160
232,116,36291,2,0,B|104:112|104:112|128:133,1,160
272,260,36850,5,8,0:0:0:0:
272,260,36943,1,8,0:0:0:0:
272,260,37036,2,0,B|224:288|200:320|200:320|164:304|128:300,1,160
240,124,37781,2,0,B|288:96|312:64|312:64|348:80|384:84,1,160
448,184,38527,2,0,B|504:276|504:276|504:336,1,160
296,212,39272,1,0,0:0:0:0:
160,96,39458,5,0,0:0:0:0:
112,116,39551,1,0,0:0:0:0:
80,156,39645,1,0,0:0:0:0:
64,204,39738,1,0,0:0:0:0:
68,256,39831,1,0,0:0:0:0:
88,304,39924,1,0,0:0:0:0:
128,336,40017,2,0,P|188:356|296:336,1,160
428,196,40763,2,0,P|368:176|260:196,1,160
96,276,41508,6,0,B|32:256|32:256|60:220|60:220|60:156,1,160
216,24,42253,2,0,B|280:44|280:44|252:80|252:80|252:144,1,160
232,284,42999,1,8,0:0:0:0:
356,240,43185,1,8,0:0:0:0:
164,224,43371,1,8,0:0:0:0:
392,320,43558,1,8,0:0:0:0:
120,304,43744,1,8,0:0:0:0:
432,180,43930,1,8,0:0:0:0:
56,224,44117,1,8,0:0:0:0:
460,296,44303,1,8,0:0:0:0:
44,96,44489,1,8,0:0:0:0:
408,360,44676,1,8,0:0:0:0:
148,44,44862,1,8,0:0:0:0:
288,352,45048,1,8,0:0:0:0:
268,16,45235,6,0,L|220:96,1,80,8|0,0:0|0:0,0:0:0:0:
148,216,45607,1,8,0:0:0:0:
148,216,45980,6,0,L|189:147,1,80,10|0,0:0|0:0,0:0:0:0:
268,16,46353,1,0,0:0:0:0:
264,172,46539,1,0,0:0:0:0:
168,60,46725,2,0,P|92:80|44:148,1,160,8|0,0:0|0:0,0:0:0:0:
45,143,47284,1,0,0:0:0:0:
344,312,47657,1,8,0:0:0:0:
160,224,47843,1,0,0:0:0:0:
436,340,48030,1,0,0:0:0:0:
276,220,48216,2,0,B|268:176|268:176|276:136,1,80,8|0,0:0|0:0,0:0:0:0:
344,20,48589,5,0,0:0:0:0:
284,148,48775,1,8,0:0:0:0:
284,148,48868,1,8,0:0:0:0:
284,148,48961,2,0,B|240:148|240:148|204:128,1,80
144,16,49334,2,0,B|188:16|188:16|224:36,1,80
304,136,49707,2,0,B|304:200|304:200|324:240|324:240|324:292,1,160,8|0,0:0|0:0,0:0:0:0:
324,291,50266,1,0,0:0:0:0:
192,268,50452,6,0,L|104:244,1,80,0|8,0:0|0:0,0:0:0:0:
284,208,50825,2,0,L|196:184,1,80
72,144,51197,1,8,0:0:0:0:
292,72,51384,1,0,0:0:0:0:
72,144,51570,1,0,0:0:0:0:
300,260,51756,1,0,0:0:0:0:
72,144,51943,6,0,B|72:188|72:188|96:248,1,80,2|0,0:0|0:0,0:0:0:0:
228,336,52502,1,0,0:0:0:0:
228,336,52688,2,0,B|232:244|232:244|216:172,1,160,8|0,0:0|0:0,0:0:0:0:
180,64,53247,1,0,0:0:0:0:
180,64,53620,1,8,0:0:0:0:
136,248,53992,1,0,0:0:0:0:
320,192,54179,2,0,P|356:172|392:136,1,80,8|0,0:0|0:0,0:0:0:0:
384,0,54551,2,0,P|348:20|312:56,1,80
252,140,54924,5,2,0:0:0:0:
456,76,55110,1,0,0:0:0:0:
456,76,55483,1,0,0:0:0:0:
252,140,55669,1,8,0:0:0:0:
376,144,55856,1,0,0:0:0:0:
176,56,56042,2,0,B|132:60|132:60|88:84,1,80
208,128,56415,2,0,P|248:88|248:44,2,80,0|8|0,0:0|0:0|0:0,0:0:0:0:
88,168,56974,1,0,0:0:0:0:
176,56,57160,1,8,0:0:0:0:
168,216,57346,5,0,0:0:0:0:
168,216,57440,1,0,0:0:0:0:
168,216,57533,1,0,0:0:0:0:
88,80,57719,1,0,0:0:0:0:
248,176,57905,2,0,L|296:204,1,40
376,228,58092,6,0,P|368:172|412:80,1,160
436,316,58651,2,8,P|380:324|288:280,1,160
289,281,59210,1,0,0:0:0:0:
289,281,59582,1,0,0:0:0:0:
472,240,59769,1,0,0:0:0:0:
260,200,60141,2,0,L|164:180,1,80,8|0,0:0|0:0,0:0:0:0:
68,64,60514,2,0,L|146:80,1,80
244,96,60887,1,0,0:0:0:0:
244,96,61259,5,0,0:0:0:0:
96,176,61446,1,0,0:0:0:0:
272,20,61632,1,0,0:0:0:0:
344,196,61818,1,0,0:0:0:0:
144,80,62005,2,0,B|28:20|28:20|44:76,1,160
64,168,62564,1,0,0:0:0:0:
36,44,62750,1,0,0:0:0:0:
24,236,62936,1,0,0:0:0:0:
0,112,63123,5,2,0:0:0:0:
168,160,63309,1,0,0:0:0:0:
180,168,63402,1,0,0:0:0:0:
188,184,63495,1,0,0:0:0:0:
192,200,63589,1,0,0:0:0:0:
188,216,63682,1,0,0:0:0:0:
180,232,63775,1,0,0:0:0:0:
168,244,63868,1,2,0:0:0:0:
252,180,69205,5,0,0:0:0:0:
252,180,69389,2,0,L|328:136,1,80,8|0,0:0|0:0,0:0:0:0:
416,76,69757,1,0,0:0:0:0:
424,180,69941,1,0,0:0:0:0:
328,40,70125,1,8,0:2:0:0:
488,128,70309,1,0,0:0:0:0:
488,128,70401,1,0,0:0:0:0:
488,128,70493,1,0,0:0:0:0:
248,80,70677,1,0,0:0:0:0:
412,60,70861,6,0,L|396:132,1,71.9999978027344,8|0,0:2|0:0,0:0:0:0:
356,288,71229,1,0,0:0:0:0:
484,148,71414,1,0,0:0:0:0:
248,172,71598,1,8,0:2:0:0:
456,260,71782,1,0,0:0:0:0:
456,260,71874,1,0,0:0:0:0:
456,260,71966,1,0,0:0:0:0:
360,96,72150,1,0,0:0:0:0:
292,260,72334,6,0,P|252:272|200:272,1,71.9999978027344,8|0,0:2|0:0,0:0:0:0:
28,264,72702,1,0,0:0:0:0:
220,204,72886,1,0,0:0:0:0:
108,344,73070,1,8,0:2:0:0:
164,120,73254,1,0,0:0:0:0:
164,120,73346,1,0,0:0:0:0:
164,120,73438,1,0,0:0:0:0:
221,274,73622,1,0,0:0:0:0:
72,112,73806,6,0,P|84:72|108:44,1,71.9999978027344,8|0,0:2|0:0,0:0:0:0:
248,0,74174,1,0,0:0:0:0:
220,140,74358,1,0,0:0:0:0:
160,4,74542,1,8,0:2:0:0:
308,80,74726,1,0,0:0:0:0:
308,80,74818,1,0,0:0:0:0:
308,80,74910,1,0,0:0:0:0:
112,144,75094,1,10,0:2:0:0:
372,16,75279,1,10,0:2:0:0:
112,144,75647,6,0,P|100:196|100:220,1,71.9999978027344
128,320,76015,1,8,0:2:0:0:
400,240,76383,2,0,P|412:188|412:164,1,71.9999978027344
384,64,76751,1,8,0:2:0:0:
192,100,76935,1,0,0:0:0:0:
192,100,77027,1,0,0:0:0:0:
192,100,77119,2,0,L|96:120,2,71.9999978027344,0|0|8,0:0|0:0|0:2,0:0:0:0:
376,72,77671,5,0,0:0:0:0:
376,72,77763,1,0,0:0:0:0:
376,72,77855,1,0,0:0:0:0:
216,180,78039,1,0,0:0:0:0:
280,4,78223,1,8,0:2:0:0:
336,176,78407,1,0,0:0:0:0:
192,96,78591,6,0,P|136:88|44:120,1,143.999995605469,0|8,0:0|0:2,0:0:0:0:
197,193,79328,2,0,P|253:201|345:169,1,143.999995605469,0|8,0:0|0:2,0:0:0:0:
168,88,80064,2,0,B|108:128|108:128|84:216,1,143.999995605469
88,196,80800,1,0,0:0:0:0:
364,260,80984,1,8,0:0:0:0:
364,260,81168,1,8,0:0:0:0:
160,312,81352,1,0,0:0:0:0:
208,116,81536,5,0,0:0:0:0:
336,192,81720,1,0,0:0:0:0:
160,312,81904,2,0,B|208:316|208:316|264:300,1,80,8|0,0:0|0:0,0:0:0:0:
220,228,82272,1,0,0:0:0:0:
296,100,82456,1,0,0:0:0:0:
416,276,82640,2,0,B|420:228|420:228|404:172,1,80,8|0,0:0|0:0,0:0:0:0:
336,208,83009,1,0,0:0:0:0:
208,132,83193,1,0,0:0:0:0:
384,12,83377,6,0,B|336:8|336:8|280:24,1,80,8|0,0:0|0:0,0:0:0:0:
316,92,83745,1,0,0:0:0:0:
240,220,83929,1,0,0:0:0:0:
120,44,84113,2,0,B|116:92|116:92|132:148,1,80,8|0,0:0|0:0,0:0:0:0:
164,248,84481,1,0,0:0:0:0:
236,88,84665,1,0,0:0:0:0:
88,276,84849,2,0,L|32:344,1,80,8|0,0:0|0:0,0:0:0:0:
248,212,85217,5,0,0:0:0:0:
88,140,85401,1,0,0:0:0:0:
276,288,85585,2,0,L|344:344,1,80,8|0,0:0|0:0,0:0:0:0:
240,128,85953,1,0,0:0:0:0:
168,288,86137,1,0,0:0:0:0:
316,100,86321,2,0,L|372:32,1,80,8|0,0:0|0:0,0:0:0:0:
164,148,86690,1,0,0:0:0:0:
324,220,86874,1,0,0:0:0:0:
136,72,87058,2,0,L|68:16,1,80,8|0,0:0|0:0,0:0:0:0:
208,216,87426,6,8,L|200:264,3,44.0000013427735
288,136,87794,2,8,L|296:88,3,44.0000013427735
196,236,88162,2,8,L|188:280,3,44.0000013427735
296,120,88530,2,8,L|304:72,3,44.0000013427735
176,164,88898,2,8,L|128:156,3,44.0000013427735
296,204,89266,2,8,L|344:212,3,44.0000013427735
160,140,89634,2,8,L|112:132,3,44.0000013427735
312,228,90002,2,8,L|360:236,3,44.0000013427735
160,220,90371,5,8,0:0:0:0:
144,228,90463,1,8,0:0:0:0:
128,232,90555,1,8,0:0:0:0:
112,232,90647,1,8,0:0:0:0:
96,228,90739,1,8,0:0:0:0:
80,220,90831,1,8,0:0:0:0:
68,208,90923,1,8,0:0:0:0:
56,192,91015,1,8,0:0:0:0:
52,176,91107,5,8,0:0:0:0:
52,160,91199,1,8,0:0:0:0:
56,144,91291,1,8,0:0:0:0:
64,128,91383,1,8,0:0:0:0:
76,116,91475,1,8,0:0:0:0:
92,104,91567,1,8,0:0:0:0:
108,100,91659,1,8,0:0:0:0:
124,100,91751,1,8,0:0:0:0:
140,104,91843,1,8,0:0:0:0:
292,200,92211,6,0,B|368:236|368:236|348:280|268:300,1,192
256,128,92579,2,0,B|308:72|304:16|304:16|368:48,1,192
216,196,92947,2,0,B|148:232|68:248|68:248|88:212,1,192
136,136,93315,6,0,L|88:72,1,80,2|0,0:0|0:0,0:0:0:0:
88,72,93874,1,0,0:0:0:0:
88,72,94060,2,0,B|84:120|44:148|44:148|52:180|120:176,1,160,8|0,0:0|0:0,0:0:0:0:
240,152,94619,1,0,0:0:0:0:
188,48,94805,1,0,0:0:0:0:
192,236,94992,1,8,0:0:0:0:
276,72,95178,2,0,B|316:56|316:56|376:60,1,80
192,236,95551,2,0,B|152:252|152:252|92:248,1,80,8|0,0:0|0:0,0:0:0:0:
16,180,95923,5,0,0:0:0:0:
192,108,96110,1,0,0:0:0:0:
4,264,96296,1,0,0:0:0:0:
4,264,96482,1,0,0:0:0:0:
104,44,96855,1,0,0:0:0:0:
104,44,97041,2,0,B|188:28|188:28|280:28,1,160,8|0,0:0|0:0,0:0:0:0:
388,44,97600,1,0,0:0:0:0:
328,212,97973,5,8,0:0:0:0:
476,32,98159,1,0,0:0:0:0:
240,184,98346,1,0,0:0:0:0:
472,124,98532,1,8,0:0:0:0:
472,124,99277,5,0,0:0:0:0:
240,184,99464,1,0,0:0:0:0:
472,124,99836,1,0,0:0:0:0:
252,260,100023,2,0,P|148:260|72:216,1,160,8|0,0:0|0:0,0:0:0:0:
16,144,100582,1,0,0:0:0:0:
64,320,100768,1,0,0:0:0:0:
80,80,100954,1,8,0:0:0:0:
80,80,101047,1,8,0:0:0:0:
80,80,101141,1,0,0:0:0:0:
20,228,101327,5,0,0:0:0:0:
164,136,101513,2,0,P|208:120|240:120,1,80,8|0,0:0|0:0,0:0:0:0:
96,188,101886,2,0,P|80:144|80:112,1,80
80,111,102259,1,0,0:0:0:0:
200,248,102445,1,0,0:0:0:0:
8,144,102818,1,0,0:0:0:0:
232,144,103004,2,0,B|280:144|280:144|344:184|344:184|384:184,1,160,8|0,0:0|0:0,0:0:0:0:
380,184,103563,1,0,0:0:0:0:
288,292,103749,5,0,0:0:0:0:
340,88,103936,1,8,0:0:0:0:
216,220,104122,2,0,B|172:216|172:216|120:184,1,80
340,88,104495,1,0,0:0:0:0:
356,92,104588,1,0,0:0:0:0:
376,128,104681,1,0,0:0:0:0:
348,168,104774,1,0,0:0:0:0:
328,212,104867,1,8,0:0:0:0:
204,72,105054,1,0,0:0:0:0:
328,212,105240,6,0,P|320:268|300:300,1,80
308,288,105799,1,0,0:0:0:0:
156,300,105985,2,0,B|144:252|84:240|84:240|108:192|164:192,1,160,8|0,0:0|0:0,0:0:0:0:
256,168,106544,1,0,0:0:0:0:
80,320,106917,1,8,0:0:0:0:
260,88,107290,1,0,0:0:0:0:
256,168,107476,2,0,P|244:212|216:240,1,80,8|0,0:0|0:0,0:0:0:0:
260,88,107849,2,0,P|304:100|332:128,1,80
384,200,108221,5,8,0:0:0:0:
424,288,108346,1,0,0:0:0:0:
476,216,108470,1,0,0:0:0:0:
348,184,108594,1,0,0:0:0:0:
448,308,108718,1,0,0:0:0:0:
472,180,108842,1,0,0:0:0:0:
312,192,108967,2,0,P|296:212|304:276,1,53.3333333333333
464,336,109215,2,0,P|484:352|548:344,1,53.3333333333333
476,144,109464,2,0,P|492:124|484:60,1,53.3333333333333
316,64,109712,6,0,B|256:68|256:68|240:116|168:112,2,160,2|0|8,0:0|0:0|0:0,0:0:0:0:
488,60,110644,1,0,0:0:0:0:
280,192,110830,1,0,0:0:0:0:
392,0,111016,1,0,0:0:0:0:
420,192,111203,6,0,B|416:272|416:272|396:352,1,160,2|0,0:0|0:0,0:0:0:0:
308,216,111948,2,0,P|272:180|160:180,1,160,8|0,0:0|0:0,0:0:0:0:
40,236,112693,1,0,0:0:0:0:
168,32,113066,1,0,0:0:0:0:
104,304,113439,1,8,0:0:0:0:
20,140,113811,1,0,0:0:0:0:
212,260,113998,1,0,0:0:0:0:
212,260,114091,1,0,0:0:0:0:
212,260,114184,2,0,P|272:264|372:212,2,160,0|0|8,0:0|0:0|0:0,0:0:0:0:
48,188,115302,5,0,0:0:0:0:
292,344,115675,1,0,0:0:0:0:
212,96,115861,1,8,0:0:0:0:
176,340,116047,1,8,0:0:0:0:
296,64,116234,1,0,0:0:0:0:
120,200,116420,1,0,0:0:0:0:
360,208,116606,1,8,0:0:0:0:
408,200,116700,1,8,0:0:0:0:
456,188,116793,1,8,0:0:0:0:
500,164,116886,1,8,0:0:0:0:
452,120,116979,1,8,0:0:0:0:
404,76,117072,1,8,0:0:0:0:
352,36,117165,6,0,B|336:28|316:8|316:8|276:36|180:44,1,160,2|0,0:0|0:0,0:0:0:0:
8,204,117911,2,0,B|24:212|44:232|44:232|84:204|180:196,1,160,8|0,0:0|0:0,0:0:0:0:
312,216,118470,1,8,0:0:0:0:
312,216,118563,1,8,0:0:0:0:
312,216,118656,1,0,0:0:0:0:
192,336,118842,1,8,0:0:0:0:
244,144,119029,2,0,L|268:64,1,80
128,220,119401,2,0,L|150:143,1,80,8|0,0:0|0:0,0:0:0:0:
188,24,119774,5,0,0:0:0:0:
360,136,119960,1,0,0:0:0:0:
120,68,120147,2,0,P|72:76|40:104,1,80,8|0,0:0|0:0,0:0:0:0:
0,192,120519,1,0,0:0:0:0:
92,272,120706,1,8,0:0:0:0:
96,276,120892,1,8,0:0:0:0:
0,100,121078,1,0,0:0:0:0:
32,340,121265,2,0,P|72:356|120:356,1,80,8|0,0:0|0:0,0:0:0:0:
336,236,121637,2,0,P|272:224|228:232,2,80,0|8|0,0:0|0:0|0:0,0:0:0:0:
464,296,122196,5,0,0:0:0:0:
288,352,122383,1,8,0:0:0:0:
480,192,122569,2,0,P|488:176|488:140,1,40
460,76,122755,1,8,0:0:0:0:
460,76,122942,2,0,P|444:68|408:68,1,40
344,96,123128,1,8,0:0:0:0:
180,180,123314,5,0,0:0:0:0:
332,292,123501,2,0,L|308:212,1,80,8|0,0:0|0:0,0:0:0:0:
157,103,123874,2,0,L|181:183,1,80,8|0,0:0|0:0,0:0:0:0:
372,264,124246,2,0,L|303:210,1,80,8|0,0:0|0:0,0:0:0:0:
308,214,124526,1,0,0:0:0:0:
248,260,124619,2,0,L|180:312,1,80,8|0,0:0|0:0,0:0:0:0:
264,124,124992,6,0,L|332:72,1,80,8|0,0:0|0:0,0:0:0:0:
232,296,125364,2,0,L|164:348,1,80,8|0,0:0|0:0,0:0:0:0:
264,84,125737,2,0,L|332:32,1,80,8|0,0:0|0:0,0:0:0:0:
327,35,126110,5,0,0:0:0:0:
324,152,126296,1,8,0:0:0:0:
232,16,126482,1,8,0:0:0:0:
400,96,126669,1,8,0:0:0:0:
168,80,126855,1,8,0:0:0:0:
340,248,127041,1,8,0:0:0:0:
328,16,127228,1,8,0:0:0:0:
200,216,127414,1,8,0:0:0:0:
432,24,127600,5,8,0:0:0:0:
264,268,127787,1,8,0:0:0:0:
208,48,127973,1,8,0:0:0:0:
464,156,128159,1,8,0:0:0:0:
304,296,128346,1,8,0:0:0:0:
192,24,128532,1,8,0:0:0:0:
472,236,128718,1,8,0:0:0:0:
152,276,128905,1,8,0:0:0:0:
