osu file format v14

[General]
AudioFilename: audio.mp3
AudioLeadIn: 0
PreviewTime: 8841
Countdown: 0
SampleSet: None
StackLeniency: 0.7
Mode: 0
LetterboxInBreaks: 0
WidescreenStoryboard: 0

[Editor]
DistanceSpacing: 1.5
BeatDivisor: 4
GridSize: 4
TimelineZoom: 1.9

[Metadata]
Title:Dive In
TitleUnicode:Dive In
Artist:Pierce The Veil
ArtistUnicode:Pierce The Veil
Creator:Hari
Version:Hard
Source:
Tags:PTV Misadventures Vic Mike Fuentes Tony Perry Jaime Preciado Equal Vision Fearless Records Post-hardcore Progressive Punk Alternative Rock Edited Alternate Version Manquito Surume_Kotyan
BeatmapID:1856556
BeatmapSetID:880225

[Difficulty]
HPDrainRate:4.5
CircleSize:3
OverallDifficulty:5.5
ApproachRate:7.5
SliderMultiplier:1.2
SliderTickRate:1

[Events]
//Background and Video events
0,0,"Background.jpg",0,0
//Break Periods
2,22276,23933
2,34427,41508
2,64144,66812
//Storyboard Layer 0 (Background)
//Storyboard Layer 1 (Fail)
//Storyboard Layer 2 (Pass)
//Storyboard Layer 3 (Foreground)
//Storyboard Sound Samples

[TimingPoints]
190,368.098159509202,4,2,1,15,1,0
1662,-100,4,2,1,30,0,0
3134,-100,4,2,1,45,0,0
4239,-100,4,2,0,60,0,0
4608,368.098159509202,4,3,1,65,1,0
9025,-100,4,3,2,80,0,0
10313,-100,4,3,2,5,0,0
10497,-83.3333333333333,4,3,1,65,0,0
11325,-83.3333333333333,4,3,1,5,0,0
11417,-66.6666666666667,4,3,1,80,0,0
11693,-66.6666666666667,4,3,1,5,0,0
11785,-83.3333333333333,4,3,1,65,0,0
19884,-66.6666666666667,4,3,1,80,0,0
20160,-66.6666666666667,4,3,1,5,0,0
20252,-83.3333333333333,4,3,1,80,0,0
20804,-83.3333333333333,4,3,1,45,0,0
25221,-83.3333333333333,4,3,2,65,0,0
34055,372.670807453416,4,3,1,30,1,0
34427,-100,4,3,1,40,0,0
34800,-100,4,3,1,50,0,0
35173,-100,4,3,1,60,0,0
35545,-100,4,3,1,30,0,0
35918,-100,4,3,1,40,0,0
36291,-100,4,3,1,50,0,0
36663,-100,4,3,1,60,0,0
37036,-100,4,3,1,30,0,0
37409,-100,4,3,1,40,0,0
37781,-100,4,3,1,50,0,0
38154,-100,4,3,1,60,0,0
38527,-100,4,3,1,30,0,0
38899,-100,4,3,1,40,0,0
39272,-100,4,3,1,50,0,0
39645,-100,4,3,1,60,0,0
40017,-100,4,3,1,30,0,0
40390,-100,4,3,1,40,0,0
40763,-100,4,3,1,50,0,0
41135,-100,4,3,1,60,0,0
41508,-100,4,3,1,30,0,0
41881,-100,4,3,1,40,0,0
42253,-100,4,3,1,50,0,0
42626,-100,4,3,1,60,0,0
42999,-83.3333333333333,4,3,1,65,0,0
45887,-83.3333333333333,4,3,1,5,0,0
45980,-83.3333333333333,4,3,2,75,0,0
47564,-100,4,3,2,5,0,0
47657,-83.3333333333333,4,3,2,75,0,0
49986,-83.3333333333333,4,3,1,5,0,0
50079,-83.3333333333333,4,3,2,75,0,0
53527,-83.3333333333333,4,3,2,5,0,0
53620,-83.3333333333333,4,3,2,75,0,0
55949,-83.3333333333333,4,3,2,5,0,0
56042,-83.3333333333333,4,3,2,75,0,0
59489,-83.3333333333333,4,3,2,5,0,0
59582,-83.3333333333333,4,3,2,75,0,0
60887,-83.3333333333333,4,3,2,50,0,0
62377,-83.3333333333333,4,3,2,50,0,0
63868,368.098159509202,4,3,1,80,1,0
66444,-100,4,3,1,80,0,0
66812,-1000,4,2,0,65,0,0
69021,-1000,4,2,0,65,0,0
69389,-76.9230769230769,4,3,1,65,0,0
76751,-66.6666666666667,4,3,1,65,0,0
76935,-76.9230769230769,4,3,1,65,0,0
89634,-76.9230769230769,4,3,1,65,0,0
90371,-76.9230769230769,4,3,1,78,0,0
91843,-76.9230769230769,4,3,1,78,0,0
93315,372.931775700934,4,3,2,70,1,0
93315,-83.3333333333333,4,3,2,70,0,0
94339,-100,4,3,2,5,0,0
94433,-100,4,3,2,70,0,0
94898,-83.3333333333333,4,3,2,5,0,0
94992,-83.3333333333333,4,3,2,70,0,0
97321,-83.3333333333333,4,3,2,5,0,0
97414,-83.3333333333333,4,3,2,70,0,0
98532,-133.333333333333,4,3,2,80,0,0
99277,-83.3333333333333,4,3,2,80,0,0
100861,-83.3333333333333,4,3,2,5,0,0
100954,-83.3333333333333,4,3,2,80,0,0
101979,-83.3333333333333,4,3,2,5,0,0
102072,-83.3333333333333,4,3,2,80,0,0
103283,-83.3333333333333,4,3,2,5,0,0
103377,-83.3333333333333,4,3,2,80,0,0
105706,-83.3333333333333,4,3,2,5,0,0
105799,-83.3333333333333,4,3,2,80,0,0
106265,-83.3333333333333,4,3,2,5,0,0
106358,-83.3333333333333,4,3,2,80,0,0
106824,-83.3333333333333,4,3,2,5,0,0
106917,-83.3333333333333,4,3,2,80,0,0
107196,-83.3333333333333,4,3,2,5,0,0
107290,-83.3333333333333,4,3,2,80,0,0
108221,-133.333333333333,4,3,2,50,0,0
109712,-100,4,3,2,50,0,0
111203,-76.9230769230769,4,3,2,80,0,0
111482,-76.9230769230769,4,3,2,5,0,0
111575,-76.9230769230769,4,3,2,80,0,0
111855,-76.9230769230769,4,3,2,5,0,0
111948,-76.9230769230769,4,3,2,80,0,0
112228,-76.9230769230769,4,3,2,5,0,0
112321,-76.9230769230769,4,3,2,80,0,0
112600,-76.9230769230769,4,3,2,5,0,0
112693,-76.9230769230769,4,3,2,80,0,0
112973,-76.9230769230769,4,3,2,5,0,0
113066,-76.9230769230769,4,3,2,80,0,0
113346,-76.9230769230769,4,3,2,5,0,0
113439,-76.9230769230769,4,3,2,80,0,0
113718,-76.9230769230769,4,3,2,5,0,0
113811,-76.9230769230769,4,3,2,80,0,0
114184,-76.9230769230769,4,3,2,80,0,0
114464,-76.9230769230769,4,3,2,5,0,0
114557,-76.9230769230769,4,3,2,80,0,0
114836,-76.9230769230769,4,3,2,5,0,0
114929,-76.9230769230769,4,3,2,80,0,0
115209,-76.9230769230769,4,3,2,5,0,0
115302,-76.9230769230769,4,3,2,80,0,0
115582,-76.9230769230769,4,3,2,5,0,0
115675,-76.9230769230769,4,3,2,80,0,0
117445,-76.9230769230769,4,3,2,5,0,0
117538,-76.9230769230769,4,3,2,80,0,0
117818,-76.9230769230769,4,3,2,5,0,0
117911,-76.9230769230769,4,3,2,80,0,0
118190,-76.9230769230769,4,3,2,5,0,0
118283,-76.9230769230769,4,3,2,80,0,0
123149,-71.4285714285714,4,3,2,85,0,1
125760,-71.4285714285714,4,3,2,65,0,0
126132,-71.4285714285714,4,3,1,85,0,1
127624,368.098159509202,4,3,1,90,1,1
127624,-71.4285714285714,4,3,1,90,0,1
129096,-100,4,3,1,65,0,0

[Colours]
Combo1 : 85,85,85
Combo2 : 128,0,0
Combo3 : 170,85,0

[HitObjects]
256,192,190,12,0,4239,0:0:0:0:
0,281,4607,6,0,L|134:298,1,120,4|0,0:3|0:0,0:0:0:0:
253,375,5344,2,0,L|372:359,1,120,4|0,0:0|0:0,0:0:0:0:
469,237,6080,6,0,L|489:90,1,120,4|2,0:0|0:0,0:0:0:0:
343,53,6816,2,0,L|359:171,1,120,4|2,0:0|0:0,0:0:0:0:
261,293,7552,6,0,L|127:263,1,120,4|2,0:0|0:0,0:0:0:0:
22,169,8288,2,0,L|156:139,1,120,4|2,0:0|0:0,0:0:0:0:
292,110,9025,5,4,0:0:0:0:
292,110,10497,5,4,0:0:0:0:
368,34,10681,1,8,0:0:0:0:
368,34,10773,1,8,0:0:0:0:
368,34,10865,1,0,0:0:0:0:
458,92,11049,2,0,B|474:109|474:109|468:172,1,71.9999978027344,4|0,0:0|0:0,0:0:0:0:
429,286,11417,6,0,B|354:259|368:313|286:283,1,135.000005149841,2|0,0:0|0:0,0:0:0:0:
256,251,11785,1,8,0:0:0:0:
155,291,11969,6,0,P|102:280|71:252,1,71.9999978027344,2|8,0:0|0:0,0:0:0:0:
31,177,12338,2,0,L|-7:195,2,35.9999989013672,2|2|8,0:0|0:0|0:0,0:0:0:0:
91,87,12706,2,0,P|122:70|158:66,1,71.9999978027344,2|8,0:0|0:0,0:0:0:0:
225,150,13074,1,2,0:0:0:0:
225,150,13166,1,2,0:0:0:0:
225,150,13258,1,8,0:0:0:0:
330,172,13442,5,2,0:0:0:0:
407,96,13626,2,0,L|422:60,3,35.9999989013672,8|0|2|0,0:0|0:0|0:0|0:0,0:0:0:0:
377,29,13994,2,0,P|309:4|226:23,1,143.999995605469,8|8,0:0|0:0,0:0:0:0:
152,79,14546,2,0,L|145:136,2,35.9999989013672,2|2|8,0:0|0:0|0:0,0:0:0:0:
44,92,14914,6,0,L|34:171,1,71.9999978027344,2|8,0:0|0:0,0:0:0:0:
71,264,15282,1,2,0:0:0:0:
71,264,15374,1,2,0:0:0:0:
71,264,15466,1,8,0:0:0:0:
175,290,15650,1,2,0:0:0:0:
248,210,15834,2,0,P|275:208|315:197,5,35.9999989013672,8|8|8|8|8|8,0:0|0:0|0:0|0:0|0:0|0:0,0:0:0:0:
332,182,16387,5,2,0:0:0:0:
439,183,16571,1,8,0:0:0:0:
439,183,16663,1,2,0:0:0:0:
439,183,16755,1,2,0:0:0:0:
478,283,16939,2,0,P|472:355|397:366,1,143.999995605469,8|8,0:0|0:0,0:0:0:0:
327,304,17491,2,0,P|328:274|338:239,2,35.9999989013672,2|2|8,0:0|0:0|0:0,0:0:0:0:
233,358,17859,6,0,P|186:352|145:358,1,71.9999978027344,2|8,0:0|0:0,0:0:0:0:
54,338,18227,1,2,0:0:0:0:
54,338,18319,1,2,0:0:0:0:
54,338,18411,1,8,0:0:0:0:
40,230,18595,2,0,L|53:136,1,71.9999978027344,2|8,0:0|0:0,0:0:0:0:
94,60,18963,2,0,P|48:53|35:46,2,35.9999989013672,2|2|8,0:0|0:0|0:0,0:0:0:0:
199,38,19331,5,2,0:0:0:0:
258,128,19515,2,0,P|264:148|264:173,3,35.9999989013672,2|2|2|2,0:0|0:0|0:0|0:0,0:0:0:0:
213,208,19884,6,0,B|270:269|209:280|263:343,1,135.000005149841,4|0,0:0|0:0,0:0:0:0:
298,362,20252,1,8,0:0:0:0:
413,375,20436,1,2,0:0:0:0:
479,278,20620,1,8,0:0:0:0:
429,174,20804,5,2,2:0:0:0:
256,168,25221,6,0,L|165:185,1,71.9999978027344,2|2,0:0|0:0,0:0:0:0:
93,199,25589,1,8,0:0:0:0:
93,199,25773,1,0,0:0:0:0:
99,292,25957,2,0,L|169:305,1,71.9999978027344,2|2,0:0|0:0,0:0:0:0:
243,362,26325,2,0,P|290:347|319:314,1,71.9999978027344,8|2,0:0|0:0,0:0:0:0:
399,329,26693,6,0,P|409:280|395:239,1,71.9999978027344,2|0,0:0|0:0,0:0:0:0:
352,181,27061,2,0,B|283:159|283:159|197:184,1,143.999995605469,8|2,0:0|0:0,0:0:0:0:
141,238,27614,2,0,P|129:257|123:285,5,35.9999989013672,2|2|2|2|2|2,0:0|0:0|0:0|0:0|0:0|0:0,0:0:0:0:
120,316,28166,6,0,L|214:331,1,71.9999978027344,2|2,0:0|0:0,0:0:0:0:
274,369,28534,2,0,L|345:357,1,71.9999978027344,8|2,3:0|0:0,0:0:0:0:
345,357,28810,1,2,0:0:0:0:
345,357,28902,2,0,P|404:364|424:357,1,71.9999978027344,2|2,0:0|0:0,0:0:0:0:
381,266,29270,2,0,L|309:254,1,71.9999978027344,8|0,0:0|0:0,0:0:0:0:
309,254,29546,1,2,0:0:0:0:
309,254,29638,6,0,P|250:244|232:232,1,71.9999978027344,2|2,0:0|0:0,0:0:0:0:
150,212,30006,2,0,B|131:134|131:134|167:66,1,143.999995605469,8|2,0:0|0:0,0:0:0:0:
242,32,30558,1,2,0:0:0:0:
341,74,30742,2,0,L|441:61,1,71.9999978027344,8|0,0:0|0:0,0:0:0:0:
412,64,31019,1,2,0:0:0:0:
412,64,31111,6,0,P|437:109|443:151,1,71.9999978027344,8|2,0:0|0:0,0:0:0:0:
512,221,31479,2,0,P|497:270|472:304,1,71.9999978027344,8|2,0:0|0:0,0:0:0:0:
391,354,31847,2,0,P|346:379|303:384,1,71.9999978027344,8|2,0:0|0:0,0:0:0:0:
305,271,32215,2,0,P|255:258|212:263,1,71.9999978027344,8|2,0:0|0:0,0:0:0:0:
169,347,32583,6,0,P|100:349|78:268,2,143.999995605469,8|10|2,0:0|0:0|0:0,0:0:0:0:
288,202,33687,1,2,0:0:0:0:
203,73,34055,5,4,0:0:0:0:
17,55,42999,6,0,P|65:47|106:22,1,71.9999978027344,8|2,0:0|0:0,0:0:0:0:
168,80,43371,2,0,P|216:88|257:113,1,71.9999978027344,8|2,0:0|0:0,0:0:0:0:
319,53,43744,2,0,P|367:45|408:20,1,71.9999978027344,8|2,0:0|0:0,0:0:0:0:
465,87,44117,2,0,P|460:122|465:158,1,71.9999978027344,8|2,0:0|0:0,0:0:0:0:
364,217,44489,6,0,P|335:194|302:181,1,71.9999978027344,8|2,0:0|0:0,0:0:0:0:
216,98,44862,2,0,P|193:126|180:159,1,71.9999978027344,8|2,0:0|0:0,0:0:0:0:
123,260,45235,2,0,P|151:282|184:295,1,71.9999978027344,8|2,0:0|0:0,0:0:0:0:
295,350,45607,2,0,P|313:331|317:263,1,71.9999978027344,8|2,0:0|0:0,0:0:0:0:
337,175,45980,5,2,0:0:0:0:
280,77,46166,2,0,P|237:72|201:46,1,71.9999978027344,2|0,0:0|0:0,0:0:0:0:
107,32,46539,1,2,0:0:0:0:
28,106,46725,2,0,P|50:148|32:255,1,143.999995605469,8|2,0:0|0:0,0:0:0:0:
112,321,47284,6,0,P|159:316|222:330,1,107.999996704102,2|0,0:0|0:0,0:0:0:0:
253,369,47657,2,0,P|305:368|345:339,1,71.9999978027344,8|0,0:0|0:0,0:0:0:0:
388,274,48030,1,2,0:0:0:0:
470,343,48216,1,8,0:0:0:0:
484,236,48402,2,0,P|461:201|479:86,1,143.999995605469,2|2,0:0|0:0,0:0:0:0:
504,62,48868,1,2,0:0:0:0:
504,62,48961,5,2,0:0:0:0:
400,29,49148,2,0,P|357:15|310:17,1,71.9999978027344,2|0,0:0|0:0,0:0:0:0:
243,77,49520,1,2,0:0:0:0:
144,32,49707,2,0,P|131:83|170:156,1,107.999996704102,8|0,0:0|0:0,0:0:0:0:
184,174,50079,1,2,0:0:0:0:
244,263,50266,6,0,L|148:280,1,71.9999978027344,2|0,0:0|0:0,0:0:0:0:
106,360,50638,2,0,L|35:347,1,71.9999978027344,8|0,0:0|0:0,0:0:0:0:
0,244,51011,1,2,0:0:0:0:
67,159,51197,2,0,P|53:105|34:72,2,71.9999978027344,8|0|0,0:0|0:0|0:0,0:0:0:0:
160,213,51756,1,2,0:0:0:0:
240,140,51943,5,2,0:0:0:0:
332,85,52129,2,0,P|348:127|338:178,2,71.9999978027344,2|0|0,0:0|0:0|0:0,0:0:0:0:
244,20,52688,2,0,P|208:20|175:34,1,71.9999978027344,8|0,0:0|0:0,0:0:0:0:
82,90,53061,1,2,0:0:0:0:
21,179,53247,6,0,P|77:199|144:168,1,107.999996704102
169,160,53620,2,0,P|224:153|261:171,1,71.9999978027344,8|0,0:0|0:0,0:0:0:0:
290,252,53992,1,2,0:0:0:0:
391,203,54179,1,8,0:0:0:0:
498,199,54365,2,0,P|476:127|407:95,1,143.999995605469,2|2,0:0|0:0,0:0:0:0:
311,110,54924,5,2,0:0:0:0:
226,43,55110,2,0,B|157:22|157:22|71:30,1,143.999995605469,2|2,0:0|0:0,0:0:0:0:
4,100,55669,2,0,P|-7:146|19:213,1,107.999996704102,8|0,0:0|0:0,0:0:0:0:
49,241,56042,1,2,0:0:0:0:
118,323,56228,6,0,P|164:313|211:319,1,71.9999978027344,2|0,0:0|0:0,0:0:0:0:
287,359,56601,2,0,P|333:369|380:363,1,71.9999978027344,8|0,0:0|0:0,0:0:0:0:
461,336,56974,1,2,0:0:0:0:
415,238,57160,2,0,P|367:195|276:230,1,143.999995605469,8|2,0:0|0:0,0:0:0:0:
192,246,57719,1,2,0:0:0:0:
86,222,57905,5,4,0:0:0:0:
76,114,58092,2,0,P|138:104|174:86,1,71.9999978027344,2|0,0:0|0:0,0:0:0:0:
222,24,58464,1,2,0:0:0:0:
304,93,58651,2,0,P|383:98|415:37,1,143.999995605469,8|8,0:0|0:0,0:0:0:0:
495,102,59210,6,0,P|513:160|510:193,1,71.9999978027344,2|0,0:0|0:0,0:0:0:0:
480,265,59582,1,2,0:0:0:0:
378,274,59769,2,0,P|318:268|286:251,1,71.9999978027344,2|0,0:0|0:0,0:0:0:0:
228,190,60141,1,8,0:0:0:0:
156,271,60328,2,0,P|92:286|50:207,1,143.999995605469,2|2,0:0|0:0,0:0:0:0:
111,143,60887,6,0,P|134:77|24:135,2,287.999991210938,4|0|2,0:0|0:0|0:0,0:0:0:0:
51,222,62564,6,0,P|69:266|79:313,1,71.9999978027344,4|0,0:0|0:0,0:0:0:0:
143,353,62936,1,2,0:0:0:0:
230,319,63123,1,4,0:0:0:0:
321,336,63309,6,0,L|373:346,5,35.9999989013672,2|2|2|2|2|2,0:0|0:0|0:0|0:0|0:0|0:0,0:0:0:0:
394,353,63868,5,4,0:0:0:0:
344,141,69389,6,0,P|415:133|448:113,1,77.9999964294435,8|2,0:0|0:0,0:0:0:0:
489,56,69757,1,2,0:0:0:0:
402,2,69941,1,2,0:0:0:0:
306,36,70125,2,0,P|264:54|212:59,1,77.9999964294435,8|2,0:0|0:0,0:0:0:0:
232,59,70401,1,2,0:0:0:0:
232,59,70493,1,2,0:0:0:0:
142,12,70677,1,2,0:0:0:0:
44,39,70861,2,0,L|35:142,1,77.9999964294435,8|2,0:0|0:0,0:0:0:0:
136,139,71229,6,0,L|145:242,1,77.9999964294435,2|2,0:0|0:0,0:0:0:0:
46,250,71598,2,0,L|37:353,1,77.9999964294435,8|2,0:0|0:0,0:0:0:0:
39,327,71874,1,2,0:0:0:0:
39,327,71966,1,2,0:0:0:0:
136,381,72150,1,2,0:0:0:0:
220,324,72334,2,0,P|270:311|311:313,1,77.9999964294435,8|2,0:0|0:0,0:0:0:0:
391,276,72702,6,0,L|399:182,1,77.9999964294435,2|2,0:0|0:0,0:0:0:0:
298,178,73070,2,0,L|290:84,1,77.9999964294435,8|2,0:0|0:0,0:0:0:0:
291,100,73346,1,2,0:0:0:0:
291,100,73438,1,2,0:0:0:0:
211,38,73622,1,2,0:0:0:0:
115,70,73806,2,0,B|76:71|76:71|35:106,1,77.9999964294435,8|2,0:0|0:0,0:0:0:0:
44,197,74174,6,0,B|73:222|73:222|112:223,1,77.9999964294435,2|2,0:0|0:0,0:0:0:0:
204,181,74542,2,0,P|263:164|308:167,1,77.9999964294435,8|2,0:0|0:0,0:0:0:0:
279,163,74818,1,2,0:0:0:0:
279,163,74910,1,2,0:0:0:0:
375,119,75094,1,8,0:0:0:0:
469,164,75279,2,0,L|477:262,1,77.9999964294435,8|2,0:0|0:0,0:0:0:0:
419,326,75647,6,0,P|361:333|312:359,1,77.9999964294435,2|2,0:0|0:0,0:0:0:0:
241,369,76015,1,8,0:0:0:0:
152,318,76199,1,2,0:0:0:0:
54,355,76383,2,0,P|58:309|37:254,1,77.9999964294435,2|2,0:0|0:0,0:0:0:0:
63,164,76751,2,0,B|115:155|115:155|145:125,1,90.0000034332277,8|0,0:0|0:0,0:0:0:0:
202,48,77119,5,2,0:0:0:0:
297,81,77303,1,2,0:0:0:0:
311,181,77487,2,0,P|322:232|232:251,1,155.999992858887,8|2,0:0|0:0,0:0:0:0:
156,199,78039,1,2,0:0:0:0:
124,102,78223,2,0,P|125:52|156:-3,1,77.9999964294435,8|2,0:0|0:0,0:0:0:0:
236,24,78591,6,0,P|247:61|246:99,1,77.9999964294435,2|2,0:0|0:0,0:0:0:0:
311,178,78960,1,8,0:0:0:0:
311,178,79144,1,2,0:0:0:0:
409,154,79328,2,0,L|508:137,1,77.9999964294435,2|2,0:0|0:0,0:0:0:0:
485,242,79696,2,0,L|408:255,1,77.9999964294435,8|2,0:0|0:0,0:0:0:0:
327,316,80064,6,0,P|267:339|233:247,2,155.999992858887,2|8|2,0:0|0:0|0:0,0:0:0:0:
408,254,80984,1,2,0:0:0:0:
333,184,81168,2,0,P|278:161|236:157,1,77.9999964294435,8|2,0:0|0:0,0:0:0:0:
172,106,81536,6,0,P|134:114|99:131,2,77.9999964294435,2|2|8,0:0|0:0|0:0,0:0:0:0:
261,57,82088,1,0,0:0:0:0:
261,57,82272,2,0,L|357:43,1,77.9999964294435,2|2,0:0|0:0,0:0:0:0:
388,134,82641,2,0,L|484:120,1,77.9999964294435,8|2,0:0|0:0,0:0:0:0:
444,221,83009,6,0,P|442:285|415:320,2,77.9999964294435,2|2|8,0:0|0:0|0:0,0:0:0:0:
388,134,83561,1,2,0:0:0:0:
388,134,83745,2,0,L|310:145,1,77.9999964294435,2|2,0:0|0:0,0:0:0:0:
303,246,84113,2,0,L|225:257,1,77.9999964294435,8|2,0:0|0:0,0:0:0:0:
127,231,84481,6,0,P|129:295|156:330,2,77.9999964294435,2|2|8,0:0|0:0|0:0,0:0:0:0:
188,150,85033,1,2,0:0:0:0:
188,150,85217,2,0,L|89:132,1,77.9999964294435,2|2,0:0|0:0,0:0:0:0:
56,50,85585,2,0,L|155:32,1,77.9999964294435,8|2,0:0|0:0,0:0:0:0:
230,63,85953,6,0,P|308:51|318:41,2,77.9999964294435,2|2|8,0:0|0:0|0:0,0:0:0:0:
132,36,86506,1,2,0:0:0:0:
132,36,86690,2,0,L|122:124,1,77.9999964294435,2|2,0:0|0:0,0:0:0:0:
23,132,87058,2,0,L|33:220,1,77.9999964294435,8|2,0:0|0:0,0:0:0:0:
90,292,87426,6,0,L|155:307,3,38.9999982147218,2|2|2|2,0:0|0:0|0:0|0:0,0:0:0:0:
163,336,87794,2,0,B|187:356|187:356|243:349,1,77.9999964294435,2|2,0:0|0:0,0:0:0:0:
302,275,88162,2,0,L|340:266,3,38.9999982147218,8|2|2|2,0:0|0:0|0:0|0:0,0:0:0:0:
373,228,88530,2,0,B|397:208|397:208|453:215,1,77.9999964294435,8|2,0:0|0:0,0:0:0:0:
466,115,88898,6,0,L|371:98,1,77.9999964294435,8|2,0:0|0:0,0:0:0:0:
315,31,89266,2,0,L|238:44,1,77.9999964294435,8|2,0:0|0:0,0:0:0:0:
138,64,89634,2,0,P|88:49|69:40,2,38.9999982147218,8|2|2,0:0|0:0|0:0,0:0:0:0:
162,162,90002,2,0,P|212:147|231:138,2,38.9999982147218,8|2|2,0:0|0:0|0:0,0:0:0:0:
90,235,90371,6,0,L|83:274,3,38.9999982147218,8|8|8|8,0:0|0:0|0:0|0:0,0:0:0:0:
115,312,90739,2,0,L|122:351,3,38.9999982147218,8|8|8|8,0:0|0:0|0:0|0:0,0:0:0:0:
164,377,91107,2,0,L|203:384,3,38.9999982147218,8|8|8|8,0:0|0:0|0:0|0:0,0:0:0:0:
241,351,91475,2,0,L|280:344,3,38.9999982147218,8|8|8|8,0:0|0:0|0:0|0:0,0:0:0:0:
328,331,91843,5,4,0:0:0:0:
256,192,93315,5,2,0:0:0:0:
150,133,93501,2,0,P|134:189|141:229,1,71.9999978027344,2|0,0:0|0:0,0:0:0:0:
195,303,93874,1,2,0:0:0:0:
195,303,94060,2,0,B|269:333|269:333|333:323,1,143.999995605469,8|2,0:0|0:0,0:0:0:0:
419,297,94620,6,0,P|461:261|471:210,1,90,2|0,0:0|0:0,0:0:0:0:
474,174,94993,2,0,P|456:133|468:84,1,71.9999978027344,2|0,0:0|0:0,0:0:0:0:
388,23,95366,1,2,0:0:0:0:
298,82,95552,1,8,0:0:0:0:
192,58,95739,2,0,B|116:61|116:61|55:22,1,143.999995605469,2|2,0:0|0:0,0:0:0:0:
13,122,96298,5,2,0:0:0:0:
74,210,96484,2,0,P|71:262|47:305,1,71.9999978027344,2|0,0:0|0:0,0:0:0:0:
7,372,96857,1,2,0:0:0:0:
115,368,97044,2,0,P|176:367|231:332,1,107.999996704102,8|0,0:0|0:0,0:0:0:0:
258,310,97417,1,2,0:0:0:0:
340,240,97603,6,0,P|390:235|434:247,1,71.9999978027344,2|0,0:0|0:0,0:0:0:0:
499,176,97976,2,0,P|470:154|436:141,1,71.9999978027344,2|0,0:0|0:0,0:0:0:0:
328,141,98349,1,2,0:0:0:0:
257,58,98536,6,0,L|194:71,2,45.0000017166138,4|0|0,0:0|0:0|0:0,0:0:0:0:
471,28,99281,5,2,0:0:0:0:
446,133,99468,2,0,P|464:184|463:224,1,71.9999978027344,2|0,0:0|0:0,0:0:0:0:
420,300,99841,1,2,0:0:0:0:
321,344,100027,2,0,B|253:317|253:317|159:331,1,143.999995605469,8|2,0:0|0:0,0:0:0:0:
74,330,100587,6,0,P|83:279|60:211,1,107.999996704102,2|0,0:0|0:0,0:0:0:0:
46,175,100960,2,0,P|11:163|-14:156,2,35.9999989013672,8|8|2,0:0|0:0|0:0,0:0:0:0:
82,72,101333,1,2,0:0:0:0:
185,41,101519,1,8,0:0:0:0:
263,117,101705,2,0,P|338:104|358:18,1,143.999995605469,2|0,0:0|0:0,0:0:0:0:
476,42,102265,5,2,0:0:0:0:
487,149,102451,2,0,P|475:197|461:222,1,71.9999978027344,2|0,0:0|0:0,0:0:0:0:
386,291,102824,1,2,0:0:0:0:
280,264,103011,2,0,L|141:249,1,107.999996704102,8|0,0:0|0:0,0:0:0:0:
119,239,103384,1,2,0:0:0:0:
26,183,103570,6,0,P|49:129|53:83,1,71.9999978027344,2|0,0:0|0:0,0:0:0:0:
125,37,103943,2,0,B|203:20|203:20|266:45,1,143.999995605469,8|2,0:0|0:0,0:0:0:0:
306,142,104502,2,0,L|295:193,4,35.9999989013672,8|2|2|2|8,0:0|0:0|0:0|0:0|0:0,0:0:0:0:
390,73,105062,1,2,0:0:0:0:
491,109,105248,5,2,0:0:0:0:
496,217,105435,2,0,P|490:273|471:334,1,107.999996704102,2|0,0:0|0:0,0:0:0:0:
434,358,105808,1,2,0:0:0:0:
332,320,105994,2,0,P|261:315|227:339,1,107.999996704102,8|0,0:0|0:0,0:0:0:0:
199,376,106367,1,2,0:0:0:0:
93,352,106554,6,0,P|93:300|74:261,1,71.9999978027344,2|0,0:0|0:0,0:0:0:0:
25,208,106927,2,0,P|36:159|64:128,1,71.9999978027344,8|0,0:0|0:0,0:0:0:0:
127,86,107299,2,0,B|206:107|206:107|275:70,1,143.999995605469,2|2,0:0|0:0,0:0:0:0:
358,21,107859,1,2,0:0:0:0:
456,64,108045,1,2,0:0:0:0:
457,172,108232,6,0,P|461:230|365:204,2,180.000006866455,8|2|4,0:0|0:0|0:0,0:0:0:0:
466,175,110469,6,0,P|435:127|431:112,1,60,4|2,0:0|0:0,0:0:0:0:
370,57,110842,2,0,P|357:84|338:107,1,60,2|2,0:0|0:0,0:0:0:0:
250,158,111215,6,0,B|177:166|177:166|85:124,3,155.999992858887,2|2|8|2,0:0|0:0|0:0|0:0,0:0:0:0:
101,131,112707,6,0,L|121:315,3,155.999992858887,2|2|8|2,0:0|0:0|0:0|0:0,0:0:0:0:
237,353,114012,1,2,0:0:0:0:
237,353,114105,1,2,0:0:0:0:
237,353,114199,6,0,B|323:366|323:366|408:328,3,155.999992858887,2|2|8|2,0:0|0:0|0:0|0:0,0:0:0:0:
504,196,115690,5,2,0:0:0:0:
415,147,115877,1,8,0:0:0:0:
332,206,116063,2,0,P|276:201|250:180,1,77.9999964294435,8|2,0:0|0:0,0:0:0:0:
173,134,116436,1,2,0:0:0:0:
80,175,116623,2,0,L|67:245,5,38.9999982147218,8|8|8|8|8|8,0:0|0:0|0:0|0:0|0:0|0:0,0:0:0:0:
67,264,117182,6,0,L|226:294,3,155.999992858887,2|2|8|2,0:0|0:0|0:0|0:0,0:0:0:0:
301,354,118487,1,2,0:0:0:0:
301,354,118581,1,2,0:0:0:0:
301,354,118674,5,2,0:0:0:0:
402,354,118860,1,8,0:0:0:0:
456,268,119047,2,0,P|457:208|440:177,1,77.9999964294435,2|2,0:0|0:0,0:0:0:0:
385,115,119420,2,0,P|325:114|294:131,1,77.9999964294435,8|2,0:0|0:0,0:0:0:0:
232,186,119793,1,2,0:0:0:0:
232,186,119979,1,2,0:0:0:0:
177,100,120166,6,0,L|72:89,1,77.9999964294435,2|2,0:0|0:0,0:0:0:0:
59,184,120539,2,0,L|136:192,1,77.9999964294435,2|2,0:0|0:0,0:0:0:0:
167,289,120911,2,0,L|89:280,1,77.9999964294435,8|2,0:0|0:0,0:0:0:0:
42,371,121284,2,0,L|119:379,1,77.9999964294435,8|2,0:0|0:0,0:0:0:0:
220,382,121657,5,2,0:0:0:0:
282,301,121844,2,0,B|369:274|369:274|453:293,1,155.999992858887,8|2,0:0|0:0,0:0:0:0:
424,186,122403,1,8,0:0:0:0:
381,67,122590,1,2,0:0:0:0:
381,67,122683,1,2,0:0:0:0:
381,67,122776,1,10,0:0:0:0:
249,60,122963,1,2,0:0:0:0:
249,60,123056,1,2,0:0:0:0:
249,60,123149,6,0,P|182:41|156:23,1,83.9999974365235,8|2,0:0|0:0,0:0:0:0:
49,94,123522,2,0,L|40:189,1,83.9999974365235,8|2,0:0|0:0,0:0:0:0:
164,232,123895,2,0,L|173:327,1,83.9999974365235,8|2,0:0|0:0,0:0:0:0:
286,384,124268,1,8,0:0:0:0:
407,327,124454,1,2,0:0:0:0:
407,327,124548,1,2,0:0:0:0:
407,327,124641,6,0,P|446:271|484:243,1,83.9999974365235,8|2,0:0|0:0,0:0:0:0:
329,219,125014,2,0,P|290:163|252:135,1,83.9999974365235,8|2,0:0|0:0,0:0:0:0:
399,92,125387,2,0,P|438:36|476:8,1,83.9999974365235,8|2,0:0|0:0,0:0:0:0:
509,146,125760,1,8,0:0:0:0:
509,146,125946,1,2,0:0:0:0:
408,234,126132,6,0,L|294:221,1,83.9999974365235,4|4,0:0|0:0,0:0:0:0:
196,182,126505,1,4,0:0:0:0:
196,182,126692,1,4,0:0:0:0:
141,304,126878,2,0,L|57:313,1,83.9999974365235,4|4,0:0|0:0,0:0:0:0:
0,196,127251,1,4,0:0:0:0:
0,196,127438,1,4,0:0:0:0:
82,88,127624,6,0,P|148:68|186:41,1,83.9999974365235,4|4,0:0|0:0,0:0:0:0:
286,12,127992,1,4,0:0:0:0:
286,12,128176,1,4,0:0:0:0:
368,118,128360,2,0,P|405:136|446:145,1,83.9999974365235,4|4,0:0|0:0,0:0:0:0:
477,275,128728,1,4,0:0:0:0:
477,275,128912,1,4,0:0:0:0:
