osu file format v14

[General]
AudioFilename: audio.mp3
AudioLeadIn: 0
PreviewTime: 50535
Countdown: 0
SampleSet: Soft
StackLeniency: 0.7
Mode: 0
LetterboxInBreaks: 0
WidescreenStoryboard: 1

[Editor]
DistanceSpacing: 1.1
BeatDivisor: 4
GridSize: 4
TimelineZoom: 1.7

[Metadata]
Title:Circles
TitleUnicode:Circles
Artist:Pierce The Veil
ArtistUnicode:Pierce The Veil
Creator:Peter
Version:Nowa's Expert
Source:
Tags:PTV post hardcore post-hardcore Misadventures DTM9 Nowa English Rock
BeatmapID:1576912
BeatmapSetID:736339

[Difficulty]
HPDrainRate:6.5
CircleSize:4.2
OverallDifficulty:8.5
ApproachRate:9
SliderMultiplier:1.85
SliderTickRate:1

[Events]
//Background and Video events
0,0,"bg.jpg",0,0
//Break Periods
//Storyboard Layer 0 (Background)
//Storyboard Layer 1 (Fail)
//Storyboard Layer 2 (Pass)
//Storyboard Layer 3 (Foreground)
//Storyboard Sound Samples

[TimingPoints]
12110,370.37037037037,4,2,1,60,1,0
18035,-125,4,2,1,60,0,0
18406,-86.9565217391304,4,2,1,60,0,0
18776,-100,4,2,1,60,0,0
23961,-133.333333333333,4,2,1,60,0,0
35813,-100,4,2,1,60,0,0
38776,-86.9565217391302,4,2,1,60,0,0
39332,-133.333333333333,4,2,1,60,0,0
40072,-142.857142857143,4,2,1,60,0,0
40813,-200,4,2,1,60,0,0
41739,-100,4,2,1,60,0,0
47665,-133.333333333333,4,2,1,60,0,0
50628,-86.9565217391304,4,2,1,60,0,1
68406,-133.333333333333,4,2,1,60,0,1
68776,-86.9565217391304,4,2,1,60,0,1
74332,-166.666666666667,4,2,1,60,0,0
75813,-133.333333333333,4,2,1,60,0,0
76554,-111.111111111111,4,2,1,60,0,0
77295,-100,4,2,1,60,0,0
80258,-133.333333333333,4,2,1,60,0,0
92109,-100,4,2,1,60,0,0
103961,-86.9565217391304,4,2,1,60,0,1
127665,-100,4,2,1,60,0,0
132109,-100,4,2,1,5,0,0

[Colours]
Combo1 : 153,210,156
Combo2 : 168,104,104
Combo3 : 188,188,188
Combo4 : 130,153,198

[HitObjects]
179,313,12109,6,0,P|129:327|57:311,1,92.5,4|4,0:0|0:3,0:0:0:0:
265,166,12480,1,8,0:0:0:0:
300,341,12665,2,0,L|276:220,1,92.5,4|0,0:3|0:0,0:0:0:0:
433,139,13035,1,4,0:3:0:0:
393,349,13221,1,8,0:0:0:0:
273,244,13406,1,4,0:3:0:0:
461,212,13591,6,0,P|468:264|458:312,1,92.5,2|0,0:0|0:0,0:0:0:0:
308,101,13961,1,8,0:0:0:0:
399,132,14147,1,4,0:3:0:0:
213,136,14332,6,0,P|161:126|118:102,1,92.5,2|0,0:0|0:0,0:0:0:0:
365,24,14702,1,8,0:0:0:0:
308,101,14888,1,4,0:3:0:0:
139,40,15072,6,0,P|195:38|243:59,1,92.5,4|4,0:0|0:3,0:0:0:0:
70,217,15443,1,8,0:0:0:0:
58,130,15628,2,0,L|45:24,1,92.5,4|0,0:3|0:0,0:0:0:0:
200,254,15998,1,4,0:3:0:0:
228,50,16184,2,0,L|215:156,1,92.5,8|4,0:0|0:3,0:0:0:0:
70,217,16554,6,0,P|109:193|155:188,1,92.5,0|4,0:0|0:3,0:0:0:0:
296,290,16924,1,8,0:0:0:0:
206,345,17109,2,0,P|190:301|195:256,1,92.5,4|0,0:3|0:0,0:0:0:0:
276,124,17480,1,4,0:3:0:0:
296,290,17665,1,8,0:3:0:0:
293,267,17757,1,8,0:3:0:0:
290,244,17850,1,8,0:3:0:0:
287,221,17942,1,8,0:3:0:0:
284,198,18035,6,0,L|274:98,1,74,2|4,0:0|0:3,0:0:0:0:
89,237,18406,6,0,P|135:262|188:259,1,106.375002028942,10|4,0:0|0:3,0:0:0:0:
284,198,18776,2,0,P|268:241|273:294,1,92.5,0|4,0:0|0:3,0:0:0:0:
443,173,19147,2,0,P|400:157|347:162,1,92.5,8|4,0:0|0:3,0:0:0:0:
491,245,19517,5,2,0:0:0:0:
506,118,19702,1,0,0:0:0:0:
385,297,19887,1,8,0:0:0:0:
354,159,20072,1,4,0:3:0:0:
253,256,20258,2,0,P|206:270|146:261,1,92.5,2|0,0:0|0:0,0:0:0:0:
59,104,20628,2,0,P|96:137|116:194,1,92.5,8|0,0:0|0:0,0:0:0:0:
10,283,20998,6,0,L|19:172,1,92.5,2|4,0:0|0:3,0:0:0:0:
170,358,21369,1,8,0:0:0:0:
161,251,21554,1,4,0:3:0:0:
73,375,21739,2,0,L|184:366,1,92.5,0|4,0:0|0:3,0:0:0:0:
348,280,22109,2,0,L|237:271,1,92.5,8|4,0:0|0:3,0:0:0:0:
418,365,22480,6,0,P|444:336|454:259,1,92.5,2|0,0:0|0:0,0:0:0:0:
326,125,22850,2,0,P|338:162|399:209,1,92.5,8|4,0:0|0:3,0:0:0:0:
469,94,23221,6,0,P|443:96|418:108,1,46.25,4|4,0:3|0:3,0:0:0:0:
326,271,23406,1,8,0:3:0:0:
358,283,23498,1,8,0:3:0:0:
392,284,23591,1,8,0:3:0:0:
424,271,23683,1,8,0:3:0:0:
449,247,23776,2,0,P|459:224|461:196,1,46.25,4|4,0:3|0:3,0:0:0:0:
197,132,23961,5,6,0:0:0:0:
197,132,24332,2,0,L|209:271,1,138.750005292893,10|0,0:0|0:0,0:0:0:0:
217,350,24887,1,4,0:3:0:0:
295,181,25072,2,0,L|288:256,1,69.3750026464463,8|4,0:0|0:3,0:0:0:0:
186,172,25443,6,0,L|179:97,1,69.3750026464463,4|0,0:3|0:0,0:0:0:0:
353,234,25813,2,0,P|322:251|289:258,1,69.3750026464463,8|4,0:0|0:3,0:0:0:0:
126,206,26184,2,0,P|156:188|189:181,1,69.3750026464463,2|4,0:0|0:3,0:0:0:0:
72,365,26554,2,0,L|72:295,1,69.3750026464463,10|4,0:0|0:3,0:0:0:0:
127,137,26924,6,0,L|126:206,1,69.3750026464463,2|0,0:0|0:0,0:0:0:0:
11,22,27295,1,10,0:0:0:0:
155,62,27480,2,0,L|84:65,1,69.3750026464463,2|4,0:0|0:3,0:0:0:0:
214,12,27850,1,2,0:0:0:0:
136,205,28035,1,8,0:0:0:0:
136,205,28221,6,0,P|126:149|130:111,1,69.3750026464463,2|4,0:0|0:3,0:0:0:0:
230,157,28591,1,2,0:0:0:0:
66,284,28776,2,0,P|41:232|35:194,1,69.3750026464463,8|4,0:0|0:3,0:0:0:0:
164,296,29147,2,0,P|153:329|137:359,1,69.3750026464463,2|4,0:0|0:3,0:0:0:0:
29,138,29517,1,10,0:0:0:0:
139,117,29702,1,2,0:0:0:0:
304,243,29887,6,0,L|204:232,1,69.3750026464463,6|0,0:0|0:0,0:0:0:0:
397,135,30258,2,0,P|403:169|403:203,1,69.3750026464463,10|4,0:0|0:3,0:0:0:0:
375,297,30628,1,0,0:0:0:0:
315,226,30813,1,0,0:0:0:0:
462,73,30998,2,0,P|475:104|482:138,1,69.3750026464463,8|0,0:0|0:0,0:0:0:0:
328,76,31369,6,0,P|335:42|348:10,1,69.3750026464463,4|0,0:3|0:0,0:0:0:0:
458,242,31739,1,8,0:0:0:0:
342,206,31924,2,0,P|362:200|382:199,1,34.6875013232232,4|0,0:3|0:0,0:0:0:0:
319,338,32109,2,0,P|298:302|293:257,1,69.3750026464463,2|4,0:0|0:3,0:0:0:0:
331,77,32480,2,0,P|323:110|304:139,1,69.3750026464463,10|4,0:0|0:3,0:0:0:0:
133,189,32850,6,0,L|201:199,1,69.3750026464463,2|0,0:0|0:0,0:0:0:0:
367,267,33221,1,8,0:0:0:0:
367,267,33406,2,0,L|226:285,1,138.750005292893,2|4,0:0|0:3,0:0:0:0:
317,109,33961,2,0,L|305:199,1,69.3750026464463,10|0,0:0|0:0,0:0:0:0:
229,284,34332,6,0,L|217:194,1,69.3750026464463,4|4,0:3|0:3,0:0:0:0:
417,376,34702,1,10,0:0:0:0:
417,376,34887,2,0,L|426:307,1,69.3750026464463,2|0,0:0|0:0,0:0:0:0:
449,148,35258,2,0,L|439:216,1,69.3750026464463,2|8,0:0|0:0,0:0:0:0:
277,358,35628,1,4,0:3:0:0:
277,358,35721,1,4,0:3:0:0:
277,358,35813,6,0,P|230:365|169:346,1,92.5,4|0,0:0|0:0,0:0:0:0:
79,160,36184,2,0,P|80:183|73:222,1,46.25,8|0,0:0|0:0,0:0:0:0:
63,276,36369,2,0,P|56:229|66:168,1,92.5,2|0,0:0|0:0,0:0:0:0:
114,83,36739,1,2,0:0:0:0:
235,288,36924,1,8,0:0:0:0:
351,165,37109,6,0,L|240:175,1,92.5,2|2,0:0|0:0,0:0:0:0:
156,186,37480,1,2,0:0:0:0:
402,247,37665,1,8,0:0:0:0:
373,76,37850,2,0,P|352:132|353:182,1,92.5,2|0,0:0|0:0,0:0:0:0:
450,140,38221,1,2,0:0:0:0:
188,98,38406,1,8,0:0:0:0:
277,203,38591,2,0,P|278:174|267:133,1,46.25,2|0,0:0|0:0,0:0:0:0:
280,53,38776,6,0,P|268:100|276:160,1,106.375002028942,2|2,0:0|0:0,0:0:0:0:
476,305,39147,1,8,0:0:0:0:
476,305,39332,2,0,P|480:273|473:230,1,69.3750026464463,2|0,0:0|0:0,0:0:0:0:
452,166,39702,1,2,0:0:0:0:
347,375,39887,1,8,0:0:0:0:
279,308,40072,2,0,P|263:304|238:303,1,32.3749990119934,2|0,0:0|0:0,0:0:0:0:
135,364,40258,6,0,P|175:360|217:338,1,64.7499980239869,2|2,0:0|0:0,0:0:0:0:
52,183,40628,1,8,0:0:0:0:
52,183,40813,6,0,P|40:227|43:281,1,92.5,2|2,0:0|0:0,0:0:0:0:
249,84,41369,1,10,0:0:0:0:
102,39,41554,1,2,0:0:0:0:
271,251,41739,6,0,L|258:151,1,92.5,4|0,0:0|0:0,0:0:0:0:
37,350,42109,1,8,0:0:0:0:
37,350,42295,2,0,L|50:250,1,92.5,2|0,0:0|0:0,0:0:0:0:
67,138,42665,1,2,0:0:0:0:
222,366,42850,1,8,0:0:0:0:
315,259,43035,2,0,P|293:252|270:250,1,46.25,2|0,0:0|0:0,0:0:0:0:
122,291,43221,6,0,P|177:299|235:286,1,92.5,2|2,0:0|0:0,0:0:0:0:
311,95,43591,1,8,0:0:0:0:
311,95,43776,2,0,P|276:138|258:195,1,92.5,2|0,0:0|0:0,0:0:0:0:
280,323,44147,1,2,0:0:0:0:
186,113,44332,1,8,0:0:0:0:
136,258,44517,1,2,0:0:0:0:
61,85,44702,6,0,P|59:138|86:194,1,92.5,2|0,0:0|0:0,0:0:0:0:
349,108,45072,2,0,P|303:80|241:74,1,92.5,8|4,0:0|0:3,0:0:0:0:
366,209,45443,2,0,P|412:183|448:132,1,92.5,2|0,0:0|0:0,0:0:0:0:
145,70,45813,2,0,P|143:123|170:179,1,92.5,8|4,0:0|0:3,0:0:0:0:
309,366,46184,6,0,L|318:250,1,92.5,2|0,0:0|0:0,0:0:0:0:
58,44,46554,2,0,L|67:160,1,92.5,8|4,0:0|0:3,0:0:0:0:
331,370,46924,1,4,0:3:0:0:
335,324,47016,1,4,0:3:0:0:
338,278,47109,1,4,0:3:0:0:
342,231,47201,1,0,0:0:0:0:
345,185,47295,2,0,L|355:65,1,92.5,8|4,0:0|0:3,0:0:0:0:
181,352,47665,6,0,L|170:214,1,138.750005292893,6|0,0:0|0:0,0:0:0:0:
211,77,48406,2,0,L|200:215,1,138.750005292893,2|0,0:0|0:0,0:0:0:0:
181,352,49147,6,0,L|175:273,1,69.3750026464463,2|0,0:0|0:0,0:0:0:0:
292,122,49517,1,8,0:3:0:0:
340,100,49609,1,8,0:3:0:0:
392,104,49702,1,8,0:3:0:0:
432,138,49794,1,8,0:3:0:0:
450,186,49887,1,8,0:3:0:0:
439,237,49979,1,8,0:3:0:0:
403,274,50072,1,8,0:3:0:0:
354,287,50165,1,8,0:3:0:0:
304,272,50258,2,0,P|287:251|273:228,3,34.6875013232232,4|4|4|4,0:3|0:3|0:3|0:3,0:0:0:0:
355,192,50628,5,4,0:0:0:0:
307,347,50813,1,0,0:0:0:0:
311,92,50998,1,10,0:0:0:0:
354,280,51184,1,2,0:0:0:0:
177,231,51369,1,2,0:0:0:0:
355,192,51555,1,2,0:0:0:0:
99,336,51739,1,10,0:0:0:0:
278,365,51925,1,2,0:0:0:0:
187,125,52109,6,0,L|174:253,1,106.375002028942,6|0,0:0|0:0,0:0:0:0:
340,53,52480,1,10,0:0:0:0:
355,192,52665,1,2,0:0:0:0:
236,51,52850,2,0,P|283:41|351:58,1,106.375002028942,2|4,0:0|0:3,0:0:0:0:
111,194,53221,1,10,0:0:0:0:
82,14,53406,6,0,L|99:128,1,106.375002028942,6|0,0:0|0:0,0:0:0:0:
128,276,53776,1,2,0:0:0:0:
269,105,53961,1,8,0:0:0:0:
260,225,54147,1,2,0:0:0:0:
97,119,54332,2,0,P|132:92|194:81,1,106.375002028942,2|2,0:0|0:0,0:0:0:0:
377,178,54702,1,10,0:0:0:0:
388,72,54887,6,0,L|376:191,1,106.375002028942,2|4,0:0|0:3,0:0:0:0:
367,283,55258,1,2,0:0:0:0:
310,28,55443,1,8,0:0:0:0:
466,72,55628,1,2,0:0:0:0:
208,59,55813,2,0,P|260:38|319:26,1,106.375002028942,2|4,0:0|0:3,0:0:0:0:
190,332,56184,1,8,0:0:0:0:
143,148,56369,1,8,0:3:0:0:
143,148,56461,1,8,0:3:0:0:
143,148,56554,6,0,L|132:269,1,106.375002028942,4|2,0:2|0:0,0:0:0:0:
309,27,56924,1,10,0:0:0:0:
178,47,57109,1,2,0:0:0:0:
365,176,57295,1,2,0:0:0:0:
234,156,57480,1,2,0:0:0:0:
490,78,57665,1,10,0:0:0:0:
467,248,57850,1,2,0:0:0:0:
312,108,58035,6,0,P|357:95|420:108,1,106.375002028942,6|0,0:0|0:0,0:0:0:0:
172,244,58406,1,8,0:0:0:0:
212,78,58591,1,2,0:0:0:0:
276,235,58776,2,0,P|221:249|165:242,1,106.375002028942,2|4,0:0|0:3,0:0:0:0:
414,105,59147,1,8,0:0:0:0:
373,353,59332,6,0,L|356:239,1,106.375002028942,6|0,0:0|0:0,0:0:0:0:
335,110,59702,1,4,0:3:0:0:
269,326,59887,1,8,0:0:0:0:
226,158,60073,1,2,0:0:0:0:
460,232,60258,2,0,L|354:247,1,106.375002028942,2|2,0:0|0:0,0:0:0:0:
72,285,60628,1,8,0:0:0:0:
150,183,60813,2,0,P|181:226|199:276,1,106.375002028942,2|0,0:0|0:0,0:0:0:0:
16,73,61184,5,14,0:0:0:0:
201,95,61369,1,2,0:0:0:0:
98,123,61554,1,2,0:0:0:0:
399,0,61739,5,14,0:0:0:0:
362,223,61924,1,2,0:0:0:0:
201,95,62109,1,8,0:3:0:0:
247,89,62201,1,8,0:3:0:0:
293,84,62294,1,8,0:3:0:0:
339,79,62386,1,8,0:3:0:0:
385,73,62480,6,0,L|499:60,1,106.375002028942,6|4,0:0|0:3,0:0:0:0:
209,324,62850,2,0,L|103:311,1,106.375002028942,8|0,0:0|0:0,0:0:0:0:
280,234,63221,2,0,P|311:269|325:342,1,106.375002028942,2|0,0:0|0:0,0:0:0:0:
28,167,63591,2,0,P|40:115|74:75,1,106.375002028942,8|4,0:0|0:3,0:0:0:0:
263,154,63961,6,0,L|140:166,1,106.375002028942,2|0,0:0|0:0,0:0:0:0:
425,84,64332,2,0,P|444:142|430:210,1,106.375002028942,8|4,0:0|0:3,0:0:0:0:
357,145,64702,1,2,0:0:0:0:
490,26,64887,1,0,0:0:0:0:
454,288,65072,2,0,P|434:229|448:161,1,106.375002028942,8|4,0:0|0:3,0:0:0:0:
490,26,65443,6,0,P|508:75|504:128,1,106.375002028942,2|0,0:0|0:0,0:0:0:0:
194,54,65813,2,0,L|299:43,1,106.375002028942,8|4,0:0|0:3,0:0:0:0:
438,185,66184,2,0,L|333:174,1,106.375002028942,2|0,0:0|0:0,0:0:0:0:
88,65,66554,2,0,L|193:54,1,106.375002028942,8|4,0:0|0:3,0:0:0:0:
362,75,66924,6,0,P|357:127|331:173,1,106.375002028942,2|0,0:0|0:0,0:0:0:0:
0,237,67295,2,0,P|47:214|100:213,1,106.375002028942,8|4,0:0|0:3,0:0:0:0:
218,370,67665,2,0,P|174:339|147:294,1,106.375002028942,2|4,0:0|0:3,0:0:0:0:
414,268,68035,1,8,0:3:0:0:
400,268,68127,1,8,0:3:0:0:
387,269,68220,1,4,0:3:0:0:
374,270,68312,1,4,0:3:0:0:
360,271,68406,5,6,0:0:0:0:
259,282,68591,1,4,0:3:0:0:
391,67,68776,2,0,P|394:123|375:197,1,106.375002028942,10|4,0:0|0:3,0:0:0:0:
197,106,69147,1,2,0:0:0:0:
298,113,69332,1,2,0:0:0:0:
58,213,69517,1,10,0:0:0:0:
159,206,69702,1,2,0:0:0:0:
48,36,69887,6,0,P|17:89|29:169,1,106.375002028942,6|0,0:0|0:0,0:0:0:0:
294,356,70258,1,10,0:0:0:0:
261,248,70443,1,2,0:0:0:0:
74,304,70628,1,2,0:0:0:0:
184,330,70813,1,2,0:0:0:0:
15,132,70998,1,8,0:0:0:0:
74,304,71184,6,0,P|89:258|98:181,1,106.375002028942,2|4,0:0|0:3,0:0:0:0:
83,62,71554,1,2,0:0:0:0:
261,248,71739,1,12,0:0:0:0:
249,64,71924,2,0,P|232:114|225:167,1,106.375002028942,2|0,0:0|0:0,0:0:0:0:
261,330,72295,1,2,0:0:0:0:
387,133,72480,1,8,0:0:0:0:
225,167,72665,1,6,0:0:0:0:
394,232,72850,5,0,0:0:0:0:
292,105,73035,1,2,0:0:0:0:
500,318,73221,1,10,0:0:0:0:
448,164,73406,1,2,0:0:0:0:
158,332,73591,2,0,P|210:342|264:327,1,106.375002028942,10|4,0:0|0:3,0:0:0:0:
208,68,73961,1,8,0:3:0:0:
206,94,74053,1,8,0:3:0:0:
204,121,74146,1,8,0:3:0:0:
202,147,74238,1,8,0:3:0:0:
200,174,74332,6,0,L|195:250,1,55.4999983062745,4|0,0:0|0:0,0:0:0:0:
276,146,74702,2,0,L|281:222,1,55.4999983062745,4|0,0:3|0:0,0:0:0:0:
355,113,75072,2,0,L|350:189,1,55.4999983062745,4|0,0:3|0:0,0:0:0:0:
431,85,75442,2,0,L|436:161,1,55.4999983062745,4|0,0:3|0:0,0:0:0:0:
490,255,75813,6,0,L|494:179,1,69.3750026464463,4|0,0:3|0:0,0:0:0:0:
355,113,76184,2,0,L|359:182,1,69.3750026464463,4|0,0:3|0:0,0:0:0:0:
470,15,76554,6,0,P|414:12|357:37,1,83.2499974594117,4|0,0:3|0:0,0:0:0:0:
265,114,76924,2,0,P|321:117|378:92,1,83.2499974594117,4|0,0:3|0:0,0:0:0:0:
103,30,77295,6,0,L|92:158,1,92.5,6|4,0:0|0:3,0:0:0:0:
372,275,77665,2,0,L|361:147,1,92.5,10|4,0:0|0:3,0:0:0:0:
8,194,78035,2,0,P|48:225|115:233,1,92.5,2|4,0:0|0:3,0:0:0:0:
357,85,78406,2,0,P|312:96|276:125,1,92.5,10|4,0:0|0:3,0:0:0:0:
203,360,78776,5,4,0:3:0:0:
366,190,78961,1,4,0:3:0:0:
366,190,79054,1,8,0:0:0:0:
366,190,79147,1,8,0:0:0:0:
260,244,79332,1,0,0:0:0:0:
386,279,79517,1,0,0:0:0:0:
179,40,79702,5,12,0:0:0:0:
120,328,79887,1,12,0:0:0:0:
179,40,80072,1,12,0:0:0:0:
254,235,80258,6,0,L|241:143,1,69.3750026464463,2|4,0:0|0:3,0:0:0:0:
62,319,80628,2,0,P|88:332|146:332,1,69.3750026464463,10|4,0:0|0:3,0:0:0:0:
213,299,80998,1,0,0:0:0:0:
124,226,81184,1,0,0:0:0:0:
253,371,81369,2,0,P|282:339|299:283,1,69.3750026464463,8|0,0:0|0:0,0:0:0:0:
243,185,81739,6,0,P|255:226|295:269,1,69.3750026464463,0|0,0:0|0:0,0:0:0:0:
430,172,82109,1,8,0:0:0:0:
338,179,82295,1,0,0:0:0:0:
402,317,82480,2,0,P|420:287|429:254,1,69.3750026464463,2|0,0:0|0:0,0:0:0:0:
270,122,82850,2,0,P|251:151|242:184,1,69.3750026464463,10|0,0:0|0:0,0:0:0:0:
315,312,83221,6,0,P|311:277|300:245,1,69.3750026464463,2|0,0:0|0:0,0:0:0:0:
104,179,83591,1,10,0:0:0:0:
165,304,83776,2,0,P|181:273|191:240,1,69.3750026464463,2|0,0:0|0:0,0:0:0:0:
176,100,84147,1,2,0:0:0:0:
71,248,84332,1,8,0:0:0:0:
71,248,84517,1,2,0:0:0:0:
93,110,84702,6,0,L|106:193,1,69.3750026464463,4|2,0:3|0:0,0:0:0:0:
166,371,85072,2,0,L|179:288,1,69.3750026464463,10|2,0:0|0:0,0:0:0:0:
207,137,85443,1,2,0:0:0:0:
97,262,85628,1,2,0:0:0:0:
337,185,85813,2,0,P|303:179|269:183,1,69.3750026464463,10|0,0:0|0:0,0:0:0:0:
160,363,86184,6,0,L|171:277,1,69.3750026464463,6|0,0:0|0:0,0:0:0:0:
204,72,86554,2,0,L|215:158,1,69.3750026464463,10|4,0:0|0:3,0:0:0:0:
223,240,86924,1,0,0:0:0:0:
135,121,87109,1,4,0:3:0:0:
343,176,87295,2,0,L|257:187,1,69.3750026464463,8|0,0:0|0:0,0:0:0:0:
66,112,87665,6,0,L|134:120,1,69.3750026464463,4|0,0:3|0:0,0:0:0:0:
42,332,88035,1,8,0:0:0:0:
27,245,88221,1,4,0:3:0:0:
175,274,88406,2,0,P|144:283|91:279,1,69.3750026464463,2|4,0:0|0:3,0:0:0:0:
261,58,88776,2,0,L|257:137,1,69.3750026464463,10|0,0:0|0:0,0:0:0:0:
118,209,89147,6,0,L|114:130,1,69.3750026464463,2|0,0:0|0:0,0:0:0:0:
368,198,89517,1,10,0:0:0:0:
229,205,89702,2,0,L|387:197,1,138.750005292893,2|4,0:0|0:3,0:0:0:0:
174,351,90258,2,0,P|162:318|177:267,1,69.3750026464463,10|2,0:0|0:0,0:0:0:0:
443,306,90628,5,12,0:0:0:0:
450,313,91184,1,8,0:0:0:0:
450,313,91276,1,8,0:0:0:0:
450,313,91369,1,4,0:3:0:0:
428,384,91554,1,4,0:3:0:0:
420,135,91739,2,0,L|426:179,1,34.6875013232232,6|0,0:0|0:0,0:0:0:0:
493,241,91924,2,0,L|499:197,1,34.6875013232232,0|0,0:0|0:0,0:0:0:0:
267,216,92109,6,0,L|384:203,1,92.5,6|0,0:0|0:0,0:0:0:0:
136,177,92480,1,8,0:0:0:0:
136,177,93221,1,8,0:0:0:0:
176,354,93406,6,0,L|184:246,1,92.5,2|0,0:0|0:0,0:0:0:0:
200,108,93776,1,2,0:0:0:0:
104,303,93961,1,8,0:0:0:0:
196,241,94147,2,0,P|152:200|102:195,1,92.5,2|0,0:0|0:0,0:0:0:0:
0,267,94517,1,2,0:0:0:0:
174,377,94702,1,8,0:0:0:0:
175,365,94794,1,0,0:0:0:0:
176,354,94887,1,2,0:0:0:0:
177,342,94979,1,0,0:0:0:0:
178,331,95072,6,0,L|186:223,1,92.5,4|0,0:0|0:0,0:0:0:0:
203,20,95443,1,12,0:0:0:0:
203,20,96184,1,8,0:0:0:0:
398,51,96369,6,0,L|302:59,1,92.5,2|0,0:0|0:0,0:0:0:0:
456,162,96739,1,2,0:0:0:0:
235,136,96924,1,8,0:0:0:0:
392,123,97109,1,2,0:0:0:0:
245,226,97295,2,0,P|234:189|240:114,1,92.5,0|4,0:0|0:0,0:0:0:0:
361,342,97665,1,8,0:0:0:0:
133,321,97850,1,8,0:3:0:0:
133,321,97943,1,4,0:3:0:0:
133,321,98035,6,0,P|181:306|232:298,1,92.5,6|0,0:0|0:0,0:0:0:0:
493,345,98406,1,14,0:0:0:0:
493,345,99147,1,8,0:0:0:0:
441,172,99332,6,0,L|427:297,1,92.5,2|0,0:0|0:0,0:0:0:0:
333,118,99702,1,2,0:0:0:0:
362,333,99887,1,8,0:0:0:0:
430,263,100072,2,0,P|382:243|305:249,1,92.5,2|0,0:0|0:0,0:0:0:0:
233,279,100443,1,2,0:0:0:0:
479,340,100628,2,0,P|457:292|397:244,1,92.5,8|0,0:0|0:0,0:0:0:0:
206,352,100998,5,4,0:0:0:0:
307,308,101184,1,0,0:0:0:0:
206,192,101369,2,0,P|212:237|236:283,1,92.5,4|0,0:3|0:0,0:0:0:0:
392,182,101739,5,6,0:3:0:0:
303,208,101924,1,4,0:3:0:0:
475,264,102109,2,0,L|491:97,1,138.75,4|0,0:3|0:0,0:0:0:0:
454,53,102480,5,4,0:0:0:0:
461,60,103406,5,8,0:3:0:0:
461,60,103498,1,4,0:3:0:0:
461,60,103591,1,8,0:3:0:0:
479,135,103776,1,0,0:0:0:0:
233,123,103961,5,4,0:0:0:0:
393,103,104146,1,0,0:0:0:0:
185,201,104331,1,10,0:0:0:0:
313,86,104517,1,2,0:0:0:0:
266,284,104702,1,2,0:0:0:0:
233,123,104888,1,2,0:0:0:0:
362,360,105072,1,10,0:0:0:0:
395,199,105258,1,2,0:0:0:0:
160,292,105442,6,0,P|219:293|277:280,1,106.375002028942,6|0,0:0|0:0,0:0:0:0:
419,105,105813,1,10,0:0:0:0:
449,266,105998,1,2,0:0:0:0:
289,207,106184,2,0,P|341:197|394:198,1,106.375002028942,2|4,0:0|0:3,0:0:0:0:
160,292,106554,1,10,0:0:0:0:
134,113,106739,6,0,L|151:227,1,106.375002028942,6|0,0:0|0:0,0:0:0:0:
170,365,107109,1,2,0:0:0:0:
68,187,107294,1,8,0:0:0:0:
222,245,107480,1,2,0:0:0:0:
52,292,107664,6,0,L|69:178,1,106.375002028942,2|2,0:0|0:0,0:0:0:0:
311,338,108035,1,10,0:0:0:0:
285,144,108221,6,0,L|302:258,1,106.375002028942,2|4,0:0|0:3,0:0:0:0:
144,216,108591,1,2,0:0:0:0:
380,183,108776,1,8,0:0:0:0:
300,249,108961,1,2,0:0:0:0:
212,81,109146,2,0,P|257:52|323:48,1,106.375002028942,2|4,0:0|0:3,0:0:0:0:
126,290,109517,1,8,0:0:0:0:
79,106,109702,1,8,0:3:0:0:
79,106,109794,1,8,0:3:0:0:
79,106,109887,6,0,L|68:227,1,106.375002028942,4|2,0:2|0:0,0:0:0:0:
302,122,110257,1,10,0:0:0:0:
179,142,110442,1,2,0:0:0:0:
371,240,110628,1,2,0:0:0:0:
248,220,110813,1,2,0:0:0:0:
512,119,110998,1,10,0:0:0:0:
494,260,111183,1,2,0:0:0:0:
347,40,111368,6,0,L|362:152,1,106.375002028942,6|0,0:0|0:0,0:0:0:0:
486,350,111739,1,8,0:0:0:0:
494,260,111924,1,2,0:0:0:0:
287,373,112109,2,0,L|399:358,1,106.375002028942,2|4,0:0|0:3,0:0:0:0:
114,294,112480,1,8,0:0:0:0:
198,374,112665,6,0,P|223:324|228:263,1,106.375002028942,6|0,0:0|0:0,0:0:0:0:
200,146,113035,1,4,0:3:0:0:
337,360,113220,1,8,0:0:0:0:
370,189,113406,1,2,0:0:0:0:
229,275,113591,2,0,P|283:282|339:270,1,106.375002028942,2|2,0:0|0:0,0:0:0:0:
125,165,113961,1,8,0:0:0:0:
101,350,114146,2,0,L|116:218,1,106.375002028942,2|0,0:0|0:0,0:0:0:0:
149,12,114517,5,14,0:0:0:0:
125,165,114702,1,2,0:0:0:0:
81,57,114887,1,2,0:0:0:0:
335,121,115072,5,14,0:0:0:0:
132,173,115258,1,2,0:0:0:0:
132,173,115350,1,0,0:0:0:0:
132,173,115443,2,0,P|137:138|154:106,1,53.1875010144711,8|8,0:3|0:3,0:0:0:0:
272,71,115628,2,0,P|239:84|202:85,1,53.1875010144711,8|8,0:3|0:3,0:0:0:0:
82,41,115813,5,6,0:0:0:0:
82,41,115998,1,4,0:3:0:0:
201,301,116183,2,0,L|221:167,1,106.375002028942,14|0,0:0|0:0,0:0:0:0:
412,134,116554,2,0,P|351:176|287:185,1,106.375002028942,2|0,0:0|0:0,0:0:0:0:
48,77,116924,2,0,L|170:89,1,106.375002028942,8|4,0:0|0:3,0:0:0:0:
322,185,117295,6,0,L|200:197,1,106.375002028942,2|0,0:0|0:0,0:0:0:0:
473,111,117665,2,0,P|492:169|478:237,1,106.375002028942,8|4,0:0|0:3,0:0:0:0:
314,262,118035,1,2,0:0:0:0:
401,174,118220,1,0,0:0:0:0:
328,364,118406,2,0,P|309:306|323:238,1,106.375002028942,8|4,0:0|0:3,0:0:0:0:
386,71,118776,6,0,P|405:129|391:197,1,106.375002028942,2|0,0:0|0:0,0:0:0:0:
119,142,119146,2,0,L|224:131,1,106.375002028942,8|4,0:0|0:3,0:0:0:0:
422,258,119517,2,0,L|317:247,1,106.375002028942,2|0,0:0|0:0,0:0:0:0:
477,14,119887,2,0,L|488:119,1,106.375002028942,8|4,0:0|0:3,0:0:0:0:
512,342,120258,5,2,0:0:0:0:
275,270,120443,1,8,0:3:0:0:
307,248,120535,1,8,0:3:0:0:
345,237,120628,1,8,0:3:0:0:
385,236,120721,2,0,P|412:241|451:254,1,53.1875010144711,8|8,0:3|0:3,0:0:0:0:
203,348,120998,5,8,0:3:0:0:
179,311,121090,1,4,0:3:0:0:
171,269,121183,1,8,0:3:0:0:
179,227,121275,1,4,0:3:0:0:
202,190,121369,1,8,0:3:0:0:
210,164,121461,1,4,0:3:0:0:
215,138,121554,1,4,0:3:0:0:
214,112,121646,1,4,0:3:0:0:
209,86,121739,5,6,0:0:0:0:
98,234,121924,1,4,0:3:0:0:
315,94,122109,2,0,L|209:86,1,106.375002028942,14|0,0:0|0:0,0:0:0:0:
438,194,122480,1,2,0:0:0:0:
417,80,122665,1,2,0:0:0:0:
254,274,122850,1,10,0:0:0:0:
275,160,123035,1,2,0:0:0:0:
421,372,123221,6,0,P|418:311|398:242,1,106.375002028942,6|0,0:0|0:0,0:0:0:0:
145,199,123591,1,10,0:0:0:0:
254,274,123776,1,2,0:0:0:0:
309,83,123961,1,2,0:0:0:0:
222,205,124146,1,2,0:0:0:0:
418,111,124331,1,8,0:0:0:0:
433,293,124517,6,0,P|415:243|409:190,1,106.375002028942,2|4,0:0|0:3,0:0:0:0:
456,40,124887,1,2,0:0:0:0:
510,240,125072,1,12,0:0:0:0:
315,134,125258,2,0,P|364:116|417:110,1,106.375002028942,2|0,0:0|0:0,0:0:0:0:
326,258,125628,1,2,0:0:0:0:
220,54,125813,1,8,0:0:0:0:
198,176,125998,1,6,0:0:0:0:
315,134,126183,5,0,0:0:0:0:
88,94,126369,1,10,0:0:0:0:
219,285,126554,1,10,0:0:0:0:
246,122,126739,1,2,0:0:0:0:
129,368,126924,5,10,0:0:0:0:
92,185,127109,1,4,0:3:0:0:
219,285,127295,2,0,L|112:278,1,106.375002028942,8|8,0:3|0:3,0:0:0:0:
380,233,127665,5,4,0:0:0:0:
256,192,127758,12,0,132109,0:0:0:0:
