osu file format v14

[General]
AudioFilename: audio.mp3
AudioLeadIn: 0
PreviewTime: 104048
Countdown: 0
SampleSet: Soft
StackLeniency: 0.7
Mode: 0
LetterboxInBreaks: 0
WidescreenStoryboard: 0

[Editor]
DistanceSpacing: 0.8
BeatDivisor: 6
GridSize: 4
TimelineZoom: 1

[Metadata]
Title:Circles
TitleUnicode:Circles
Artist:Pierce The Veil
ArtistUnicode:Pierce The Veil
Creator:Loughje
Version:Extra
Source:
Tags:
BeatmapID:975112
BeatmapSetID:450303

[Difficulty]
HPDrainRate:6.1
CircleSize:5
OverallDifficulty:8.8
ApproachRate:9.3
SliderMultiplier:1.9
SliderTickRate:1

[Events]
//Background and Video events
0,0,"circles.jpg",0,0
//Break Periods
2,80544,90161
2,175359,179790
//Storyboard Layer 0 (Background)
//Storyboard Layer 1 (Fail)
//Storyboard Layer 2 (Pass)
//Storyboard Layer 3 (Foreground)
//Storyboard Sound Samples

[TimingPoints]
345,370.37037037037,4,2,1,70,1,0
11733,-100,4,3,1,90,0,0
12104,-100,4,2,1,60,0,0
24048,-125,4,2,1,50,0,0
35900,-111.111111111111,4,2,1,50,0,0
47752,-111.111111111111,4,2,1,10,0,0
48122,-111.111111111111,4,2,1,15,0,0
48493,-111.111111111111,4,2,1,20,0,0
48863,-111.111111111111,4,2,1,25,0,0
49233,-111.111111111111,4,2,1,30,0,0
49604,-111.111111111111,4,2,1,35,0,0
49974,-111.111111111111,4,2,1,45,0,0
50715,-86.9565217391304,4,2,1,60,0,1
62474,-86.9565217391304,4,2,1,60,0,0
62567,-86.9565217391304,4,2,1,60,0,1
74419,-100,4,2,1,60,0,0
77104,-100,4,2,1,5,0,0
77289,-100,4,2,1,60,0,0
101085,-100,4,2,1,25,0,0
101826,-100,4,2,1,50,0,0
102567,-200,4,2,1,60,0,0
104048,-86.9565217391304,4,2,1,60,0,1
115807,-86.9565217391304,4,2,1,60,0,0
115900,-86.9565217391304,4,2,1,60,0,1
127752,-133.333333333333,4,2,1,50,0,0
163307,-133.333333333333,4,2,1,60,0,0
169326,-111.111111111111,4,2,1,10,0,0
170715,-111.111111111111,4,2,1,15,0,0
171085,-111.111111111111,4,2,1,20,0,0
171456,-111.111111111111,4,2,1,25,0,0
171826,-111.111111111111,4,2,1,30,0,0
172196,-111.111111111111,4,2,1,35,0,0
172567,-111.111111111111,4,2,1,40,0,0
172937,-111.111111111111,4,2,1,45,0,0
173307,-111.111111111111,4,2,1,50,0,0
173678,-100,4,2,1,60,0,0
180344,-100,4,2,1,60,0,0
181085,-86.9565217391304,4,2,1,60,0,1
186919,-86.9565217391304,4,2,1,60,0,0
187011,-86.9565217391304,4,2,1,60,0,1
192844,-83.3333333333333,4,2,1,60,0,0
192937,-83.3333333333333,4,2,1,60,0,1
198863,-100,4,2,1,60,0,1
207659,-100,4,2,1,60,0,0
207752,-100,4,2,1,60,0,1
208215,-100,4,2,1,60,0,0
208307,-100,4,2,1,60,0,1
208770,-100,4,2,1,60,0,0
208863,-100,4,2,1,60,0,1
208956,-100,4,2,1,60,0,0

[HitObjects]
164,120,11826,5,4,3:0:0:0:
164,120,12196,2,0,P|148:176|160:216,1,95,4|0,0:0|0:0,0:0:0:0:
248,320,12567,1,8,0:0:0:0:
236,184,12752,1,0,0:0:0:0:
136,320,12937,1,0,0:0:0:0:
304,260,13122,1,0,0:0:0:0:
116,232,13307,6,0,P|64:208|36:176,1,95,8|0,0:0|0:0,0:0:0:0:
20,60,13678,1,0,0:0:0:0:
96,40,13863,1,0,0:0:0:0:
172,52,14048,1,8,0:0:0:0:
108,176,14233,1,0,0:0:0:0:
56,24,14419,1,0,0:0:0:0:
144,16,14604,1,0,0:0:0:0:
224,56,14789,1,8,0:0:0:0:
80,184,14974,1,0,0:0:0:0:
80,48,15159,6,0,P|128:80|160:120,1,95
220,300,15530,2,0,P|172:268|140:228,1,95,8|0,0:0|0:0,0:0:0:0:
68,124,15900,1,0,0:0:0:0:
240,112,16085,1,0,0:0:0:0:
16,72,16270,1,8,0:0:0:0:
204,204,16456,1,0,0:0:0:0:
160,40,16641,5,0,0:0:0:0:
276,212,16826,1,0,0:0:0:0:
76,256,17011,1,8,0:0:0:0:
208,104,17196,1,0,0:0:0:0:
8,152,17382,1,0,0:0:0:0:
180,232,17567,1,0,0:0:0:0:
104,96,17752,1,8,0:0:0:0:
108,84,17844,1,8,0:0:0:0:
140,64,17937,1,8,0:0:0:0:
172,84,18030,1,8,0:0:0:0:
168,128,18122,6,0,B|164:180|164:180|192:228,1,95,4|0,0:0|0:0,0:0:0:0:
324,272,18493,1,0,0:0:0:0:
112,240,18678,1,0,0:0:0:0:
272,140,18863,1,0,0:0:0:0:
200,344,19048,1,0,0:0:0:0:
360,168,19233,2,0,B|392:128|392:128|400:80,1,95,8|0,0:0|0:0,0:0:0:0:
268,36,19604,1,0,0:0:0:0:
232,172,19789,1,0,0:0:0:0:
420,132,19974,6,0,B|380:100|380:100|332:92,1,95,8|0,0:0|0:0,0:0:0:0:
232,172,20344,1,0,0:0:0:0:
352,220,20530,1,0,0:0:0:0:
224,84,20715,1,8,0:0:0:0:
284,256,20900,1,0,0:0:0:0:
292,44,21085,1,0,0:0:0:0:
200,220,21270,1,0,0:0:0:0:
384,128,21456,2,0,P|412:212|408:232,1,95,8|0,0:0|0:0,0:0:0:0:
332,348,21826,5,0,0:0:0:0:
472,308,22011,1,0,0:0:0:0:
312,216,22196,1,8,0:0:0:0:
432,364,22382,1,0,0:0:0:0:
488,212,22567,2,0,B|496:160|496:160|464:132,1,95
300,48,22937,1,8,0:0:0:0:
368,184,23122,1,0,0:0:0:0:
456,60,23307,5,0,0:0:0:0:
456,60,23400,1,0,0:0:0:0:
456,60,23493,1,8,0:0:0:0:
468,80,23585,1,8,0:0:0:0:
472,104,23678,1,8,0:0:0:0:
460,144,23770,1,8,0:0:0:0:
472,184,23863,1,0,0:0:0:0:
452,232,23956,1,0,0:0:0:0:
412,228,24048,6,0,P|368:216|328:192,1,76,4|0,0:0|0:0,0:0:0:0:
272,156,24419,1,8,0:0:0:0:
228,88,24604,1,0,0:0:0:0:
336,132,24789,1,0,0:0:0:0:
188,152,24974,1,0,0:0:0:0:
292,64,25159,2,0,B|336:28|336:28|336:52,1,76,8|0,0:0|0:0,0:0:0:0:
296,188,25530,6,0,P|280:240|288:272,1,76
380,172,25900,2,0,P|380:216|396:248,1,76,8|0,0:0|0:0,0:0:0:0:
464,308,26270,1,0,0:0:0:0:
464,308,26456,1,0,0:0:0:0:
376,348,26641,2,0,P|338:350|303:335,1,76,8|0,0:0|0:0,0:0:0:0:
216,208,27011,2,0,P|253:205|288:220,1,76
360,276,27382,1,8,0:0:0:0:
228,288,27567,1,0,0:0:0:0:
364,192,27752,6,0,B|384:180|408:176|408:176|376:140,1,76
300,64,28122,1,8,0:0:0:0:
412,68,28307,1,0,0:0:0:0:
272,136,28493,2,0,P|228:144|192:140,1,76
84,120,28863,1,8,0:0:0:0:
184,44,29048,1,0,0:0:0:0:
160,208,29233,1,0,0:0:0:0:
108,40,29419,1,0,0:0:0:0:
232,184,29604,1,8,0:0:0:0:
60,200,29789,5,0,0:0:0:0:
60,200,29882,1,0,0:0:0:0:
60,200,29974,2,0,L|64:288,1,76,4|0,0:0|0:0,0:0:0:0:
152,108,30344,1,8,0:0:0:0:
152,108,30530,1,0,0:0:0:0:
152,108,30715,2,0,L|152:184,1,76
248,32,31085,1,8,0:0:0:0:
248,32,31270,1,0,0:0:0:0:
248,32,31456,2,0,L|248:128,1,76
248,224,31826,5,8,0:0:0:0:
332,176,32011,1,0,0:0:0:0:
172,196,32196,2,0,B|120:220|128:276|128:276|156:288|156:328,2,152,0|8|0,0:0|0:0|0:0,0:0:0:0:
288,236,33122,1,0,0:0:0:0:
256,156,33306,1,8,0:0:0:0:
184,120,33493,1,0,0:0:0:0:
268,252,33678,1,0,0:0:0:0:
300,332,33863,1,0,0:0:0:0:
372,368,34048,1,8,0:0:0:0:
344,220,34233,5,0,0:0:0:0:
228,312,34419,2,0,P|184:312|136:288,1,76
344,220,34789,2,0,P|388:220|436:244,1,76,8|0,0:0|0:0,0:0:0:0:
492,312,35159,1,0,0:0:0:0:
392,348,35344,1,0,0:0:0:0:
488,224,35530,1,8,0:0:0:0:
344,224,35715,1,0,0:0:0:0:
344,224,35807,1,0,0:0:0:0:
344,224,35900,6,0,B|296:224|296:224|256:248,2,85.4999973907472,4|0|8,0:0|0:0|0:0,0:0:0:0:
436,248,36456,1,0,0:0:0:0:
272,144,36826,1,0,0:0:0:0:
216,200,37011,1,8,0:0:0:0:
344,192,37196,1,0,0:0:0:0:
188,132,37382,1,0,0:0:0:0:
288,244,37567,1,0,0:0:0:0:
272,144,37752,6,0,B|276:80|276:80|260:48,2,85.4999973907472,8|0|0,0:0|0:0|0:0,0:0:0:0:
264,264,38307,2,0,B|252:312|252:312|204:328,1,85.4999973907472,0|8,0:0|0:0,0:0:0:0:
156,240,38678,1,0,0:0:0:0:
240,380,38863,1,0,0:0:0:0:
96,272,39048,1,0,0:0:0:0:
224,208,39233,1,8,0:0:0:0:
144,356,39419,1,0,0:0:0:0:
144,356,39789,5,0,0:0:0:0:
200,296,39974,1,8,0:0:0:0:
124,224,40159,1,0,0:0:0:0:
216,148,40344,1,0,0:0:0:0:
56,212,40530,1,0,0:0:0:0:
208,268,40715,2,0,L|292:292,1,85.4999973907472,8|0,0:0|0:0,0:0:0:0:
404,316,41270,5,0,0:0:0:0:
428,188,41456,1,8,0:0:0:0:
328,88,41641,2,0,L|272:88,1,42.7499986953736
328,88,41826,2,0,P|336:144|296:184,2,85.4999973907472,0|0|8,0:0|0:0|0:0,0:0:0:0:
212,164,42382,1,0,0:0:0:0:
332,256,42752,5,0,0:0:0:0:
240,256,42937,1,8,0:0:0:0:
380,200,43122,1,0,0:0:0:0:
272,320,43307,2,0,P|208:320|188:304,1,85.4999973907472
128,208,43678,1,8,0:0:0:0:
148,356,43863,1,0,0:0:0:0:
216,176,44233,5,0,0:0:0:0:
144,272,44419,1,8,0:0:0:0:
192,100,44604,1,0,0:0:0:0:
360,152,44789,1,0,0:0:0:0:
148,168,44974,1,0,0:0:0:0:
296,68,45159,1,8,0:0:0:0:
296,240,45344,1,0,0:0:0:0:
200,112,45530,6,0,P|152:84|48:120,2,170.999994781494,0|8|0,0:0|0:0|0:0,0:0:0:0:
312,272,46641,2,0,P|360:300|464:264,1,170.999994781494,8|0,0:0|0:0,0:0:0:0:
480,232,47104,1,0,0:0:0:0:
492,196,47196,1,0,0:0:0:0:
488,156,47289,1,0,0:0:0:0:
468,124,47382,1,4,0:0:0:0:
324,44,47752,5,8,0:0:0:0:
328,56,47844,1,8,0:0:0:0:
328,68,47937,1,8,0:0:0:0:
328,80,48030,1,8,0:0:0:0:
328,100,48122,1,8,0:0:0:0:
324,120,48215,1,8,0:0:0:0:
316,140,48307,1,8,0:0:0:0:
304,160,48400,1,8,0:0:0:0:
288,176,48493,5,8,0:0:0:0:
264,196,48585,1,8,0:0:0:0:
236,208,48678,1,8,0:0:0:0:
208,216,48770,1,8,0:0:0:0:
180,220,48863,1,8,0:0:0:0:
148,220,48956,1,8,0:0:0:0:
120,212,49048,1,8,0:0:0:0:
92,200,49141,1,8,0:0:0:0:
72,172,49233,5,8,0:0:0:0:
80,140,49326,1,8,0:0:0:0:
112,124,49419,1,8,0:0:0:0:
144,128,49511,1,8,0:0:0:0:
172,148,49604,1,8,0:0:0:0:
184,180,49696,1,8,0:0:0:0:
180,216,49789,1,8,0:0:0:0:
172,248,49882,1,8,0:0:0:0:
176,284,49974,5,8,0:0:0:0:
204,312,50067,1,8,0:0:0:0:
240,324,50159,1,8,0:0:0:0:
280,320,50252,1,8,0:0:0:0:
308,288,50344,1,0,0:0:0:0:
312,244,50437,1,0,0:0:0:0:
312,200,50530,1,0,0:0:0:0:
328,160,50622,1,0,0:0:0:0:
360,132,50715,6,0,B|440:100|440:100|368:76,1,109.250002083778,4|0,0:0|0:0,0:0:0:0:
248,64,51085,1,8,0:0:0:0:
384,208,51270,1,0,0:0:0:0:
340,32,51456,1,0,0:0:0:0:
220,160,51641,1,0,0:0:0:0:
400,96,51826,1,8,0:0:0:0:
288,232,52011,1,0,0:0:0:0:
248,72,52196,6,0,P|188:64|132:188,1,218.500004167557,0|8,0:0|0:0,0:0:0:0:
224,320,52752,1,0,0:0:0:0:
124,196,52937,1,0,0:0:0:0:
236,324,53122,1,0,0:0:0:0:
136,184,53307,2,0,B|188:144|188:144|240:116,1,109.250002083778,8|0,0:0|0:0,0:0:0:0:
416,64,53678,1,0,0:0:0:0:
212,120,53863,1,0,0:0:0:0:
432,64,54048,1,8,0:0:0:0:
224,136,54233,1,0,0:0:0:0:
408,152,54419,6,0,B|456:188|456:188|432:252,1,109.250002083778
352,352,54789,1,8,0:0:0:0:
240,244,54974,1,0,0:0:0:0:
368,360,55159,2,0,P|416:364|472:332,1,109.250002083778
340,219,55530,2,0,P|292:215|236:247,1,109.250002083778,8|0,0:0|0:0,0:0:0:0:
124,352,55900,1,0,0:0:0:0:
304,292,56085,1,0,0:0:0:0:
168,164,56270,1,8,0:0:0:0:
248,340,56456,1,8,0:0:0:0:
248,340,56548,1,8,0:0:0:0:
248,340,56641,6,0,P|304:364|364:336,1,109.250002083778,4|0,0:0|0:0,0:0:0:0:
448,216,57011,1,8,0:0:0:0:
308,296,57196,1,0,0:0:0:0:
336,152,57382,2,0,B|356:72|356:72|292:100,1,109.250002083778
196,204,57752,1,8,0:0:0:0:
380,228,57937,1,0,0:0:0:0:
216,116,58122,2,0,B|156:120|156:120|112:188|112:188|68:232|16:164,1,218.500004167557,0|8,0:0|0:0,0:0:0:0:
68,48,58678,5,0,0:0:0:0:
36,192,58863,1,0,0:0:0:0:
68,48,59048,1,0,0:0:0:0:
160,176,59233,2,0,B|198:231|198:231|180:276,1,109.250002083778,8|0,0:0|0:0,0:0:0:0:
36,192,59604,1,0,0:0:0:0:
184,276,59789,1,0,0:0:0:0:
36,192,59974,1,8,0:0:0:0:
184,276,60159,1,0,0:0:0:0:
160,152,60344,6,0,P|216:140|288:160,1,109.250002083778
412,208,60715,1,8,0:0:0:0:
272,228,60900,1,0,0:0:0:0:
352,112,61085,2,0,L|416:16,1,109.250002083778,0|8,0:0|0:0,0:0:0:0:
376,284,61456,1,0,0:0:0:0:
376,284,61641,1,0,0:0:0:0:
376,284,61826,2,0,L|248:248,1,109.250002083778,8|0,0:0|0:0,0:0:0:0:
132,208,62196,5,8,0:0:0:0:
96,180,62289,1,8,0:0:0:0:
96,136,62382,1,8,0:0:0:0:
132,112,62474,1,8,0:0:0:0:
176,124,62567,2,0,P|236:136|296:112,1,109.250002083778,4|0,0:0|0:0,0:0:0:0:
372,40,62937,1,8,0:0:0:0:
228,64,63122,1,0,0:0:0:0:
360,160,63307,2,0,B|432:196|432:196|376:216,1,109.250002083778
228,216,63678,5,8,0:0:0:0:
300,84,63863,1,0,0:0:0:0:
320,276,64048,1,0,0:0:0:0:
188,136,64233,1,0,0:0:0:0:
364,220,64419,2,0,P|392:264|376:320,1,109.250002083778,8|0,0:0|0:0,0:0:0:0:
236,244,64789,1,0,0:0:0:0:
336,116,64974,1,0,0:0:0:0:
172,120,65159,2,0,B|92:124|92:124|60:160,1,109.250002083778,8|0,0:0|0:0,0:0:0:0:
12,284,65530,5,0,0:0:0:0:
120,216,65715,1,0,0:0:0:0:
72,332,65900,1,8,0:0:0:0:
40,200,66085,1,0,0:0:0:0:
136,292,66270,2,0,B|184:296|184:296|248:272,1,109.250002083778
372,144,66641,2,0,B|324:140|324:140|260:164,1,109.250002083778,8|0,0:0|0:0,0:0:0:0:
168,208,67011,1,0,0:0:0:0:
324,240,67196,1,0,0:0:0:0:
208,100,67382,6,0,P|156:60|104:44,1,109.250002083778,8|0,0:0|0:0,0:0:0:0:
220,172,67752,1,0,0:0:0:0:
260,40,67937,1,0,0:0:0:0:
108,132,68122,1,8,0:0:0:0:
96,164,68215,1,8,0:0:0:0:
96,196,68307,1,8,0:0:0:0:
104,228,68400,1,8,0:0:0:0:
124,256,68493,2,0,B|180:312|180:312|116:304,1,109.250002083778,4|0,0:0|0:0,0:0:0:0:
40,296,68863,6,0,B|8:252|8:252|36:192,2,109.250002083778,8|0|0,0:0|0:0|0:0,0:0:0:0:
156,348,69419,1,0,0:0:0:0:
208,236,69604,2,0,B|208:192|196:164|196:164|248:160,1,109.250002083778,8|0,0:0|0:0,0:0:0:0:
360,164,69974,2,0,B|404:168|464:136|464:136|452:180|456:204|456:204|432:212|408:244,1,218.500004167557,0|8,0:0|0:0,0:0:0:0:
308,328,70530,1,0,0:0:0:0:
420,224,70715,1,0,0:0:0:0:
308,328,70900,1,0,0:0:0:0:
292,200,71085,6,0,B|284:120|284:120|264:148,1,109.250002083778,8|0,0:0|0:0,0:0:0:0:
172,256,71456,1,0,0:0:0:0:
264,140,71641,1,0,0:0:0:0:
172,256,71826,2,0,P|120:220|104:156,1,109.250002083778,8|0,0:0|0:0,0:0:0:0:
112,24,72196,1,0,0:0:0:0:
168,152,72382,1,0,0:0:0:0:
28,112,72567,1,8,0:0:0:0:
208,24,72752,1,0,0:0:0:0:
96,192,72937,6,0,P|80:248|88:308,1,109.250002083778
192,228,73307,2,0,P|208:172|200:112,1,109.250002083778,8|0,0:0|0:0,0:0:0:0:
104,28,73678,1,8,0:0:0:0:
140,180,73863,1,0,0:0:0:0:
232,48,74048,1,8,0:0:0:0:
288,72,74141,1,8,0:0:0:0:
312,128,74233,1,8,0:0:0:0:
304,188,74326,1,8,0:0:0:0:
252,224,74419,1,4,0:0:0:0:
256,192,74511,12,0,77196,0:0:0:0:
256,192,77382,6,0,L|160:160,1,95
384,156,77752,2,0,L|288:124,1,95,8|0,0:0|0:0,0:0:0:0:
160,76,78122,1,0,0:0:0:0:
156,224,78307,1,0,0:0:0:0:
232,52,78493,1,0,0:0:0:0:
88,112,78678,1,0,0:0:0:0:
232,228,78863,5,0,0:0:0:0:
140,60,79048,1,8,0:0:0:0:
140,60,79141,1,8,0:0:0:0:
140,60,79233,1,8,0:0:0:0:
116,208,79419,1,0,0:0:0:0:
240,124,79604,2,0,L|324:68,1,95,0|8,0:0|0:0,0:0:0:0:
319,71,79974,1,8,0:0:0:0:
319,71,80159,1,8,0:0:0:0:
319,71,80344,5,4,0:0:0:0:
256,192,90715,5,8,0:0:0:0:
320,48,91270,1,0,0:0:0:0:
320,48,91363,1,0,0:0:0:0:
320,48,91456,2,0,B|280:48|280:48|240:92,1,95
168,176,91826,1,0,0:0:0:0:
296,156,92011,1,0,0:0:0:0:
296,156,92104,1,0,0:0:0:0:
296,156,92196,1,0,0:0:0:0:
152,96,92382,5,0,0:0:0:0:
228,224,92567,1,8,0:0:0:0:
240,240,93307,1,8,0:0:0:0:
320,196,93493,1,0,0:0:0:0:
172,216,93863,1,0,0:0:0:0:
244,172,94048,1,8,0:0:0:0:
160,288,94233,1,0,0:0:0:0:
176,144,94419,2,0,B|188:64|188:64|168:72,1,95
72,140,94789,5,0,0:0:0:0:
60,160,94882,1,0,0:0:0:0:
56,184,94974,1,0,0:0:0:0:
60,208,95067,1,0,0:0:0:0:
72,228,95159,1,4,0:0:0:0:
148,184,95344,1,0,0:0:0:0:
84,292,95530,1,8,0:0:0:0:
84,292,96270,5,8,0:0:0:0:
164,228,96456,1,0,0:0:0:0:
148,332,96641,1,0,0:0:0:0:
84,220,96826,1,0,0:0:0:0:
208,288,97011,2,0,P|256:292|300:280,1,95,8|0,0:0|0:0,0:0:0:0:
400,200,97382,2,0,P|424:152|416:92,2,95,0|0|8,0:0|0:0|0:0,0:0:0:0:
304,280,97937,1,0,0:0:0:0:
304,280,98030,1,0,0:0:0:0:
304,280,98122,6,0,B|280:224|280:224|248:192,1,95
180,148,98493,1,8,0:0:0:0:
180,148,99233,1,8,0:0:0:0:
164,64,99419,1,0,0:0:0:0:
136,204,99789,1,0,0:0:0:0:
236,188,99974,2,0,P|272:164|280:112,2,95,8|0|0,0:0|0:0|0:0,0:0:0:0:
136,204,100530,1,0,0:0:0:0:
180,104,100715,1,0,0:0:0:0:
204,252,100900,1,0,0:0:0:0:
84,132,101085,5,8,0:0:0:0:
80,140,101178,1,8,0:0:0:0:
76,148,101270,1,8,0:0:0:0:
72,156,101363,1,8,0:0:0:0:
68,164,101456,1,8,0:0:0:0:
60,180,101548,1,8,0:0:0:0:
56,200,101641,1,8,0:0:0:0:
60,220,101733,1,8,0:0:0:0:
68,236,101826,5,8,0:0:0:0:
92,252,101919,1,8,0:0:0:0:
120,264,102011,1,8,0:0:0:0:
148,264,102104,1,8,0:0:0:0:
176,260,102196,1,8,0:0:0:0:
212,248,102289,1,8,0:0:0:0:
244,224,102382,1,8,0:0:0:0:
268,196,102474,1,8,0:0:0:0:
280,164,102567,6,0,P|304:100|404:184,1,237.5
408,188,103585,1,0,0:0:0:0:
404,208,103678,1,8,0:0:0:0:
336,324,103863,1,0,0:0:0:0:
404,212,104048,6,0,P|344:196|292:196,1,109.250002083778
144,200,104419,1,8,0:0:0:0:
248,312,104604,1,0,0:0:0:0:
216,108,104789,1,0,0:0:0:0:
132,296,104974,1,0,0:0:0:0:
300,136,105159,1,8,0:0:0:0:
112,136,105344,1,0,0:0:0:0:
280,256,105530,2,0,B|352:284|436:272|436:272|380:228,1,218.500004167557
248,112,106085,5,0,0:0:0:0:
388,236,106270,1,0,0:0:0:0:
248,112,106456,1,0,0:0:0:0:
392,56,106641,2,0,B|468:24|468:24|440:88,1,109.250002083778,8|0,0:0|0:0,0:0:0:0:
392,240,107011,1,0,0:0:0:0:
456,52,107196,1,0,0:0:0:0:
392,240,107382,1,0,0:0:0:0:
456,52,107567,1,0,0:0:0:0:
324,152,107752,6,0,B|272:188|272:188|216:200,1,109.250002083778
72,180,108122,2,0,B|124:144|124:144|180:132,1,109.250002083778,8|0,0:0|0:0,0:0:0:0:
276,116,108493,1,0,0:0:0:0:
164,204,108678,1,0,0:0:0:0:
216,68,108863,1,8,0:0:0:0:
328,176,109048,1,0,0:0:0:0:
168,134,109233,2,0,P|116:110|72:78,1,109.250002083778
73,79,109604,1,8,0:0:0:0:
76,208,109789,5,8,0:0:0:0:
76,208,109882,1,8,0:0:0:0:
76,208,109974,1,4,0:0:0:0:
152,56,110159,1,0,0:0:0:0:
144,220,110344,2,0,L|140:340,1,109.250002083778,8|0,0:0|0:0,0:0:0:0:
224,132,110715,2,0,L|220:252,1,109.250002083778
212,348,111085,1,8,0:0:0:0:
148,136,111270,1,0,0:0:0:0:
240,264,111456,6,0,B|312:272|320:216|344:176|276:136|276:136|332:104,1,218.500004167557,0|8,0:0|0:0,0:0:0:0:
468,104,112011,1,0,0:0:0:0:
408,256,112196,1,0,0:0:0:0:
292,124,112382,1,0,0:0:0:0:
468,104,112567,2,0,P|388:60|348:48,1,109.250002083778,8|0,0:0|0:0,0:0:0:0:
168,32,112937,1,0,0:0:0:0:
372,56,113122,1,0,0:0:0:0:
168,32,113307,1,8,0:0:0:0:
372,56,113493,1,0,0:0:0:0:
184,128,113678,6,0,P|192:192|204:240,1,109.250002083778
304,320,114048,2,0,P|296:256|284:208,1,109.250002083778,8|0,0:0|0:0,0:0:0:0:
256,128,114419,1,0,0:0:0:0:
120,236,114604,1,8,0:0:0:0:
324,156,114789,1,0,0:0:0:0:
144,92,114974,1,0,0:0:0:0:
220,256,115159,1,8,0:0:0:0:
260,68,115344,5,8,0:0:0:0:
288,60,115437,1,8,0:0:0:0:
316,64,115530,1,0,0:0:0:0:
344,72,115622,1,0,0:0:0:0:
364,92,115715,1,0,0:0:0:0:
372,120,115807,1,0,0:0:0:0:
348,136,115900,6,0,B|268:164|268:164|304:176,1,109.250002083778,4|0,0:0|0:0,0:0:0:0:
416,204,116270,1,8,0:0:0:0:
248,244,116456,1,0,0:0:0:0:
300,80,116641,1,0,0:0:0:0:
360,244,116826,1,0,0:0:0:0:
220,152,117011,2,0,B|164:144|164:144|108:164,1,109.250002083778,8|0,0:0|0:0,0:0:0:0:
176,248,117382,2,0,B|232:256|232:256|288:236,1,109.250002083778,8|0,0:0|0:0,0:0:0:0:
364,200,117752,5,8,0:0:0:0:
264,140,117937,1,0,0:0:0:0:
364,280,118122,1,0,0:0:0:0:
432,148,118307,1,0,0:0:0:0:
296,304,118493,2,0,P|224:316|184:312,1,109.250002083778,8|0,0:0|0:0,0:0:0:0:
56,256,118863,1,0,0:0:0:0:
208,240,119048,1,0,0:0:0:0:
40,360,119233,1,8,0:0:0:0:
144,188,119419,1,0,0:0:0:0:
216,368,119604,6,0,B|268:368|268:368|308:328,1,109.250002083778
400,144,119974,2,0,B|347:144|347:144|307:184,1,109.250002083778,8|0,0:0|0:0,0:0:0:0:
252,260,120344,1,0,0:0:0:0:
224,112,120530,1,8,0:0:0:0:
196,80,120622,1,8,0:0:0:0:
156,60,120715,1,8,0:0:0:0:
112,52,120807,1,8,0:0:0:0:
68,60,120900,1,0,0:0:0:0:
224,112,121085,5,8,0:0:0:0:
252,144,121177,1,8,0:0:0:0:
292,164,121270,1,8,0:0:0:0:
336,172,121362,1,8,0:0:0:0:
380,164,121455,1,0,0:0:0:0:
416,136,121548,1,0,0:0:0:0:
444,100,121641,1,0,0:0:0:0:
448,56,121733,1,0,0:0:0:0:
428,16,121826,1,4,0:0:0:0:
480,168,122011,5,0,0:0:0:0:
348,104,122196,2,0,B|292:80|292:80|240:88,1,109.250002083778,8|0,0:0|0:0,0:0:0:0:
120,168,122567,2,0,B|176:192|176:192|228:184,1,109.250002083778
312,160,122937,1,8,0:0:0:0:
168,96,123122,1,0,0:0:0:0:
228,308,123307,2,0,P|276:336|332:216,1,218.500004167557,0|8,0:0|0:0,0:0:0:0:
228,68,123863,5,0,0:0:0:0:
340,224,124048,1,0,0:0:0:0:
228,68,124233,1,0,0:0:0:0:
184,240,124419,2,0,B|160:320|160:320|152:288,1,109.250002083778,8|0,0:0|0:0,0:0:0:0:
124,112,124789,2,0,B|72:88|72:88|4:112,2,109.250002083778,0|0|8,0:0|0:0|0:0,0:0:0:0:
216,184,125344,1,0,0:0:0:0:
308,260,125530,2,0,B|360:284|360:284|428:260,2,109.250002083778,0|0|8,0:0|0:0|0:0,0:0:0:0:
216,184,126085,1,0,0:0:0:0:
332,160,126270,5,0,0:0:0:0:
228,288,126456,1,0,0:0:0:0:
304,84,126641,1,0,0:0:0:0:
368,244,126826,1,0,0:0:0:0:
204,172,127011,1,0,0:0:0:0:
388,88,127196,1,0,0:0:0:0:
172,104,127382,1,0,0:0:0:0:
140,132,127474,1,0,0:0:0:0:
116,168,127567,1,0,0:0:0:0:
100,208,127659,1,0,0:0:0:0:
96,252,127752,6,0,B|100:296|100:296|132:288,1,71.2500027179719,4|0,0:0|0:0,0:0:0:0:
220,264,128122,2,0,L|292:236,1,71.2500027179719
286,238,128493,1,8,0:0:0:0:
404,184,128863,1,0,0:0:0:0:
264,160,129048,1,0,0:0:0:0:
376,252,129419,1,0,0:0:0:0:
360,120,129604,1,0,0:0:0:0:
288,224,129789,1,0,0:0:0:0:
436,120,129974,1,8,0:0:0:0:
280,140,130159,5,0,0:0:0:0:
428,196,130344,1,0,0:0:0:0:
344,68,130530,1,0,0:0:0:0:
344,68,130622,1,0,0:0:0:0:
344,68,130715,2,0,P|292:56|264:60,1,71.2500027179719
368,84,131085,2,0,P|324:60|288:56,1,71.2500027179719
188,108,131456,5,8,0:0:0:0:
188,108,131641,1,0,0:0:0:0:
188,108,131826,1,0,0:0:0:0:
188,108,132011,1,0,0:0:0:0:
168,188,132382,1,0,0:0:0:0:
260,72,132752,1,0,0:0:0:0:
96,184,132937,6,0,P|64:224|52:248,1,71.2500027179719,8|0,0:0|0:0,0:0:0:0:
36,344,133307,1,0,0:0:0:0:
48,344,133400,1,0,0:0:0:0:
60,340,133493,1,0,0:0:0:0:
72,336,133585,1,0,0:0:0:0:
84,332,133678,1,4,0:0:0:0:
168,284,134048,6,0,B|212:260|212:260|256:252,2,71.2500027179719,0|0|8,0:0|0:0|0:0,0:0:0:0:
104,332,134604,1,0,0:0:0:0:
220,336,134789,1,0,0:0:0:0:
96,252,134974,1,0,0:0:0:0:
156,368,135344,1,0,0:0:0:0:
288,328,135530,1,0,0:0:0:0:
112,316,135715,1,0,0:0:0:0:
232,236,135900,2,0,P|264:212|288:180,1,71.2500027179719,8|0,0:0|0:0,0:0:0:0:
280,88,136270,6,0,P|248:112|224:144,1,71.2500027179719
228,136,136548,1,0,0:0:0:0:
228,136,136641,1,0,0:0:0:0:
340,140,136826,1,0,0:0:0:0:
156,160,137011,1,0,0:0:0:0:
292,196,137196,1,0,0:0:0:0:
160,84,137382,1,0,0:0:0:0:
204,208,137567,1,0,0:0:0:0:
280,80,137752,1,0,0:0:0:0:
280,80,137937,5,0,0:0:0:0:
136,212,138307,1,0,0:0:0:0:
136,212,138493,2,0,L|88:264,1,71.2500027179719
104,372,138863,2,0,L|152:320,1,71.2500027179719
208,260,139233,1,0,0:0:0:0:
56,320,139419,1,0,0:0:0:0:
216,348,139604,6,0,B|256:332|288:340|288:340|320:324|324:264,1,142.500005435944,4|0,0:0|0:0,0:0:0:0:
320,168,140159,1,0,0:0:0:0:
240,264,140344,1,8,0:0:0:0:
392,196,140530,1,0,0:0:0:0:
244,188,140715,2,0,L|172:184,1,71.2500027179719
172,184,141270,5,0,0:0:0:0:
184,64,141456,1,0,0:0:0:0:
228,236,141641,1,0,0:0:0:0:
104,148,141826,1,8,0:0:0:0:
268,160,142011,1,0,0:0:0:0:
136,248,142196,2,0,B|88:280|88:280|120:288,1,71.2500027179719
104,288,142474,1,0,0:0:0:0:
104,288,142567,1,0,0:0:0:0:
252,284,142752,5,0,0:0:0:0:
160,172,142937,1,0,0:0:0:0:
196,328,143122,1,0,0:0:0:0:
232,188,143307,1,8,0:0:0:0:
132,284,143493,1,0,0:0:0:0:
292,232,143678,1,0,0:0:0:0:
160,216,143863,1,0,0:0:0:0:
300,304,144233,5,0,0:0:0:0:
356,116,144419,1,0,0:0:0:0:
284,96,144604,1,0,0:0:0:0:
360,232,144789,1,8,0:0:0:0:
420,196,144974,1,0,0:0:0:0:
260,224,145159,1,0,0:0:0:0:
252,228,145252,1,0,0:0:0:0:
244,236,145344,1,0,0:0:0:0:
240,244,145437,1,0,0:0:0:0:
236,256,145530,6,0,P|232:304|244:340,2,71.2500027179719
288,152,146085,1,0,0:0:0:0:
320,256,146270,1,8,0:0:0:0:
212,152,146456,1,0,0:0:0:0:
360,196,146641,1,0,0:0:0:0:
236,232,146826,1,0,0:0:0:0:
280,124,147196,5,0,0:0:0:0:
312,248,147382,2,0,P|320:300|320:332,1,71.2500027179719
224,252,147752,2,0,P|216:200|216:168,1,71.2500027179719,8|0,0:0|0:0,0:0:0:0:
224,64,148122,1,0,0:0:0:0:
304,176,148307,1,0,0:0:0:0:
304,176,148400,1,0,0:0:0:0:
304,176,148493,1,0,0:0:0:0:
172,116,148678,5,0,0:0:0:0:
320,100,148863,2,0,P|356:100|400:112,1,71.2500027179719
390,108,149233,1,8,0:0:0:0:
244,184,149419,1,0,0:0:0:0:
276,40,149604,1,0,0:0:0:0:
312,208,149789,1,0,0:0:0:0:
200,112,150159,5,0,0:0:0:0:
140,228,150344,2,0,B|128:268|128:268|140:320,1,71.2500027179719
134,296,150715,1,8,0:0:0:0:
268,220,151085,1,0,0:0:0:0:
268,220,151270,1,0,0:0:0:0:
268,220,151456,2,4,B|316:240|352:200|352:200|312:156|352:88|352:88|312:108|272:88,1,285.000010871888,4|12,0:0|0:0,0:0:0:0:
188,68,152567,5,0,0:0:0:0:
232,156,152752,1,0,0:0:0:0:
248,24,153122,1,0,0:0:0:0:
160,148,153307,2,0,P|136:184|120:224,1,71.2500027179719
156,308,153678,2,0,P|180:272|196:232,1,71.2500027179719,8|0,0:0|0:0,0:0:0:0:
224,160,154048,1,0,0:0:0:0:
260,304,154419,5,0,0:0:0:0:
191,246,154604,1,0,0:0:0:0:
320,256,154789,1,0,0:0:0:0:
200,332,154974,1,0,0:0:0:0:
256,220,155159,2,0,L|296:152,2,71.2500027179719,8|0|0,0:0|0:0|0:0,0:0:0:0:
200,332,155715,1,0,0:0:0:0:
340,228,156085,5,0,0:0:0:0:
388,312,156270,1,0,0:0:0:0:
400,184,156456,1,0,0:0:0:0:
316,300,156641,1,8,0:0:0:0:
444,256,156826,1,0,0:0:0:0:
320,156,157011,1,0,0:0:0:0:
308,148,157104,1,0,0:0:0:0:
300,144,157196,1,0,0:0:0:0:
288,140,157289,1,0,0:0:0:0:
276,136,157382,1,4,0:0:0:0:
276,224,157567,5,0,0:0:0:0:
400,160,157752,1,0,0:0:0:0:
292,292,157937,1,0,0:0:0:0:
320,168,158122,1,8,0:0:0:0:
360,296,158307,1,0,0:0:0:0:
200,284,158493,1,0,0:0:0:0:
392,216,158678,5,0,0:0:0:0:
144,344,159048,1,0,0:0:0:0:
104,272,159233,2,0,P|88:224|84:184,1,71.2500027179719
144,108,159604,2,0,P|160:156|164:196,1,71.2500027179719,8|0,0:0|0:0,0:0:0:0:
168,248,159974,1,0,0:0:0:0:
72,124,160159,1,0,0:0:0:0:
72,124,160252,1,0,0:0:0:0:
72,124,160344,1,0,0:0:0:0:
228,212,160530,5,0,0:0:0:0:
104,208,160715,1,0,0:0:0:0:
256,144,160900,1,0,0:0:0:0:
136,280,161085,2,0,L|76:344,2,71.2500027179719,8|0|0,0:0|0:0|0:0,0:0:0:0:
256,144,161641,1,0,0:0:0:0:
136,280,162011,5,0,0:0:0:0:
136,280,162196,2,0,L|208:256,1,71.2500027179719
56,240,162567,1,8,0:0:0:0:
160,352,162752,1,0,0:0:0:0:
160,352,162844,1,0,0:0:0:0:
160,352,162937,1,0,0:0:0:0:
112,176,163122,1,0,0:0:0:0:
48,324,163307,5,4,0:0:0:0:
256,192,163400,12,12,169233,0:0:0:0:
220,152,169604,5,8,0:0:0:0:
216,152,169696,1,8,0:0:0:0:
212,152,169789,1,8,0:0:0:0:
208,152,169882,1,8,0:0:0:0:
200,152,169974,1,8,0:0:0:0:
192,152,170067,1,8,0:0:0:0:
184,156,170159,1,8,0:0:0:0:
176,160,170252,1,8,0:0:0:0:
164,168,170344,1,8,0:0:0:0:
156,176,170437,1,8,0:0:0:0:
148,184,170530,1,8,0:0:0:0:
140,196,170622,1,8,0:0:0:0:
132,212,170715,5,8,0:0:0:0:
128,228,170807,1,8,0:0:0:0:
128,244,170900,1,8,0:0:0:0:
132,260,170993,1,8,0:0:0:0:
140,280,171085,1,8,0:0:0:0:
152,296,171178,1,8,0:0:0:0:
172,308,171270,1,8,0:0:0:0:
192,316,171363,1,8,0:0:0:0:
216,320,171456,1,8,0:0:0:0:
240,320,171548,1,8,0:0:0:0:
264,316,171641,1,8,0:0:0:0:
288,304,171733,1,8,0:0:0:0:
308,284,171826,5,8,0:0:0:0:
332,268,171919,1,8,0:0:0:0:
360,260,172011,1,8,0:0:0:0:
388,264,172104,1,8,0:0:0:0:
416,284,172196,1,8,0:0:0:0:
420,320,172289,1,8,0:0:0:0:
396,344,172382,1,8,0:0:0:0:
364,344,172474,1,8,0:0:0:0:
332,320,172567,1,8,0:0:0:0:
312,288,172659,1,8,0:0:0:0:
308,248,172752,1,8,0:0:0:0:
316,212,172844,1,8,0:0:0:0:
312,168,172937,5,8,0:0:0:0:
292,132,173030,1,8,0:0:0:0:
252,112,173122,1,8,0:0:0:0:
208,120,173215,1,8,0:0:0:0:
176,156,173307,1,8,0:0:0:0:
164,200,173400,1,8,0:0:0:0:
164,248,173493,1,8,0:0:0:0:
136,284,173585,1,8,0:0:0:0:
88,288,173678,1,8,0:0:0:0:
48,160,173863,5,8,0:0:0:0:
164,248,174048,2,0,L|244:300,2,95,0|0|8,0:0|0:0|0:0,0:0:0:0:
56,168,174604,1,0,0:0:0:0:
56,168,174696,1,0,0:0:0:0:
56,168,174789,1,0,0:0:0:0:
68,312,174974,1,0,0:0:0:0:
164,144,175159,1,4,0:0:0:0:
168,52,180344,6,0,L|160:112,1,47.5
200,88,180530,2,0,L|208:148,1,47.5
160,140,180715,2,0,L|166:187,1,47.5
204,176,180901,2,0,L|197:223,1,47.5
164,236,181085,6,0,B|192:308|192:308|232:336,1,109.250002083778,4|0,0:0|0:0,0:0:0:0:
368,344,181456,1,8,0:0:0:0:
272,228,181641,1,0,0:0:0:0:
292,360,181826,1,0,0:0:0:0:
376,248,182011,1,0,0:0:0:0:
208,296,182196,2,0,B|152:296|152:296|104:252,1,109.250002083778,8|0,0:0|0:0,0:0:0:0:
56,168,182567,6,0,P|140:100|228:148,1,218.500004167557,0|8,0:0|0:0,0:0:0:0:
292,308,183122,1,0,0:0:0:0:
228,144,183307,1,0,0:0:0:0:
292,308,183493,1,0,0:0:0:0:
168,244,183678,2,0,B|120:209|120:209|132:152,1,109.250002083778,8|0,0:0|0:0,0:0:0:0:
384,112,184048,1,0,0:0:0:0:
128,160,184233,1,0,0:0:0:0:
384,112,184419,1,8,0:0:0:0:
128,160,184604,1,0,0:0:0:0:
372,200,184789,6,0,P|432:192|472:160,1,109.250002083778
232,128,185159,2,0,P|172:136|132:168,1,109.250002083778
80,324,185530,1,0,0:0:0:0:
200,236,185715,1,8,0:0:0:0:
12,300,185900,1,0,0:0:0:0:
224,320,186085,1,0,0:0:0:0:
88,216,186270,2,0,B|56:172|56:172|56:112,1,109.250002083778,8|0,0:0|0:0,0:0:0:0:
152,24,186641,1,8,0:0:0:0:
200,16,186733,1,8,0:0:0:0:
248,24,186826,1,8,0:0:0:0:
292,48,186919,1,8,0:0:0:0:
324,84,187011,6,0,P|360:148|368:200,1,109.250002083778,4|0,0:0|0:0,0:0:0:0:
332,308,187382,2,0,P|296:244|288:192,1,109.250002083778,8|0,0:0|0:0,0:0:0:0:
280,88,187752,1,0,0:0:0:0:
384,252,187937,1,0,0:0:0:0:
232,168,188122,2,0,B|168:156|168:156|120:160,1,109.250002083778,8|0,0:0|0:0,0:0:0:0:
20,240,188493,1,0,0:0:0:0:
92,340,188678,1,0,0:0:0:0:
124,159,188863,2,0,B|136:95|136:95|132:47,1,109.250002083778,8|0,0:0|0:0,0:0:0:0:
24,136,189233,5,0,0:0:0:0:
208,48,189419,1,0,0:0:0:0:
180,208,189604,1,8,0:0:0:0:
56,60,189789,1,0,0:0:0:0:
64,224,189974,1,8,0:0:0:0:
72,256,190067,1,0,0:0:0:0:
88,284,190159,1,0,0:0:0:0:
112,308,190252,1,8,0:0:0:0:
140,324,190344,2,0,L|196:328,1,54.6250010418892
304,328,190530,5,0,0:0:0:0:
304,328,190622,1,0,0:0:0:0:
304,328,190715,1,8,0:0:0:0:
304,328,190807,1,0,0:0:0:0:
324,324,190900,1,0,0:0:0:0:
340,308,190993,1,0,0:0:0:0:
348,288,191085,1,0,0:0:0:0:
216,252,191270,5,0,0:0:0:0:
348,156,191456,1,8,0:0:0:0:
188,92,191733,1,8,0:0:0:0:
212,240,192011,1,0,0:0:0:0:
388,132,192196,1,8,0:0:0:0:
376,116,192289,1,8,0:0:0:0:
356,104,192382,1,8,0:0:0:0:
336,92,192474,1,8,0:0:0:0:
276,76,192567,1,0,0:0:0:0:
256,76,192659,1,0,0:0:0:0:
236,80,192752,1,0,0:0:0:0:
216,88,192844,1,0,0:0:0:0:
160,120,192937,6,0,P|100:144|44:136,1,113.999996520996,4|0,0:0|0:0,0:0:0:0:
184,32,193307,2,0,P|244:8|300:16,1,113.999996520996,8|0,0:0|0:0,0:0:0:0:
456,72,193678,1,0,0:0:0:0:
328,156,193863,1,0,0:0:0:0:
428,12,194048,1,0,0:0:0:0:
368,216,194233,1,0,0:0:0:0:
332,72,194419,2,0,P|240:64|172:176,1,227.999993041992
176,360,194974,5,0,0:0:0:0:
171,167,195159,1,0,0:0:0:0:
176,360,195344,1,0,0:0:0:0:
344,192,195530,2,0,P|404:208|328:204,2,227.999993041992,8|0|8,0:0|0:0|0:0,0:0:0:0:
208,192,196456,1,0,0:0:0:0:
60,192,196641,2,0,P|0:208|76:204,2,227.999993041992,0|8|8,0:0|0:0|0:0,0:0:0:0:
240,196,197567,1,0,0:0:0:0:
56,104,197752,5,8,0:0:0:0:
248,104,197937,1,0,0:0:0:0:
48,32,198122,1,8,0:0:0:0:
260,32,198307,1,0,0:0:0:0:
92,172,198493,1,8,0:0:0:0:
80,192,198585,1,8,0:0:0:0:
72,212,198678,1,8,0:0:0:0:
68,236,198770,1,8,0:0:0:0:
68,256,198863,6,0,L|84:356,1,95
144,248,199419,1,0,0:0:0:0:
220,220,199604,2,0,L|320:208,1,95,8|0,0:0|0:0,0:0:0:0:
136,156,199974,2,0,L|236:144,1,95
340,128,200344,1,0,0:0:0:0:
340,128,200530,1,0,0:0:0:0:
230,144,200715,2,0,L|130:156,1,95
314,208,201085,2,0,L|214:220,1,95,8|0,0:0|0:0,0:0:0:0:
128,236,201456,5,0,0:0:0:0:
156,80,201641,1,0,0:0:0:0:
220,220,201826,2,0,L|264:312,1,95
264,308,202382,1,0,0:0:0:0:
264,308,202567,1,8,0:0:0:0:
268,312,202752,1,0,0:0:0:0:
344,232,203122,5,0,0:0:0:0:
196,300,203307,1,0,0:0:0:0:
364,312,203493,1,0,0:0:0:0:
208,220,203678,2,0,P|164:204|228:200,2,190,0|8|0,0:0|0:0|0:0,0:0:0:0:
332,192,204604,1,0,0:0:0:0:
240,56,204789,2,0,L|132:64,1,95
320,120,205159,2,0,L|212:128,1,95
136,140,205530,1,8,0:0:0:0:
136,140,205715,1,0,0:0:0:0:
48,208,205900,6,0,P|76:260|112:284,1,95
248,272,206270,2,0,P|220:220|184:196,1,95
96,160,206641,1,0,0:0:0:0:
148,64,206826,1,0,0:0:0:0:
148,64,206919,1,0,0:0:0:0:
148,64,207011,1,8,0:0:0:0:
200,64,207135,5,8,0:0:0:0:
252,64,207258,5,8,0:0:0:0:
304,64,207382,5,0,0:0:0:0:
356,64,207505,5,0,0:0:0:0:
408,64,207628,5,0,0:0:0:0:
460,64,207752,5,4,0:0:0:0:
460,64,208307,1,4,0:0:0:0:
460,64,208863,1,4,0:0:0:0:
