osu file format v14

[General]
AudioFilename: audio.mp3
AudioLeadIn: 0
PreviewTime: 50597
Countdown: 0
SampleSet: Normal
StackLeniency: 0.3
Mode: 0
LetterboxInBreaks: 0
WidescreenStoryboard: 0

[Editor]
DistanceSpacing: 3
BeatDivisor: 4
GridSize: 4
TimelineZoom: 2

[Metadata]
Title:Caraphernelia
TitleUnicode:Caraphernelia
Artist:Pierce The Veil
ArtistUnicode:Pierce The Veil
Creator:WasserIstGut
Version:Expert
Source:
Tags:
BeatmapID:1508407
BeatmapSetID:713672

[Difficulty]
HPDrainRate:6.3
CircleSize:4.3
OverallDifficulty:8.3
ApproachRate:9.3
SliderMultiplier:1.6
SliderTickRate:1

[Events]
//Background and Video events
0,0,"1366T786.jpg",0,0
//Break Periods
2,186498,200323
2,205563,209295
//Storyboard Layer 0 (Background)
//Storyboard Layer 1 (Fail)
//Storyboard Layer 2 (Pass)
//Storyboard Layer 3 (Foreground)
//Storyboard Sound Samples

[TimingPoints]
130,280.373831775701,4,2,1,60,1,0
1111,-100,4,1,1,20,0,0
1251,-83.3333333333333,4,1,1,35,0,0
1531,-100,4,1,1,35,0,0
3494,-90.9090909090909,4,1,1,35,0,0
3774,-100,4,1,1,35,0,0
4896,-90.9090909090909,4,1,1,35,0,0
5176,-83.3333333333333,4,1,1,50,0,0
5457,-76.9230769230769,4,1,1,50,0,0
5737,-66.6666666666667,4,1,1,50,0,0
6017,-76.9230769230769,4,1,1,50,0,0
8120,-66.6666666666667,4,1,1,50,0,0
8401,-76.9230769230769,4,1,1,50,0,0
9101,-58.8235294117647,4,1,1,50,0,0
9382,-66.6666666666667,4,1,1,35,0,0
10223,-83.3333333333333,4,1,1,35,0,0
10503,-100,4,1,1,35,0,0
11344,-125,4,1,1,35,0,0
11625,-100,4,1,1,35,0,0
11905,-83.3333333333333,4,1,1,35,0,0
12186,-100,4,1,1,35,0,0
13027,-125,4,1,1,35,0,0
13307,-100,4,1,1,35,0,0
13587,-166.666666666667,4,1,1,35,0,0
13868,-100,4,1,1,65,0,0
14849,-90.9090909090909,4,1,1,65,0,0
15410,-83.3333333333333,4,1,1,65,0,0
15971,-76.9230769230769,4,1,1,65,0,0
16531,-71.4285714285714,4,1,1,65,0,0
16812,-66.6666666666667,4,1,1,65,0,0
16952,-66.6666666666667,4,2,1,65,0,0
17092,-66.6666666666667,4,1,1,80,0,0
17372,-66.6666666666667,4,2,1,80,0,0
17513,-71.4285714285714,4,1,1,80,0,0
17793,-71.4285714285714,4,2,1,80,0,0
17933,-76.9230769230769,4,1,1,80,0,0
18214,-76.9230769230769,4,2,1,80,0,0
18354,-83.3333333333333,4,1,1,80,0,0
19195,-166.666666666667,4,1,1,85,0,0
20036,-166.666666666667,4,1,1,25,0,0
21438,-166.666666666667,4,1,1,70,0,0
21999,-166.666666666667,4,1,1,25,0,0
23681,-166.666666666667,4,1,1,70,0,0
24242,-166.666666666667,4,1,1,25,0,0
25644,-166.666666666667,4,1,1,45,0,0
28167,-100,4,1,1,45,0,0
46672,-133.333333333333,4,1,1,35,0,0
50597,-79.9999999999999,4,1,1,50,0,0
52840,-166.666666666667,4,1,1,60,0,0
52910,-166.666666666667,4,1,1,30,0,0
53401,-166.666666666667,4,1,1,20,0,0
53961,-166.666666666667,4,1,1,10,0,0
54452,-166.666666666667,4,1,1,5,0,0
55083,-133.333333333333,4,1,1,50,0,1
72887,-200,4,1,1,70,0,0
74148,-200,4,1,1,30,0,0
77513,-200,4,1,1,65,0,0
78354,-200,4,1,1,30,0,0
79055,-200,4,1,1,45,0,0
79756,-100,4,1,1,50,0,0
80176,-100,4,1,1,55,0,0
80597,-100,4,1,1,60,0,0
81017,-100,4,1,1,65,0,0
81438,-100,4,1,1,70,0,0
81999,-166.666666666667,4,1,1,75,0,0
82840,-133.333333333333,4,1,1,30,0,0
84242,-133.333333333333,4,1,1,60,0,0
84802,-133.333333333333,4,1,1,30,0,0
86485,-133.333333333333,4,1,1,60,0,0
87045,-133.333333333333,4,1,1,30,0,0
88447,-133.333333333333,4,1,1,60,0,0
91531,-133.333333333333,4,1,1,30,0,0
93214,-133.333333333333,4,1,1,60,0,0
93774,-133.333333333333,4,1,1,30,0,0
95457,-133.333333333333,4,1,1,60,0,0
96017,-133.333333333333,4,1,1,30,0,0
97700,-133.333333333333,4,1,1,60,0,0
98260,-133.333333333333,4,1,1,40,0,0
98541,-133.333333333333,4,1,1,30,0,0
98821,-153.846153846153,4,1,1,25,0,0
99101,-200,4,1,1,20,0,0
99382,-250,4,1,1,20,0,0
99662,-300,4,1,1,20,0,0
99943,-133.333333333333,4,1,1,50,0,1
116905,-133.333333333333,4,1,1,60,0,1
117887,-100,4,1,1,50,0,1
120130,-83.3333333333333,4,1,1,50,0,1
120690,-100,4,1,1,50,0,1
135830,-133.333333333333,4,1,1,50,0,0
138073,-181.818181818182,4,1,1,50,0,0
140246,-181.818181818182,4,1,1,5,0,0
140597,-181.818181818182,4,1,1,30,0,0
141438,-181.818181818182,4,1,1,40,0,0
142559,-133.333333333333,4,1,1,50,0,0
143120,-133.333333333333,4,2,1,50,0,0
143681,-133.333333333333,4,2,1,50,0,0
144242,-133.333333333333,4,2,1,50,0,0
144522,-133.333333333333,4,2,1,50,0,0
169475,-200,4,1,1,50,0,0
170036,-200,4,1,1,25,0,0
171999,-200,4,2,0,35,0,0
186228,-200,4,2,0,5,0,0
200877,-200,4,1,1,40,0,0
204802,-200,4,1,1,40,0,0
209849,-133.333333333333,4,1,1,35,0,1
223307,-133.333333333333,4,1,1,50,0,0
231438,-133.333333333333,4,1,1,25,0,0
231508,-133.333333333333,4,1,1,25,0,0
231578,-133.333333333333,4,1,1,25,0,0
231648,-133.333333333333,4,1,1,25,0,0
231718,-133.333333333333,4,1,1,25,0,0
232279,-100,4,1,1,50,0,1
241251,-133.333333333333,4,1,1,50,0,0

[Colours]
Combo1 : 113,0,113
Combo2 : 128,0,0
Combo3 : 0,0,255
Combo4 : 255,128,0
Combo5 : 0,111,0
Combo6 : 70,70,70
Combo7 : 255,128,64
Combo8 : 128,255,255

[HitObjects]
106,49,130,69,4,0:0:0:0:
107,64,410,1,4,0:0:0:0:
108,79,690,1,4,0:0:0:0:
109,93,971,1,4,0:0:0:0:
145,219,1111,101,8,0:0:0:0:
324,162,1251,2,0,P|289:137|223:137,1,95.9999970703126,6|8,0:0|0:0,0:0:0:0:
240,300,1531,2,0,L|260:212,1,80,2|8,0:0|0:0,0:0:0:0:
255,54,1812,2,0,L|235:142,1,80,2|8,0:0|0:0,0:0:0:0:
402,179,2092,2,0,L|313:158,1,80,2|8,0:0|0:0,0:0:0:0:
159,113,2372,6,0,L|236:131,1,80,2|8,0:0|0:0,0:0:0:0:
102,232,2653,2,0,L|24:212,1,80,2|8,0:0|0:0,0:0:0:0:
191,195,2933,2,0,L|268:213,1,80,2|8,0:0|0:0,0:0:0:0:
136,317,3214,2,0,L|57:299,1,80,2|8,0:0|0:0,0:0:0:0:
237,132,3494,102,0,P|271:94|330:77,1,88.000002685547,6|8,0:0|0:0,0:0:0:0:
472,86,3774,1,2,0:0:0:0:
472,86,3915,1,8,0:0:0:0:
323,164,4055,1,2,0:0:0:0:
323,164,4195,1,8,0:0:0:0:
479,225,4335,1,2,0:0:0:0:
479,225,4475,1,8,0:0:0:0:
304,78,4615,6,0,P|260:74|218:79,1,80,6|8,0:0|0:0,0:0:0:0:
58,161,4896,1,2,0:0:0:0:
58,161,5036,1,8,0:0:0:0:
277,182,5176,1,2,0:0:0:0:
277,182,5316,1,8,0:0:0:0:
55,27,5457,1,2,0:0:0:0:
55,27,5597,1,8,0:0:0:0:
104,278,5737,101,6,0:0:0:0:
104,278,5877,2,0,P|142:228|200:218,1,120.000004577637,12|2,0:0|0:0,0:0:0:0:
408,332,6157,2,0,L|285:308,1,103.999995239258,8|2,0:0|0:0,0:0:0:0:
219,110,6438,2,0,L|342:133,1,103.999995239258,8|2,0:0|0:0,0:0:0:0:
505,245,6718,2,0,L|374:219,1,103.999995239258,8|2,0:0|0:0,0:0:0:0:
288,40,6999,5,8,0:0:0:0:
288,40,7139,1,2,0:0:0:0:
104,159,7279,1,8,0:0:0:0:
104,159,7419,1,2,0:0:0:0:
223,343,7559,1,8,0:0:0:0:
223,343,7700,1,2,0:0:0:0:
407,224,7840,1,8,0:0:0:0:
407,224,7980,1,6,0:0:0:0:
188,239,8120,102,0,P|219:194|195:102,1,120.000004577637,8|2,0:0|0:0,0:0:0:0:
77,18,8401,1,8,0:0:0:0:
77,18,8541,1,2,0:0:0:0:
55,167,8681,1,8,0:0:0:0:
55,167,8821,1,2,0:0:0:0:
188,239,8961,1,8,0:0:0:0:
188,239,9101,6,0,P|225:183|295:170,1,136.000002593994,6|0,0:0|0:0,0:0:0:0:
327,182,9312,1,0,0:0:0:0:
352,206,9382,1,0,0:0:0:0:
357,352,9522,101,8,0:0:0:0:
188,239,9662,1,2,0:0:0:0:
328,91,9802,1,0,0:0:0:0:
362,100,9872,1,0,0:0:0:0:
388,125,9943,1,0,0:0:0:0:
275,294,10083,1,8,0:0:0:0:
170,106,10223,6,0,P|190:64|257:26,2,95.9999970703126,6|8|0,0:0|0:0|0:0,0:0:0:0:
379,244,10644,1,8,0:0:0:0:
427,139,10784,2,0,P|384:127|323:145,2,80,2|8|0,0:0|0:0|0:0,0:0:0:0:
189,331,11204,1,8,0:0:0:0:
106,224,11344,2,0,P|139:202|189:197,2,64,2|8|0,0:0|0:0|0:0,0:0:0:0:
272,204,11765,101,8,0:0:0:0:
319,39,11905,2,0,P|270:23|209:47,2,95.9999970703126,2|8|0,0:0|0:0|0:0,0:0:0:0:
318,252,12326,1,8,0:0:0:0:
427,139,12466,2,0,P|458:165|478:221,2,80,2|8|0,0:0|0:0|0:0,0:0:0:0:
241,250,12887,1,8,0:0:0:0:
106,224,13027,2,0,P|102:255|110:286,2,64,2|8|0,0:0|0:0|0:0,0:0:0:0:
330,327,13447,1,8,0:0:0:0:
410,267,13587,2,0,P|422:287|429:311,2,47.9999985351563,2|8|0,0:0|0:0|0:0,0:0:0:0:
149,54,14008,5,8,0:0:0:0:
30,172,14148,1,2,0:0:0:0:
187,141,14288,2,0,L|287:143,1,80,8|2,0:0|0:0,2:0:0:0:
406,114,14569,101,8,0:0:0:0:
257,221,14709,1,2,0:0:0:0:
316,46,14849,2,0,L|214:46,1,88.000002685547,8|2,0:0|0:0,0:0:0:0:
57,127,15130,5,8,0:0:0:0:
196,269,15270,1,2,0:0:0:0:
188,69,15410,2,0,L|288:69,1,95.9999970703126,8|2,0:0|0:0,0:0:0:0:
457,161,15690,101,8,0:0:0:0:
289,296,15830,1,2,0:0:0:0:
312,87,15971,2,0,L|206:87,1,103.999995239258,8|2,0:0|0:0,0:0:0:0:
30,207,16251,5,8,0:0:0:0:
225,345,16391,1,2,0:0:0:0:
189,108,16531,2,0,L|300:108,1,111.999996582031,8|2,0:0|0:0,0:0:0:0:
358,260,16812,1,8,0:0:0:0:
155,347,16952,69,6,0:0:0:0:
393,327,17092,2,0,L|512:317,1,120.000004577637,4|0,0:0|0:0,0:0:0:0:
131,274,17372,21,6,0:0:0:0:
358,260,17512,2,0,L|477:250,1,120.000004577637,4|0,0:0|0:0,0:0:0:0:
81,206,17793,85,6,0:0:0:0:
296,193,17933,2,0,L|415:185,1,103.999995239258,4|0,0:0|0:0,0:0:0:0:
4,140,18214,21,6,0:0:0:0:
190,127,18354,2,0,L|297:120,1,95.9999970703126,4|0,0:0|0:0,0:0:0:0:
0,22,18634,85,6,0:0:0:0:
237,124,18774,1,2,0:0:0:0:
10,304,18915,37,6,0:0:0:0:
133,65,19055,1,2,0:0:0:0:
112,267,19195,70,0,P|60:227|179:222,1,287.999991210938,4|0,0:0|2:0,0:0:0:0:
189,279,20316,69,0,2:0:0:0:
245,331,20597,1,0,2:0:0:0:
320,318,20877,1,0,2:0:0:0:
347,245,21158,1,0,2:0:0:0:
275,128,21438,38,0,P|210:177|281:216,1,191.999994140625,4|0,0:0|2:0,0:0:0:0:
333,169,22279,69,0,2:0:0:0:
406,189,22559,1,0,2:0:0:0:
443,256,22840,1,0,2:0:0:0:
423,330,23120,1,0,2:0:0:0:
257,285,23401,1,0,3:0:0:0:
251,278,23471,1,0,3:0:0:0:
246,271,23541,1,0,3:0:0:0:
241,264,23611,1,0,3:0:0:0:
238,254,23681,38,0,B|221:192|254:156|254:156|281:115|264:67,1,191.999994140625,4|0,0:0|2:0,0:0:0:0:
226,12,24522,69,0,2:0:0:0:
150,23,24802,1,0,2:0:0:0:
99,81,25083,1,0,2:0:0:0:
98,157,25363,1,0,2:0:0:0:
130,226,25644,37,0,0:0:0:0:
130,226,25924,2,0,P|175:246|250:219,1,95.9999970703126
246,212,26344,2,0,L|225:306,1,95.9999970703126
216,343,26765,5,0,0:0:0:0:
216,343,27045,2,0,P|266:296|348:300,1,143.999995605469
398,347,27606,2,0,L|351:174,1,143.999995605469
256,118,28167,70,0,L|286:216,1,80,6|0,0:0|0:0,0:0:0:0:
350,63,28447,1,8,3:0:0:0:
182,74,28587,1,8,3:0:0:0:
339,135,28728,2,0,P|381:126|416:93,1,80,2|0,0:0|0:0,0:0:0:0:
261,23,29008,1,8,3:0:0:0:
228,187,29148,1,0,0:0:0:0:
230,219,29218,1,0,0:0:0:0:
245,247,29288,2,0,P|271:272|321:278,1,80,2|0,0:0|0:0,0:0:0:0:
473,229,29569,37,8,3:0:0:0:
308,195,29709,1,8,3:0:0:0:
362,36,29849,2,0,P|394:77|407:128,1,80,2|0,0:0|0:0,0:0:0:0:
370,268,30130,1,8,3:0:0:0:
317,108,30270,1,8,3:0:0:0:
226,222,30410,2,0,L|322:223,1,80,2|0,0:0|0:0,0:0:0:0:
260,322,30690,69,8,3:0:0:0:
395,222,30830,1,8,3:0:0:0:
226,222,30971,2,0,L|133:223,1,80,2|0,0:0|0:0,0:0:0:0:
311,250,31251,1,8,3:0:0:0:
181,143,31391,1,8,3:0:0:0:
22,300,31531,2,0,L|194:297,1,160,2|8,0:0|3:0,0:0:0:0:
293,169,31952,37,8,3:0:0:0:
340,322,32092,2,0,L|236:322,1,80,2|0,0:0|0:0,0:0:0:0:
260,322,32302,1,0,0:0:0:0:
260,322,32372,1,0,0:0:0:0:
389,213,32513,1,8,3:0:0:0:
221,229,32653,2,0,P|205:195|208:128,1,80,2|0,0:0|0:0,0:0:0:0:
281,5,32933,69,8,3:0:0:0:
140,96,33073,1,8,3:0:0:0:
293,169,33214,2,0,P|291:124|254:73,1,80,2|0,0:0|0:0,0:0:0:0:
128,11,33494,1,8,3:0:0:0:
215,153,33634,1,8,3:0:0:0:
352,57,33774,2,0,P|264:19|175:105,1,160,2|8,0:0|3:0,0:0:0:0:
124,188,34195,1,8,3:0:0:0:
292,183,34335,2,0,L|273:83,1,80,2|2,0:0|0:0,0:0:0:0:
249,282,34615,2,0,L|238:362,1,80,8|8,0:0|0:0,0:0:0:0:
303,103,34896,38,0,L|289:199,1,80,6|0,0:0|0:0,0:0:0:0:
249,282,35176,1,4,0:0:0:0:
219,74,35316,2,0,L|207:179,1,80,6|0,0:0|0:0,0:0:0:0:
160,253,35596,1,4,0:0:0:0:
15,101,35737,2,0,L|34:198,1,80,6|0,0:0|0:0,0:0:0:0:
74,283,36017,1,4,0:0:0:0:
106,72,36157,2,0,L|122:171,1,80,6|0,0:0|0:0,0:0:0:0:
160,253,36437,1,4,0:0:0:0:
211,118,36578,69,6,0:0:0:0:
211,118,36718,1,2,0:0:0:0:
297,261,36858,1,6,0:0:0:0:
297,261,36999,1,2,0:0:0:0:
387,34,37139,38,0,P|342:43|304:93,1,80,2|0,0:0|0:0,0:0:0:0:
400,210,37419,2,0,L|408:110,1,80,8|0,0:0|0:0,0:0:0:0:
318,65,37700,2,0,L|309:172,1,80,2|0,0:0|0:0,0:0:0:0:
234,289,37980,69,8,0:0:0:0:
141,149,38120,1,8,0:0:0:0:
311,144,38260,2,0,L|303:233,1,80,2|0,0:0|0:0,0:0:0:0:
135,342,38541,2,0,P|121:304|139:248,1,80,8|0,0:0|0:0,0:0:0:0:
303,223,38821,2,0,P|286:259|233:286,1,80,2|2,0:0|0:0,0:0:0:0:
135,125,39101,2,0,P|173:137|206:186,1,80,8|0,0:0|0:0,0:0:0:0:
254,281,39382,38,0,L|246:363,1,80,2|2,0:0|0:0,0:0:0:0:
377,255,39662,2,0,L|387:151,1,80,8|0,0:0|0:0,0:0:0:0:
225,119,39943,1,2,0:0:0:0:
215,198,40083,1,2,0:0:0:0:
305,86,40223,1,8,0:0:0:0:
237,38,40363,1,2,0:0:0:0:
136,195,40503,70,0,P|145:236|199:277,1,80,2|0,0:0|0:0,0:0:0:0:
141,111,40784,2,0,P|102:118|59:153,1,80,8|0,0:0|0:0,0:0:0:0:
112,302,41064,1,2,0:0:0:0:
136,195,41204,1,2,0:0:0:0:
182,183,41274,1,8,0:0:0:0:
226,201,41344,2,0,P|248:233|247:292,1,80,8|8,0:0|0:0,0:0:0:0:
411,328,41625,38,0,P|373:304|314:308,1,80,2|0,0:0|0:0,0:0:0:0:
315,117,41905,2,0,P|320:160|306:215,1,80,8|0,0:0|0:0,0:0:0:0:
457,186,42186,2,0,P|419:199|387:223,1,80,2|0,0:0|0:0,0:0:0:0:
311,372,42466,1,8,0:0:0:0:
250,210,42606,1,8,0:0:0:0:
108,299,42746,70,0,P|143:324|207:323,1,80,2|2,0:0|0:0,0:0:0:0:
100,180,43027,2,0,P|65:155|1:156,1,80,8|0,0:0|0:0,0:0:0:0:
168,240,43307,1,8,0:0:0:0:
136,76,43447,1,2,0:0:0:0:
236,152,43587,1,0,0:0:0:0:
272,172,43658,1,0,0:0:0:0:
312,180,43728,1,0,0:0:0:0:
350,169,43798,1,0,0:0:0:0:
383,146,43868,38,0,P|408:112|415:58,1,80,2|0,0:0|0:0,0:0:0:0:
233,72,44148,2,0,L|236:161,1,80,8|0,0:0|0:0,0:0:0:0:
385,221,44429,2,0,P|395:178|379:141,1,80,2|2,0:0|0:0,0:0:0:0:
273,273,44709,1,8,0:0:0:0:
312,307,44779,1,8,0:0:0:0:
362,318,44849,2,0,P|402:320|462:284,1,80,0|2,0:0|0:0,0:0:0:0:
299,196,45130,2,0,P|253:192|216:213,1,80,2|8,0:0|0:0,0:0:0:0:
119,327,45410,69,8,3:0:0:0:
160,164,45550,1,8,3:0:0:0:
276,282,45690,1,0,0:0:0:0:
236,288,45760,1,0,0:0:0:0:
196,284,45830,2,0,L|126:235,1,80
162,81,46111,85,4,3:0:0:0:
232,118,46251,1,4,3:0:0:0:
130,238,46391,1,4,3:0:0:0:
160,164,46531,1,4,3:0:0:0:
196,284,46672,2,0,L|215:346,1,60.0000022888184,4|4,3:0|3:0,0:0:0:0:
130,238,46952,1,4,3:0:0:0:
130,238,47092,1,4,3:0:0:0:
130,238,47232,6,0,L|112:299,1,60.0000022888184,6|0,3:0|3:0,0:0:0:0:
82,172,47513,2,0,L|19:216,1,60.0000022888184,6|0,3:0|3:0,0:0:0:0:
77,88,47793,102,0,L|145:109,1,60.0000022888184,6|4,3:0|3:0,0:0:0:0:
161,31,48073,1,4,3:0:0:0:
257,49,48214,1,4,3:0:0:0:
257,49,48284,1,4,3:0:0:0:
257,49,48354,2,0,L|204:102,1,60.0000022888184,6|4,3:0|3:0,0:0:0:0:
241,214,48634,2,0,L|272:139,1,60.0000022888184,6|4,3:0|3:0,0:0:0:0:
336,54,48915,2,0,L|335:113,1,60.0000022888184,6|4,3:0|3:0,0:0:0:0:
435,203,49195,2,0,L|409:135,1,60.0000022888184,6|4,3:0|3:0,0:0:0:0:
364,224,49475,5,6,3:0:0:0:
416,272,49615,1,4,3:0:0:0:
309,171,49756,1,4,3:0:0:0:
290,242,49896,1,4,3:0:0:0:
346,299,50036,2,0,L|346:366,1,60.0000022888184,6|0,3:0|3:0,0:0:0:0:
309,171,50316,2,0,L|310:90,1,60.0000022888184,6|0,3:0|3:0,0:0:0:0:
201,285,50597,54,0,P|192:238|146:192,1,100,2|0,0:0|0:0,0:0:0:0:
58,169,50877,1,8,0:0:0:0:
58,169,51017,1,0,0:0:0:0:
158,199,51158,70,0,P|199:175|229:117,1,100,2|0,0:0|0:0,0:0:0:0:
226,35,51438,1,8,0:0:0:0:
226,35,51578,1,0,0:0:0:0:
225,131,51718,38,0,P|259:163|324:173,1,100,2|0,0:0|0:0,0:0:0:0:
416,158,51999,1,8,0:0:0:0:
416,158,52139,1,0,0:0:0:0:
309,174,52279,70,0,P|289:216|299:281,1,100,2|0,0:0|0:0,0:0:0:0:
354,356,52559,1,8,0:0:0:0:
354,356,52700,1,0,0:0:0:0:
293,268,52840,70,0,B|241:254|201:283|201:283|160:285|160:285|147:336|147:336|118:239|118:239|95:291|95:291|67:289|48:311|48:311|31:269|16:195|85:160|110:153,1,575.999982421876,4|0,0:0|0:0,0:0:0:0:
151,97,55083,53,2,0:0:0:0:
300,81,55363,1,2,0:0:0:0:
151,97,55644,2,0,B|166:160|166:160|207:196,1,120.000004577637,8|2,0:0|0:0,0:0:0:0:
370,303,56204,54,0,B|349:315|349:315|311:315|311:315|282:340|282:340|263:346,1,120.000004577637,2|2,0:0|0:0,0:0:0:0:
70,316,56765,1,8,0:0:0:0:
70,316,57045,2,0,B|91:304|91:304|129:304|129:304|158:279|158:279|176:271,1,120.000004577637,2|2,0:0|0:0,0:0:0:0:
326,170,57606,2,0,B|287:121|287:121|231:107,2,120.000004577637,2|8|2,0:0|0:0|0:0,0:0:0:0:
206,262,58447,53,2,0:0:0:0:
77,180,58728,2,0,B|60:145|60:145|58:123,1,60.0000022888184,2|0,0:0|0:0,0:0:0:0:
195,30,59008,2,0,B|207:69|207:69|206:88,1,60.0000022888184,8|0,0:0|0:0,0:0:0:0:
203,261,59288,2,0,B|206:298|206:298|216:318,1,60.0000022888184,0|8,0:0|0:0,0:0:0:0:
352,257,59568,2,0,B|354:223|354:223|346:198,1,60.0000022888184,8|0,0:0|0:0,0:0:0:0:
364,47,59849,53,2,0:0:0:0:
471,129,60130,1,8,0:0:0:0:
485,264,60410,1,2,0:0:0:0:
383,356,60690,1,2,0:0:0:0:
249,300,60971,54,0,B|220:288|220:288|191:289,1,60.0000022888184,2|0,0:0|0:0,0:0:0:0:
316,194,61251,2,0,B|346:206|346:206|366:224,1,60.0000022888184,8|0,0:0|0:0,0:0:0:0:
252,100,61531,1,2,0:0:0:0:
145,54,61812,2,0,B|83:69|83:69|49:113,1,120.000004577637,2|2,0:0|0:0,0:0:0:0:
58,272,62372,1,8,0:0:0:0:
161,180,62653,1,2,0:0:0:0:
296,175,62933,2,0,B|283:243|283:243|248:280,1,120.000004577637,2|0,0:0|0:0,0:0:0:0:
364,322,63494,2,0,B|378:258|378:258|413:216,1,120.000004577637,8|2,0:0|0:0,0:0:0:0:
480,321,64055,21,2,0:0:0:0:
480,321,64335,1,2,0:0:0:0:
510,204,64615,2,0,P|486:151|433:125,1,120.000004577637,8|0,0:0|0:0,0:0:0:0:
318,160,65176,1,2,0:0:0:0:
420,223,65457,1,2,0:0:0:0:
317,159,65737,2,0,P|298:104|315:47,1,120.000004577637,8|0,0:0|0:0,0:0:0:0:
196,62,66298,70,0,L|176:118,1,60.0000022888184,2|0,0:0|0:0,0:0:0:0:
136,231,66578,1,2,0:0:0:0:
185,30,66858,1,8,0:0:0:0:
130,192,67139,1,2,0:0:0:0:
88,90,67419,2,0,P|42:127|21:182,1,120.000004577637,2|0,0:0|0:0,0:0:0:0:
38,296,67980,2,0,P|-9:221|5:134,1,180.000006866455,8|8,0:0|0:0,0:0:0:0:
89,90,68541,1,2,0:0:0:0:
120,205,68821,69,2,0:0:0:0:
221,268,69101,1,8,0:0:0:0:
331,220,69382,1,2,0:0:0:0:
221,268,69662,2,0,P|260:332|345:337,1,120.000004577637,2|2,0:0|0:0,0:0:0:0:
331,220,70223,2,0,P|292:156|207:151,1,120.000004577637,8|2,0:0|0:0,0:0:0:0:
134,169,70784,37,2,0:0:0:0:
167,53,71064,1,2,0:0:0:0:
134,169,71344,2,0,P|96:216|34:231,1,120.000004577637,8|0,0:0|0:0,0:0:0:0:
29,111,71905,1,2,0:0:0:0:
60,25,72045,69,0,3:0:0:0:
63,33,72115,1,0,3:0:0:0:
64,41,72186,2,0,P|93:61|106:85,1,60.0000022888184,0|0,3:0|3:0,0:0:0:0:
134,169,72466,1,0,3:0:0:0:
181,33,72606,1,0,3:0:0:0:
196,224,73027,2,0,P|224:302|208:223,1,240,4|0,0:0|0:0,0:0:0:0:
134,169,74148,21,0,2:0:0:0:
191,113,74429,1,0,2:0:0:0:
270,120,74709,1,2,2:0:0:0:
331,171,74989,1,0,2:0:0:0:
411,172,75270,2,0,L|445:113,1,40,2|0,2:0|2:0,0:0:0:0:
370,235,75550,1,0,2:0:0:0:
353,313,75830,2,0,P|324:355|284:365,1,80,2|0,0:0|0:0,0:0:0:0:
270,289,76391,2,0,L|190:293,1,80,0|0,2:0|0:0,0:0:0:0:
113,269,76952,2,0,P|137:231|189:217,1,80,2|0,0:0|0:0,0:0:0:0:
368,214,77513,38,0,P|419:184|346:167,1,160,4|0,0:0|0:0,0:0:0:0:
283,182,78354,69,0,2:0:0:0:
293,102,78634,1,0,2:0:0:0:
228,54,78915,1,0,2:0:0:0:
124,176,79055,85,0,0:0:0:0:
148,162,79125,1,0,0:0:0:0:
172,149,79195,1,0,0:0:0:0:
185,308,79475,1,2,0:0:0:0:
319,94,79756,37,4,0:0:0:0:
297,218,79896,1,0,0:0:0:0:
441,177,80036,1,0,0:0:0:0:
332,113,80176,1,0,0:0:0:0:
330,262,80316,1,4,0:0:0:0:
427,181,80457,1,0,0:0:0:0:
311,85,80597,37,4,0:0:0:0:
318,210,80737,1,0,0:0:0:0:
185,139,80877,1,4,0:0:0:0:
352,138,81017,1,0,0:0:0:0:
236,261,81158,1,0,0:0:0:0:
246,53,81298,1,4,0:0:0:0:
323,228,81438,69,0,0:0:0:0:
154,219,81578,1,0,0:0:0:0:
333,59,81718,1,4,0:0:0:0:
304,306,81858,1,0,0:0:0:0:
125,83,81999,22,0,P|95:68|118:148,1,191.999994140625,4|0,0:0|0:0,0:0:0:0:
184,140,82840,70,0,L|254:118,1,60.0000022888184,2|0,2:0|0:0,0:0:0:0:
106,154,83120,1,2,0:0:0:0:
157,213,83401,2,0,L|126:296,1,60.0000022888184,2|0,2:0|0:0,0:0:0:0:
184,141,83681,1,8,0:0:0:0:
219,265,83961,2,0,L|246:185,1,60.0000022888184,2|0,2:0|0:0,0:0:0:0:
179,341,84242,38,4,P|233:351|297:293,1,120.000004577637,0|0,0:0|0:0,0:0:0:0:
136,269,84802,69,2,0:0:0:0:
301,241,85083,2,0,L|323:164,1,60.0000022888184,2|2,0:0|0:0,0:0:0:0:
363,297,85363,2,0,L|394:361,1,60.0000022888184,2|0,0:0|0:0,0:0:0:0:
392,220,85644,2,0,L|416:144,1,60.0000022888184,2|0,2:0|0:0,0:0:0:0:
285,317,85924,1,8,0:0:0:0:
441,283,86204,2,2,L|482:364,1,60.0000022888184,2|2,2:0|2:0,2:0:0:0:
498,229,86485,38,0,P|446:201|389:218,1,120.000004577637,4|0,0:0|0:0,0:0:0:0:
512,308,87045,69,8,0:0:0:0:
356,296,87326,2,0,L|338:358,1,60.0000022888184,2|0,2:0|0:0,0:0:0:0:
314,225,87606,1,2,0:0:0:0:
333,143,87887,2,0,L|268:136,1,60.0000022888184,2|0,2:0|0:0,0:0:0:0:
403,98,88167,2,0,L|478:106,1,60.0000022888184,8|0,0:0|0:0,0:0:0:0:
205,100,88447,37,2,0:0:0:0:
273,16,88587,1,8,0:0:0:0:
231,205,88728,2,0,P|156:197|106:144,1,120.000004577637,2|0,0:0|0:0,0:0:0:0:
92,67,89148,2,0,P|104:128|64:198,1,120.000004577637,2|0,0:0|0:0,0:0:0:0:
3,253,89569,2,0,L|84:255,1,60.0000022888184,2|0,0:0|0:0,0:0:0:0:
170,250,89849,38,0,P|119:271|102:342,1,120.000004577637,2|0,0:0|3:0,0:0:0:0:
136,333,90200,1,0,3:0:0:0:
170,323,90270,1,0,0:0:0:0:
205,326,90340,1,0,0:0:0:0:
237,342,90410,1,0,0:0:0:0:
388,279,90971,70,0,P|405:216|365:156,1,120.000004577637,4|0,0:0|0:0,0:0:0:0:
334,95,91531,69,8,0:0:0:0:
299,171,91812,2,0,L|241:206,1,60.0000022888184,2|0,2:0|0:0,0:0:0:0:
255,105,92092,1,2,0:0:0:0:
284,32,92372,2,0,L|350:-1,1,60.0000022888184,2|8,2:0|0:0,0:0:0:0:
209,43,92653,2,0,L|145:38,1,60.0000022888184,2|0,2:0|0:0,0:0:0:0:
255,105,92933,1,8,0:0:0:0:
324,150,93073,1,8,0:0:0:0:
174,113,93214,38,0,P|210:174|279:181,1,120.000004577637,4|0,0:0|0:0,0:0:0:0:
149,38,93774,69,8,0:0:0:0:
98,98,94055,2,0,L|100:157,1,60.0000022888184,2|0,2:0|0:0,0:0:0:0:
71,25,94335,1,2,0:0:0:0:
171,112,94615,1,2,0:0:0:0:
100,157,94756,1,2,0:0:0:0:
17,144,94896,2,0,L|14:73,1,60.0000022888184,2|0,2:0|0:0,0:0:0:0:
47,224,95176,1,10,0:0:0:0:
18,298,95316,1,10,0:0:0:0:
179,199,95457,38,0,P|216:229|225:311,1,120.000004577637,4|0,0:0|0:0,0:0:0:0:
171,112,96017,69,8,0:0:0:0:
324,181,96298,1,0,0:0:0:0:
241,164,96438,1,0,0:0:0:0:
297,101,96578,2,0,L|269:25,1,60.0000022888184,2|0,0:0|0:0,0:0:0:0:
324,181,96858,2,0,L|345:239,1,60.0000022888184,2|8,2:0|0:0,0:0:0:0:
380,123,97139,1,0,0:0:0:0:
266,243,97419,1,0,0:0:0:0:
241,164,97559,1,8,0:0:0:0:
427,217,97700,38,0,P|423:281|382:330,1,120.000004577637,4|0,0:0|0:0,0:0:0:0:
222,323,98260,70,0,L|149:291,1,60.0000022888184,8|8,0:0|0:0,0:0:0:0:
90,248,98541,1,0,0:0:0:0:
303,286,98681,1,2,0:0:0:0:
235,240,98821,86,0,L|282:182,1,51.999997619629,8|0,0:0|0:0,0:0:0:0:
315,143,99101,1,2,2:0:0:0:
329,129,99382,1,2,2:0:0:0:
344,116,99662,1,2,2:0:0:0:
264,32,99943,53,2,0:0:0:0:
99,62,100223,1,2,0:0:0:0:
264,32,100503,2,0,B|313:62|313:62|346:119,1,120.000004577637,8|0,0:0|0:0,0:0:0:0:
212,316,101064,54,0,B|194:249|194:249|203:191,1,120.000004577637,2|2,0:0|0:0,0:0:0:0:
439,233,101625,1,8,0:0:0:0:
439,233,101905,2,0,B|405:233|405:233|377:245|377:245|343:240|343:240|308:250,1,120.000004577637,2|2,0:0|0:0,0:0:0:0:
132,98,102466,2,0,B|166:98|166:98|194:110|194:110|228:105|228:105|263:115,2,120.000004577637,2|8|2,0:0|0:0|0:0,0:0:0:0:
44,227,103307,53,2,0:0:0:0:
253,187,103587,2,0,B|220:178|220:178|188:184,1,60.0000022888184,2|0,0:0|0:0,0:0:0:0:
184,322,103868,2,0,B|216:330|216:330|248:324,1,60.0000022888184,8|0,0:0|0:0,0:0:0:0:
364,212,104148,2,0,B|390:207|390:207|422:215,1,60.0000022888184,2|8,0:0|0:0,0:0:0:0:
411,353,104429,2,0,B|384:357|384:357|352:349,1,60.0000022888184,2|0,0:0|0:0,0:0:0:0:
302,266,104709,53,2,0:0:0:0:
331,137,104989,1,8,0:0:0:0:
235,45,105270,1,2,0:0:0:0:
103,50,105550,1,2,0:0:0:0:
27,157,105830,54,0,B|58:165|58:165|108:155,1,60.0000022888184,2|0,0:0|0:0,0:0:0:0:
269,191,106111,2,0,B|237:208|237:208|189:218,1,60.0000022888184,8|0,0:0|0:0,0:0:0:0:
98,277,106391,1,2,0:0:0:0:
234,335,106672,2,0,B|303:322|303:322|347:276,1,120.000004577637,2|2,0:0|0:0,0:0:0:0:
391,159,107232,1,8,0:0:0:0:
294,68,107513,1,2,0:0:0:0:
162,80,107793,2,0,B|141:103|141:103|126:130|126:130|100:144|100:144|79:167,1,120.000004577637,2|0,0:0|0:0,0:0:0:0:
106,294,108354,2,0,B|125:272|125:272|151:258|151:258|166:231|166:231|187:208,1,120.000004577637,8|0,0:0|0:0,0:0:0:0:
296,160,108915,21,2,0:0:0:0:
296,160,109195,1,2,0:0:0:0:
402,215,109475,2,0,P|366:268|300:280,1,120.000004577637,8|2,0:0|0:0,0:0:0:0:
194,248,110036,1,2,0:0:0:0:
296,160,110316,1,2,0:0:0:0:
194,248,110597,2,0,P|183:307|218:370,1,120.000004577637,8|2,0:0|0:0,0:0:0:0:
79,269,111158,70,0,L|96:191,1,60.0000022888184,2|0,0:0|0:0,0:0:0:0:
139,102,111438,1,2,0:0:0:0:
97,303,111718,1,8,0:0:0:0:
147,138,111999,1,2,0:0:0:0:
194,248,112279,2,0,P|249:197|257:107,1,120.000004577637,2|2,0:0|0:0,0:0:0:0:
245,42,112840,2,0,P|293:161|265:221,1,180.000006866455,8|8,0:0|0:0,0:0:0:0:
194,248,113401,1,2,0:0:0:0:
284,326,113681,69,2,0:0:0:0:
383,259,113961,1,8,0:0:0:0:
277,203,114242,1,2,0:0:0:0:
383,259,114522,2,0,P|399:196|369:131,1,120.000004577637,2|2,0:0|0:0,0:0:0:0:
275,89,115083,2,0,P|258:151|288:216,1,120.000004577637,8|2,0:0|0:0,0:0:0:0:
360,288,115644,85,2,0:0:0:0:
244,320,115924,1,2,0:0:0:0:
360,288,116204,2,0,P|404:281|475:325,1,120.000004577637,8|2,0:0|0:0,0:0:0:0:
276,202,116765,1,2,0:0:0:0:
289,64,116905,21,0,0:0:0:0:
289,64,116975,1,0,0:0:0:0:
289,64,117045,1,0,0:0:0:0:
164,126,117186,1,8,0:0:0:0:
159,263,117326,2,0,L|188:344,1,60.0000022888184,8|2,0:0|3:0,0:0:0:0:
46,194,117606,2,0,L|16:115,1,60.0000022888184,2|2,0:0|3:0,0:0:0:0:
164,126,117887,85,4,0:0:0:0:
323,169,118167,1,2,0:0:0:0:
164,126,118447,2,0,P|140:200|200:277,1,160,8|2,0:0|0:0,0:0:0:0:
339,277,119008,70,0,P|303:207|206:195,1,160,2|2,0:0|0:0,0:0:0:0:
272,343,119569,2,0,P|337:372|420:335,1,160,8|2,0:0|0:0,0:0:0:0:
473,66,120130,38,0,P|485:154|402:222,1,191.999994140625,2|2,0:0|0:0,0:0:0:0:
286,239,120690,1,8,0:0:0:0:
390,117,120971,1,2,0:0:0:0:
396,276,121251,69,2,0:0:0:0:
385,258,121531,1,2,0:0:0:0:
373,238,121812,2,0,P|319:155|246:167,1,160,8|2,0:0|0:0,0:0:0:0:
197,195,122232,37,2,0:0:0:0:
191,114,122372,2,0,P|219:68|279:66,1,80,2|0,0:0|0:0,0:0:0:0:
313,45,122653,2,0,P|276:17|216:26,1,80,2|0,0:0|0:0,0:0:0:0:
175,42,122933,1,8,0:0:0:0:
114,179,123214,1,2,0:0:0:0:
279,138,123494,2,0,P|298:217|251:280,1,160,2|2,0:0|0:0,0:0:0:0:
98,313,124055,1,8,0:0:0:0:
207,196,124335,69,2,0:0:0:0:
193,355,124615,1,2,0:0:0:0:
109,220,124896,1,2,0:0:0:0:
255,277,125176,2,0,P|301:182|206:102,1,240,8|0,0:0|0:0,0:0:0:0:
139,71,125737,2,0,L|245:71,1,80,2|0,0:0|0:0,0:0:0:0:
298,75,126017,1,2,0:0:0:0:
192,195,126298,2,0,L|272:195,1,80,8|0,0:0|0:0,0:0:0:0:
351,194,126578,1,2,0:0:0:0:
317,350,126858,37,6,0:0:0:0:
272,195,127139,1,2,0:0:0:0:
431,200,127419,2,0,P|417:244|313:268,1,160,8|2,0:0|0:0,0:0:0:0:
299,110,127980,2,0,P|313:66|417:42,1,160,2|2,0:0|0:0,0:0:0:0:
354,189,128541,1,8,0:0:0:0:
227,91,128821,2,0,P|150:94|112:160,1,160,2|2,0:0|0:0,0:0:0:0:
253,236,129382,86,0,B|280:246|299:264|299:264|352:277|352:277|371:300|413:320,2,160,2|8|2,0:0|0:0|0:0,0:0:0:0:
410,205,130223,2,0,B|471:259|471:259|484:338,1,160,2|2,0:0|0:0,0:0:0:0:
329,185,130784,21,8,0:0:0:0:
314,44,131064,2,0,B|291:44|291:44|259:31|259:31|236:31,1,80,2|8,0:0|0:0,0:0:0:0:
171,30,131344,2,0,P|235:43|231:147,1,160,2|2,0:0|0:0,0:0:0:0:
139,218,131905,2,0,B|219:192|219:265|311:218,1,160,8|2,0:0|0:0,0:0:0:0:
120,126,132466,70,0,P|59:163|54:260,1,160,2|2,0:0|0:0,0:0:0:0:
179,335,133027,1,8,0:0:0:0:
295,226,133307,1,2,0:0:0:0:
135,211,133587,2,0,P|184:183|185:63,1,160,2|2,0:0|0:0,0:0:0:0:
54,19,134148,1,8,0:0:0:0:
124,123,134429,1,2,0:0:0:0:
276,169,134709,2,0,P|354:161|406:89,1,160,2|2,0:0|0:0,0:0:0:0:
271,10,135270,1,8,0:0:0:0:
461,174,135550,1,2,0:0:0:0:
348,57,135830,37,8,0:0:0:0:
291,278,136111,1,2,0:0:0:0:
223,60,136391,1,8,0:0:0:0:
380,225,136672,1,2,0:0:0:0:
187,157,136952,69,8,0:0:0:0:
223,357,137232,1,2,0:0:0:0:
89,202,137513,37,8,0:0:0:0:
282,265,137793,1,2,0:0:0:0:
79,304,138073,2,0,B|160:309|193:224|193:224|192:158|270:138|270:138|294:141|348:145|380:63|340:17|224:-7|208:119|286:177|286:177|346:184|367:252,1,704.000021484376,4|0,0:0|0:0,0:0:0:0:
404,342,140597,37,0,0:0:0:0:
451,238,140877,1,0,0:0:0:0:
508,342,141158,1,0,0:0:0:0:
362,239,141438,2,0,P|365:194|408:154,1,88.000002685547
460,153,141858,2,0,L|373:105,1,88.000002685547
316,71,142279,1,0,0:0:0:0:
86,115,142559,38,0,B|130:158|130:158|148:221|148:221|210:245|210:245|253:292,1,240.000009155274,4|4,0:0|0:0,0:0:0:0:
47,211,143401,1,0,0:0:0:0:
236,134,143681,2,0,B|290:153|290:153|338:215,2,120.000004577637,12|0|4,0:0|0:0|0:0,0:0:0:0:
163,325,144522,1,0,0:0:0:0:
365,299,144802,1,6,0:0:0:0:
338,96,145083,1,8,0:0:0:0:
338,96,145363,1,12,0:0:0:0:
134,112,145644,1,0,0:0:0:0:
332,170,145924,38,0,L|239:179,1,60.0000022888184,12|2,0:0|0:0,0:0:0:0:
69,191,146344,1,2,0:0:0:0:
272,179,146625,1,2,0:0:0:0:
170,185,146765,1,2,0:0:0:0:
368,230,147045,70,0,B|414:238|414:238|455:228|455:228|501:235,2,120.000004577637,12|0|4,0:0|0:0|0:0,0:0:0:0:
170,185,147887,1,0,0:0:0:0:
344,80,148167,2,0,L|213:54,2,120.000004577637,12|0|4,0:0|0:0|0:0,0:0:0:0:
242,266,149008,1,0,0:0:0:0:
51,279,149288,38,0,B|49:246|49:246|73:194,1,90.0000034332277,6|0,0:0|0:0,0:0:0:0:
113,161,149569,1,8,0:0:0:0:
139,253,149709,1,8,0:0:0:0:
179,140,149849,1,8,0:0:0:0:
139,253,149989,1,8,0:0:0:0:
247,151,150130,1,8,0:0:0:0:
139,253,150270,1,8,0:0:0:0:
303,196,150410,2,0,B|312:229|312:229|309:263,1,60.0000022888184,6|0,0:0|0:0,0:0:0:0:
204,338,150690,5,8,0:0:0:0:
213,297,150760,1,8,0:0:0:0:
242,266,150830,1,8,0:0:0:0:
281,250,150901,1,8,0:0:0:0:
310,254,150971,101,0,3:0:0:0:
335,261,151041,1,0,3:0:0:0:
356,260,151111,1,0,3:0:0:0:
371,248,151181,1,0,3:0:0:0:
380,227,151251,5,8,0:0:0:0:
381,195,151321,1,8,0:0:0:0:
359,167,151391,1,8,0:0:0:0:
348,134,151461,1,8,0:0:0:0:
361,102,151531,1,12,0:0:0:0:
410,324,151812,70,0,P|368:344|284:328,2,120.000004577637,2|4|0,0:0|0:0|0:0,0:0:0:0:
480,132,152653,1,12,0:0:0:0:
308,24,152933,2,0,L|387:37,1,60.0000022888184
465,60,153214,1,6,0:0:0:0:
264,88,153494,1,2,0:0:0:0:
393,227,153774,2,0,P|309:178|186:235,1,240.000009155274,4|4,0:0|0:0,0:0:0:0:
293,311,154896,21,4,0:0:0:0:
107,226,155176,1,2,0:0:0:0:
310,206,155457,5,4,0:0:0:0:
158,342,155737,1,2,0:0:0:0:
190,140,156017,69,4,0:0:0:0:
190,140,156298,2,0,P|225:94|304:73,2,120.000004577637,2|4|0,0:0|0:0|0:0,0:0:0:0:
296,314,157139,21,12,0:0:0:0:
318,111,157419,2,0,L|327:184,1,60.0000022888184
351,269,157700,1,6,0:0:0:0:
231,111,157980,1,2,0:0:0:0:
165,288,158260,85,4,0:0:0:0:
165,288,158541,2,0,P|225:257|248:191,2,120.000004577637,2|4|0,0:0|0:0|0:0,0:0:0:0:
191,85,159382,38,0,P|246:65|302:82,1,120.000004577637,8|0,0:0|0:0,0:0:0:0:
401,219,159943,2,0,P|316:176|238:224,1,180.000006866455,4|0,0:0|0:0,0:0:0:0:
226,311,160503,69,6,0:0:0:0:
110,142,160784,2,0,P|150:90|224:62,2,120.000004577637,2|4|0,0:0|0:0|0:0,0:0:0:0:
299,243,161625,21,4,0:0:0:0:
197,66,161905,2,0,L|211:137,1,60.0000022888184
219,226,162186,1,6,0:0:0:0:
275,29,162466,1,2,0:0:0:0:
393,195,162746,86,0,P|407:252|383:307,2,120.000004577637,4|0|4,0:0|0:0|0:0,0:0:0:0:
208,124,163587,1,0,0:0:0:0:
198,139,163658,1,0,0:0:0:0:
194,156,163728,1,0,0:0:0:0:
195,173,163798,1,0,0:0:0:0:
202,189,163868,2,0,P|257:143|325:151,1,120.000004577637,12|0,0:0|0:0,0:0:0:0:
292,284,164429,2,0,P|237:330|169:322,1,120.000004577637,6|0,0:0|0:0,0:0:0:0:
14,228,164989,21,6,0:0:0:0:
217,249,165270,1,2,0:0:0:0:
131,77,165550,1,12,0:0:0:0:
131,77,165830,1,2,0:0:0:0:
110,280,166111,5,6,0:0:0:0:
251,127,166391,1,2,0:0:0:0:
46,135,166672,1,12,0:0:0:0:
46,135,166952,1,2,0:0:0:0:
235,225,167232,21,6,0:0:0:0:
235,157,167372,1,0,0:0:0:0:
293,191,167513,1,2,0:0:0:0:
187,191,167653,101,0,0:0:0:0:
255,123,167793,1,12,0:0:0:0:
322,191,167933,1,0,0:0:0:0:
255,258,168073,1,2,0:0:0:0:
170,150,168214,53,0,0:0:0:0:
346,174,168354,1,6,0:0:0:0:
190,258,168494,1,4,3:0:0:0:
268,98,168634,1,8,3:0:0:0:
299,273,168774,1,2,3:0:0:0:
202,83,168915,5,12,0:0:0:0:
359,246,169055,1,0,0:0:0:0:
137,207,169195,1,2,0:0:0:0:
340,108,169335,1,0,0:0:0:0:
235,308,169475,1,6,0:0:0:0:
243,286,170036,37,0,2:0:0:0:
252,264,170597,1,0,2:0:0:0:
262,242,171158,1,0,2:0:0:0:
262,242,171438,2,0,L|308:159,1,80
370,259,171999,5,0,0:0:0:0:
289,316,172279,2,0,P|246:318|205:295,1,80,2|0,0:0|0:0,0:0:0:0:
203,206,172840,2,0,P|246:202|285:227,1,80,2|0,2:0|2:0,2:0:0:0:
350,309,173401,1,2,0:0:0:0:
474,337,173681,1,2,0:0:0:0:
393,200,173961,2,0,P|354:184|306:196,1,80,2|0,0:0|0:0,0:0:0:0:
245,275,174522,102,0,L|268:191,1,80
202,113,175083,1,0,0:0:0:0:
202,113,175363,2,0,L|172:206,1,80
152,268,175924,2,0,L|178:357,1,80
271,351,176485,1,0,0:0:0:0:
271,351,176765,2,0,P|253:313|243:268,1,80,2|0,0:0|0:0,0:0:0:0:
303,176,177326,6,0,P|314:141|361:111,1,80,2|0,0:0|0:0,0:0:0:0:
454,133,177887,1,0,0:0:0:0:
473,198,178027,1,0,0:0:0:0:
450,266,178167,1,0,0:0:0:0:
381,293,178307,1,0,0:0:0:0:
311,275,178447,2,0,P|340:310|345:351,1,80,2|0,0:0|0:0,0:0:0:0:
213,200,179008,2,0,P|248:170|289:166,1,80,2|0,0:0|0:0,0:0:0:0:
393,201,179569,102,0,L|383:148,1,40
374,100,179849,2,0,L|446:140,2,80
250,62,180690,6,0,L|253:112,1,40
262,166,180971,2,0,P|229:136|192:133,1,80,2|0,0:0|0:0,0:0:0:0:
191,262,181531,1,2,0:0:0:0:
318,267,181812,2,0,P|350:245|375:198,1,80,2|0,0:0|0:0,0:0:0:0:
448,77,182372,102,0,L|447:173,1,80
256,192,182933,12,0,186298,0:0:0:0:
109,188,200877,54,0,P|124:220|169:244,2,80,8|2|2,0:0|0:0|0:0,0:0:0:0:
202,59,201718,2,0,L|199:36,1,20,8|0,0:0|0:0,0:0:0:0:
260,146,201999,2,0,P|213:165|173:159,1,80,8|2,0:0|0:0,0:0:0:0:
45,85,202559,1,4,3:0:0:0:
45,85,202840,1,2,0:0:0:0:
40,244,203120,38,0,P|55:281|96:311,1,80,2|4,0:0|3:0,0:0:0:0:
187,182,203681,2,0,P|172:145|131:115,1,80,2|2,0:0|0:0,0:0:0:0:
175,297,204242,69,8,0:0:0:0:
293,189,204522,1,0,0:0:0:0:
297,173,204592,1,0,0:0:0:0:
294,157,204662,1,0,0:0:0:0:
286,142,204732,1,0,0:0:0:0:
278,127,204802,2,0,B|309:112|309:112|336:106|336:106|367:90,1,80,2|0,0:0|0:0,0:0:0:0:
87,59,205363,37,4,0:0:0:0:
331,174,209849,54,2,B|325:207|325:207|303:246,1,60.0000022888184
183,143,210130,1,2,0:0:0:0:
284,40,210410,1,8,0:0:0:0:
423,72,210690,1,2,0:0:0:0:
469,208,210971,1,2,0:0:0:0:
381,332,211251,54,0,B|354:349|354:349|314:353,1,60.0000022888184,2|0,0:0|0:0,0:0:0:0:
176,261,211531,2,0,B|206:271|206:271|241:267,1,60.0000022888184,8|0,0:0|0:0,0:0:0:0:
358,186,211812,1,2,0:0:0:0:
267,66,212092,2,0,B|224:114|224:114|212:177,1,120.000004577637,2|2,0:0|0:0,0:0:0:0:
195,346,212653,1,8,0:0:0:0:
132,185,212933,1,2,0:0:0:0:
38,338,213214,2,0,B|96:316|96:316|147:266,1,120.000004577637,2|0,0:0|0:0,0:0:0:0:
294,283,213774,2,0,B|236:305|236:305|185:355,1,120.000004577637,8|0,0:0|0:0,0:0:0:0:
453,352,214335,85,2,0:0:0:0:
453,352,214615,1,2,0:0:0:0:
362,273,214896,2,0,P|405:233|468:228,1,120.000004577637,8|2,0:0|0:0,0:0:0:0:
303,188,215457,1,2,0:0:0:0:
194,239,215737,1,2,0:0:0:0:
303,188,216017,2,0,P|274:136|220:111,1,120.000004577637,8|2,0:0|0:0,0:0:0:0:
381,65,216578,70,0,L|388:136,1,60.0000022888184,2|0,0:0|0:0,0:0:0:0:
398,238,216858,1,2,0:0:0:0:
342,31,217139,1,8,0:0:0:0:
355,213,217419,1,2,0:0:0:0:
256,135,217700,2,0,P|228:187|230:245,1,120.000004577637,2|2,0:0|0:0,0:0:0:0:
287,339,218261,2,0,P|213:289|190:204,1,180.000006866455,8|2,0:0|0:0,0:0:0:0:
256,135,218821,1,2,0:0:0:0:
313,240,219101,37,2,0:0:0:0:
422,190,219382,1,8,0:0:0:0:
368,82,219662,1,2,0:0:0:0:
422,190,219943,2,0,P|475:147|491:74,1,120.000004577637,2|2,0:0|0:0,0:0:0:0:
368,82,220503,2,0,P|315:125|299:198,1,120.000004577637,8|2,0:0|0:0,0:0:0:0:
365,295,221064,70,0,L|342:258,1,30.0000011444092,8|0,0:0|0:0,0:0:0:0:
225,249,221344,2,0,L|258:300,1,60.0000022888184,8|0,0:0|0:0,0:0:0:0:
167,157,221765,1,2,0:0:0:0:
167,157,221905,2,0,L|127:280,1,120.000004577637,2|0,0:0|0:0,0:0:0:0:
78,338,222326,1,2,0:0:0:0:
49,259,222466,1,2,0:0:0:0:
61,175,222606,1,2,0:0:0:0:
126,83,222746,2,0,L|104:103,1,30.0000011444092,8|0,0:0|0:0,0:0:0:0:
126,82,223307,69,4,0:0:0:0:
203,270,223587,1,2,0:0:0:0:
209,279,224148,85,0,0:0:0:0:
329,179,224429,1,8,0:0:0:0:
33,277,224989,21,2,0:0:0:0:
177,132,225270,1,2,0:0:0:0:
177,132,225550,85,0,0:0:0:0:
253,142,226111,1,0,0:0:0:0:
329,154,226391,1,0,0:0:0:0:
404,165,226672,21,10,0:0:0:0:
404,165,226952,1,0,0:0:0:0:
409,320,227232,85,10,0:0:0:0:
409,320,227513,1,0,0:0:0:0:
269,244,227793,21,2,0:0:0:0:
125,304,228073,2,0,L|62:348,1,60.0000022888184,2|0,0:0|0:0,0:0:0:0:
182,357,228354,2,0,P|198:333|200:290,1,60.0000022888184
161,236,228634,1,0,0:0:0:0:
239,100,228915,85,8,0:0:0:0:
239,100,229195,1,0,0:0:0:0:
335,221,229475,21,2,0:0:0:0:
429,96,229756,2,0,L|472:26,1,60.0000022888184,2|0,0:0|0:0,0:0:0:0:
356,58,230036,2,0,P|344:84|351:127,1,60.0000022888184
399,172,230316,85,0,0:0:0:0:
359,317,230597,2,0,P|304:291|283:251,1,90.0000034332277
297,230,230877,2,0,L|220:249,1,60.0000022888184,2|0,0:0|0:0,0:0:0:0:
163,260,231158,1,8,0:0:0:0:
264,149,231438,21,8,0:0:0:0:
243,153,231508,1,8,0:0:0:0:
217,159,231578,1,8,0:0:0:0:
184,166,231648,1,8,0:0:0:0:
145,173,231718,1,0,0:0:0:0:
77,138,231858,85,4,3:0:0:0:
181,84,231999,1,2,0:0:0:0:
187,243,232139,1,2,0:0:0:0:
100,56,232279,1,6,0:0:0:0:
100,56,232559,69,2,0:0:0:0:
260,57,232840,2,0,P|251:132|156:164,1,160,8|2,0:0|0:0,0:0:0:0:
250,313,233401,2,0,P|259:238|354:206,1,160,2|2,0:0|0:0,0:0:0:0:
484,237,233961,1,8,0:0:0:0:
424,88,234242,2,0,P|362:42|289:67,1,160,2|2,0:0|0:0,0:0:0:0:
200,199,234802,6,0,B|185:234|185:234|196:261|196:261|188:273|195:289|189:301|189:301|197:326|197:326|178:354,2,160,8|2|2,0:0|0:0|0:0,0:0:0:0:
348,135,235644,2,0,B|365:214|365:214|312:293,1,160,2|2,0:0|0:0,0:0:0:0:
182,201,236204,21,8,0:0:0:0:
197,60,236484,2,0,B|220:60|220:60|252:47|252:47|274:47,1,80,2|8,0:0|0:0,0:0:0:0:
340,46,236765,2,0,P|276:59|279:165,1,160,2|2,0:0|0:0,0:0:0:0:
364,266,237326,1,8,0:0:0:0:
321,112,237606,1,2,0:0:0:0:
425,234,237887,2,0,P|422:306|344:335,1,160,2|2,0:0|0:0,0:0:0:0:
265,199,238447,2,0,P|157:150|123:268,1,240,8|0,0:0|0:0,0:0:0:0:
142,310,239008,69,2,0:0:0:0:
35,190,239288,1,2,0:0:0:0:
168,101,239569,1,8,0:0:0:0:
168,101,239849,1,2,0:0:0:0:
195,258,240130,37,2,0:0:0:0:
70,112,240410,1,8,3:0:0:0:
233,0,240690,1,4,3:0:0:0:
233,0,240971,2,0,P|293:77|282:146,1,160,2|0,0:0|0:0,0:0:0:0:
191,207,241531,21,2,0:0:0:0:
309,224,241812,1,8,0:0:0:0:
91,324,242372,85,0,0:0:0:0:
201,276,242653,1,0,0:0:0:0:
91,324,242933,1,8,0:0:0:0:
53,99,243494,21,0,0:0:0:0:
122,196,243774,1,0,0:0:0:0:
131,3,244055,1,8,0:0:0:0:
126,122,244335,1,0,0:0:0:0:
234,71,244615,1,0,0:0:0:0:
59,287,245176,1,8,0:0:0:0:
263,160,245737,85,2,0:0:0:0:
263,160,246017,1,2,0:0:0:0:
469,38,246298,1,8,0:0:0:0:
425,273,246858,21,0,0:0:0:0:
411,153,247139,1,0,0:0:0:0:
425,273,247419,1,8,0:0:0:0:
185,283,247980,85,0,0:0:0:0:
425,273,248541,1,8,0:0:0:0:
234,127,249101,21,0,0:0:0:0:
290,233,249382,1,0,0:0:0:0:
234,127,249662,1,8,0:0:0:0:
348,338,250223,85,2,0:0:0:0:
348,338,250503,1,2,0:0:0:0:
136,224,250784,1,8,0:0:0:0:
273,27,251344,21,0,0:0:0:0:
207,128,251625,1,0,0:0:0:0:
273,27,251905,1,8,0:0:0:0:
454,184,252466,85,0,0:0:0:0:
427,300,252746,1,0,0:0:0:0:
351,123,253027,1,8,0:0:0:0:
395,234,253307,1,0,0:0:0:0:
277,212,253587,1,0,0:0:0:0:
428,25,254148,1,8,0:0:0:0:
256,192,254709,12,0,258915,0:0:0:0:
