osu file format v14

[General]
AudioFilename: audio.mp3
AudioLeadIn: 0
PreviewTime: -1
Countdown: 0
SampleSet: Soft
StackLeniency: 0.7
Mode: 0
LetterboxInBreaks: 0
WidescreenStoryboard: 1

[Editor]
DistanceSpacing: 1
BeatDivisor: 4
GridSize: 4
TimelineZoom: 2.500005

[Metadata]
Title:Caraphernelia
TitleUnicode:Caraphernelia
Artist:Pierce The Veil
ArtistUnicode:Pierce The Veil
Creator:Pittigbaasje
Version:Pittig2
Source:
Tags:Rock Metal Screamo
BeatmapID:1207476
BeatmapSetID:569581

[Difficulty]
HPDrainRate:6
CircleSize:4
OverallDifficulty:9
ApproachRate:9.4
SliderMultiplier:1.6
SliderTickRate:1

[Events]
//Background and Video events
//Break Periods
//Storyboard Layer 0 (Background)
//Storyboard Layer 1 (Fail)
//Storyboard Layer 2 (Pass)
//Storyboard Layer 3 (Foreground)
//Storyboard Sound Samples

[TimingPoints]
161,280.373831775701,4,2,0,100,1,0
161,-100,4,2,0,60,0,0
9413,-100,4,3,0,60,0,0
9693,-100,4,2,0,60,0,0
9974,-100,4,3,0,60,0,0
10254,-100,4,2,0,60,0,0
19226,-133.333333333333,4,2,0,60,0,0
28198,-111.111111111111,4,2,0,60,0,0
37170,-100,4,2,0,60,0,0
46142,-133.333333333333,4,2,0,60,0,0
52871,-153.846153846154,4,2,0,60,0,0
55044,-153.846153846154,4,2,0,10,0,0
55114,-125,4,2,0,60,0,0
58478,-100,4,2,0,60,0,0
59600,-125,4,2,0,60,0,0
62053,-125,4,2,0,10,0,0
62123,-125,4,2,0,60,0,0
62333,-125,4,2,0,10,0,0
62403,-125,4,2,0,60,0,0

[HitObjects]
128,284,161,5,4,0:0:0:0:
156,264,441,1,4,0:0:0:0:
184,244,721,1,4,0:0:0:0:
212,224,1002,1,4,0:0:0:0:
152,80,1142,1,0,0:0:0:0:
244,204,1282,5,2,0:0:0:0:
20,160,1422,1,8,0:0:0:0:
136,180,1562,1,2,0:0:0:0:
136,180,1632,1,2,0:0:0:0:
136,180,1703,1,8,0:0:0:0:
256,40,1843,6,2,L|244:152,1,80,2|8,0:0|0:0,0:0:0:0:
232,308,2123,1,2,0:0:0:0:
232,308,2193,1,2,0:0:0:0:
232,308,2263,1,8,0:0:0:0:
32,204,2403,6,0,L|136:168,1,80,2|8,0:0|0:0,0:0:0:0:
328,116,2684,1,2,0:0:0:0:
328,116,2754,1,2,0:0:0:0:
328,116,2824,1,8,0:0:0:0:
220,188,2964,5,2,0:0:0:0:
260,4,3104,1,8,0:0:0:0:
304,211,3245,1,2,0:0:0:0:
284,243,3315,1,2,0:0:0:0:
250,266,3385,1,2,0:0:0:0:
213,270,3455,1,2,0:0:0:0:
173,264,3525,6,0,L|115:176,1,80,2|8,0:0|0:0,0:0:0:0:
40,60,3805,1,2,0:0:0:0:
40,60,3875,1,2,0:0:0:0:
40,60,3946,1,8,0:0:0:0:
200,156,4086,1,2,0:0:0:0:
68,368,4226,1,8,0:0:0:0:
12,200,4366,1,2,0:0:0:0:
172,368,4506,1,8,0:0:0:0:
92,280,4646,1,2,0:0:0:0:
92,280,4717,1,2,0:0:0:0:
92,280,4787,1,8,0:0:0:0:
272,368,4927,5,2,0:0:0:0:
172,76,5067,1,8,0:0:0:0:
144,208,5207,1,6,0:0:0:0:
412,144,5347,1,8,0:0:0:0:
264,44,5488,5,2,0:0:0:0:
248,84,5558,1,2,0:0:0:0:
248,128,5628,1,8,0:0:0:0:
268,164,5698,1,2,0:0:0:0:
304,188,5768,6,0,L|408:144,1,80,6|8,0:0|0:0,0:0:0:0:
480,24,6048,1,2,0:0:0:0:
480,24,6118,1,2,0:0:0:0:
480,24,6189,1,8,0:0:0:0:
512,204,6329,1,2,0:0:0:0:
328,104,6469,1,8,0:0:0:0:
356,268,6609,1,2,0:0:0:0:
356,268,6679,1,2,0:0:0:0:
356,268,6749,1,8,0:0:0:0:
496,112,6889,6,0,L|400:88,1,80,2|8,0:0|0:0,0:0:0:0:
232,52,7170,1,2,0:0:0:0:
232,52,7240,1,2,0:0:0:0:
232,52,7310,1,8,0:0:0:0:
172,232,7450,1,2,0:0:0:0:
340,72,7590,1,8,0:0:0:0:
356,268,7731,1,2,0:0:0:0:
356,268,7801,1,2,0:0:0:0:
356,268,7871,1,8,0:0:0:0:
280,176,8011,5,2,0:0:0:0:
452,292,8151,2,0,P|420:340|304:344,1,160,8|0,0:0|0:0,0:0:0:0:
228,288,8572,1,2,0:0:0:0:
308,104,8712,1,8,0:0:0:0:
452,176,8852,1,2,0:0:0:0:
452,176,8922,1,2,0:0:0:0:
452,176,8992,1,8,0:0:0:0:
240,160,9132,6,0,L|144:152,1,80,2|8,0:0|0:0,0:0:0:0:
160,153,9343,1,0,0:0:0:0:
160,153,9413,1,8,0:0:0:0:
228,288,9553,1,8,0:0:0:0:
332,192,9693,2,0,L|332:100,1,80,6|8,0:0|0:0,0:0:0:0:
332,112,9903,1,8,0:0:0:0:
332,112,9974,1,8,0:0:0:0:
412,264,10114,1,8,0:0:0:0:
440,104,10254,5,6,0:0:0:0:
244,52,10394,2,0,P|180:64|108:144,1,160,8|8,0:0|0:0,0:0:0:0:
228,288,10815,1,2,0:0:0:0:
228,288,10955,2,0,P|292:276|364:196,1,160,8|8,0:0|0:0,0:0:0:0:
304,36,11375,1,2,0:0:0:0:
304,36,11516,2,8,P|241:16|140:53,1,160
192,344,11936,1,2,0:0:0:0:
192,344,12076,1,8,0:0:0:0:
300,204,12217,1,2,0:0:0:0:
300,204,12287,1,2,0:0:0:0:
300,204,12357,1,8,0:0:0:0:
132,136,12497,5,2,0:0:0:0:
132,136,12637,2,8,P|112:198|149:299,1,160
388,272,13058,1,2,0:0:0:0:
388,272,13198,2,8,P|407:209|370:108,1,160
284,40,13618,1,2,0:0:0:0:
212,164,13759,2,0,B|253:171|253:171|304:160,1,80,8|0,0:0|0:0,0:0:0:0:
368,40,14039,1,8,0:0:0:0:
212,80,14179,1,2,0:0:0:0:
340,228,14319,1,8,0:0:0:0:
300,92,14460,1,2,0:0:0:0:
300,92,14530,1,2,0:0:0:0:
300,92,14600,1,8,0:0:0:0:
256,284,14740,5,6,0:0:0:0:
404,176,14880,2,0,P|424:114|389:12,1,160,8|8,0:0|0:0,0:0:0:0:
172,20,15301,1,2,0:0:0:0:
172,20,15441,2,8,P|147:94|168:171,1,160
340,280,15861,1,2,0:0:0:0:
280,104,16002,1,8,0:0:0:0:
256,236,16142,1,2,0:0:0:0:
256,236,16212,1,2,0:0:0:0:
256,236,16282,1,8,0:0:0:0:
376,172,16422,1,2,0:0:0:0:
164,128,16562,1,8,0:0:0:0:
344,304,16703,2,0,P|384:308|432:296,1,80,2|8,0:0|0:0,0:0:0:0:
500,120,16983,5,6,0:0:0:0:
384,40,17123,1,2,0:0:0:0:
376,172,17263,1,8,0:0:0:0:
468,40,17403,1,6,0:0:0:0:
244,120,17544,1,8,0:0:0:0:
464,192,17684,1,8,0:0:0:0:
284,40,17824,5,6,0:0:0:0:
288,236,17964,1,8,0:0:0:0:
372,132,18104,1,8,0:0:0:0:
384,328,18245,1,6,0:0:0:0:
224,195,18385,1,8,0:0:0:0:
376,44,18525,1,8,0:0:0:0:
472,248,18665,2,0,P|424:252|388:248,1,80,6|0,0:0|0:0,0:0:0:0:
259,38,18946,2,0,P|307:34|343:38,1,80,6|0,0:0|0:0,0:0:0:0:
304,232,19226,6,0,P|256:244|168:224,1,120.000004577637,6|0,0:0|0:0,0:0:0:0:
100,144,19646,1,0,0:0:0:0:
192,56,19787,2,0,L|268:64,1,60.0000022888184,8|8,0:0|0:0,0:0:0:0:
360,128,20067,2,0,L|288:140,1,60.0000022888184
164,224,20347,2,0,L|168:152,1,60.0000022888184
320,8,20628,2,0,L|328:88,1,60.0000022888184
352,300,20908,2,0,L|284:304,1,60.0000022888184,8|8,0:0|0:0,0:0:0:0:
132,92,21189,2,0,L|200:88,1,60.0000022888184
409,51,21469,6,0,P|373:87|365:179,1,120.000004577637,2|0,0:0|0:0,0:0:0:0:
412,260,21889,1,0,0:0:0:0:
512,132,22030,2,8,L|448:136,1,60.0000022888184
328,228,22310,2,0,L|256:224,1,60.0000022888184
120,96,22590,2,0,P|140:168|136:236,1,120.000004577637
100,312,23011,1,0,0:0:0:0:
36,240,23151,1,8,0:0:0:0:
0,336,23291,1,0,0:0:0:0:
200,288,23432,1,2,0:0:0:0:
217,284,23502,1,2,0:0:0:0:
234,282,23572,1,2,0:0:0:0:
251,281,23642,1,2,0:0:0:0:
268,282,23712,6,0,P|334:294|397:288,1,120.000004577637,2|0,0:0|0:0,0:0:0:0:
472,188,24132,1,0,0:0:0:0:
380,72,24273,2,8,L|308:80,1,60.0000022888184
212,172,24553,2,0,L|280:180,1,60.0000022888184
402,232,24833,2,0,P|390:280|374:308,1,60.0000022888184
316,348,25114,1,0,0:0:0:0:
224,344,25254,1,0,0:0:0:0:
140,180,25394,2,0,P|132:136|132:100,1,60.0000022888184,8|2,0:0|0:0,0:0:0:0:
148,36,25675,1,0,0:0:0:0:
236,0,25815,1,0,0:0:0:0:
396,144,25955,6,0,P|351:179|273:196,1,120.000004577637,4|0,0:0|0:0,0:0:0:0:
140,180,26375,2,0,P|120:220|120:300,1,120.000004577637,4|0,0:0|0:0,0:0:0:0:
184,380,26796,2,0,P|212:372|268:372,1,60.0000022888184,4|0,0:0|0:0,0:0:0:0:
356,376,27076,2,0,P|340:328|344:240,1,120.000004577637,4|0,0:0|0:0,0:0:0:0:
468,64,27637,2,0,P|484:112|480:200,1,120.000004577637,4|0,0:0|0:0,0:0:0:0:
228,288,28198,6,0,P|224:240|232:192,1,71.9999978027344,2|0,0:0|0:0,0:0:0:0:
320,80,28478,1,8,0:0:0:0:
380,164,28618,1,8,0:0:0:0:
348,264,28759,2,0,L|316:352,1,71.9999978027344,2|0,0:0|0:0,0:0:0:0:
180,372,29039,1,8,0:0:0:0:
96,308,29179,1,8,0:0:0:0:
84,208,29319,2,0,L|76:112,1,71.9999978027344,2|0,0:0|0:0,0:0:0:0:
200,28,29600,1,8,0:0:0:0:
288,80,29740,1,8,0:0:0:0:
388,40,29880,2,0,L|464:8,1,71.9999978027344,2|0,0:0|0:0,0:0:0:0:
512,144,30161,2,8,L|436:112,1,71.9999978027344
472,244,30441,6,0,L|396:212,1,71.9999978027344,2|0,0:0|0:0,0:0:0:0:
280,160,30721,1,8,0:0:0:0:
176,148,30861,1,8,0:0:0:0:
96,212,31002,2,0,L|84:288,1,71.9999978027344,2|0,0:0|0:0,0:0:0:0:
224,372,31282,1,8,0:0:0:0:
320,336,31422,1,8,0:0:0:0:
364,244,31562,2,0,L|352:168,1,71.9999978027344,2|0,0:0|0:0,0:0:0:0:
240,56,31843,1,8,0:0:0:0:
176,148,31983,1,8,0:0:0:0:
280,160,32123,1,2,0:0:0:0:
144,56,32263,1,2,0:0:0:0:
144,56,32333,1,0,0:0:0:0:
144,56,32403,1,8,0:0:0:0:
64,128,32544,1,8,0:0:0:0:
88,240,32684,6,2,L|168:228,1,71.9999978027344
384,192,32964,1,8,0:0:0:0:
432,284,33104,1,8,0:0:0:0:
376,364,33245,2,0,L|304:352,1,71.9999978027344,2|0,0:0|0:0,0:0:0:0:
136,304,33525,1,8,0:0:0:0:
92,212,33665,1,8,0:0:0:0:
136,120,33805,2,2,L|208:100,1,71.9999978027344
388,152,34086,2,0,L|312:128,1,71.9999978027344,8|8,0:0|0:0,0:0:0:0:
200,264,34366,2,2,L|284:240,1,71.9999978027344
408,312,34646,1,8,0:0:0:0:
296,352,34787,1,8,0:0:0:0:
232,156,34927,6,0,L|248:64,1,71.9999978027344,6|8,0:0|0:0,0:0:0:0:
312,16,35207,1,0,0:0:0:0:
472,152,35347,2,0,L|456:240,1,71.9999978027344,6|8,0:0|0:0,0:0:0:0:
408,312,35628,1,8,0:0:0:0:
204,332,35768,2,0,L|116:304,1,71.9999978027344,6|8,0:0|0:0,0:0:0:0:
16,216,36048,2,0,L|92:192,1,71.9999978027344,4|2,0:0|0:0,0:0:0:0:
212,152,36329,1,8,0:0:0:0:
168,232,36469,1,8,0:0:0:0:
96,48,36609,1,6,0:0:0:0:
56,124,36749,1,2,0:0:0:0:
224,40,36889,1,2,0:0:0:0:
224,40,37030,1,2,0:0:0:0:
408,236,37170,6,0,P|328:252|256:228,1,160,6|8,0:0|0:0,0:0:0:0:
160,100,37590,1,0,0:0:0:0:
64,264,37731,2,2,P|160:268|176:264,1,80
336,152,38011,1,8,0:0:0:0:
128,92,38151,2,2,P|108:180|132:252,1,160
324,344,38572,2,0,P|336:288|336:240,1,80,8|0,0:0|0:0,0:0:0:0:
256,80,38852,1,2,0:0:0:0:
216,200,38992,1,2,0:0:0:0:
456,128,39132,1,8,0:0:0:0:
340,56,39273,1,0,0:0:0:0:
336,264,39413,6,2,L|420:256,1,80
480,140,39693,1,12,0:0:0:0:
360,68,39833,2,2,P|340:152|384:248,1,160
508,332,40254,2,0,P|440:320|400:324,1,80,8|2,0:0|0:0,0:0:0:0:
336,352,40534,1,0,0:0:0:0:
240,356,40675,1,2,0:0:0:0:
104,272,40815,2,0,P|96:228|104:180,1,80,12|0,0:0|0:0,0:0:0:0:
252,108,41095,2,0,P|260:152|252:200,1,80,2|2,0:0|0:0,0:0:0:0:
184,260,41375,1,8,0:0:0:0:
24,88,41516,1,8,0:0:0:0:
264,28,41656,6,0,P|308:48|336:96,1,80,2|2,0:0|0:0,0:0:0:0:
408,288,41936,1,8,0:0:0:0:
440,152,42076,1,0,0:0:0:0:
288,292,42217,2,0,P|244:300|196:292,1,80,0|2,0:0|0:0,0:0:0:0:
24,160,42497,1,8,0:0:0:0:
148,72,42637,1,2,0:0:0:0:
96,304,42777,2,0,P|56:307|17:299,1,80,0|2,0:0|0:0,0:0:0:0:
136,168,43058,2,0,P|175:164|214:172,1,80,8|0,0:0|0:0,0:0:0:0:
288,232,43338,1,2,0:0:0:0:
384,248,43478,1,2,0:0:0:0:
488,120,43618,5,8,0:0:0:0:
468,84,43689,1,8,0:0:0:0:
436,60,43759,1,8,0:0:0:0:
396,48,43829,1,8,0:0:0:0:
356,48,43899,2,2,P|300:56|276:56,1,80
28,4,44179,1,12,0:0:0:0:
132,232,44460,6,2,P|188:240|212:240,1,80
456,160,44740,1,12,0:0:0:0:
376,92,44880,1,0,0:0:0:0:
296,296,45020,2,2,B|344:320|344:320|396:312,1,80
500,280,45301,1,8,0:0:0:0:
392,216,45441,1,0,0:0:0:0:
232,348,45581,2,0,P|180:352|124:344,1,80,2|8,0:0|0:0,0:0:0:0:
116,340,45791,1,8,0:0:0:0:
80,324,45861,1,8,0:0:0:0:
12,148,46002,1,8,0:0:0:0:
180,32,46142,2,2,P|212:28|248:32,1,60.0000022888184
416,116,46422,6,0,P|420:148|416:184,1,60.0000022888184,8|2,0:0|0:0,0:0:0:0:
276,304,46703,2,2,P|272:272|276:236,1,60.0000022888184
360,60,46983,1,8,0:0:0:0:
480,64,47123,1,0,0:0:0:0:
274,244,47263,2,0,P|226:228|198:216,1,60.0000022888184,2|2,0:0|0:0,0:0:0:0:
44,140,47544,1,8,0:0:0:0:
172,88,47684,1,2,0:0:0:0:
112,332,47824,6,2,P|64:336|36:328,1,60.0000022888184
96,76,48104,1,8,0:0:0:0:
184,164,48245,1,2,0:0:0:0:
292,0,48385,1,2,0:0:0:0:
348,120,48525,1,2,0:0:0:0:
512,68,48665,1,8,0:0:0:0:
512,192,48805,1,2,0:0:0:0:
420,284,48946,6,2,P|372:288|336:284,1,60.0000022888184
160,336,49226,2,0,P|156:288|160:252,1,60.0000022888184,8|2,0:0|0:0,0:0:0:0:
224,88,49506,1,2,0:0:0:0:
332,144,49646,1,2,0:0:0:0:
156,276,49787,2,0,P|108:268|72:248,1,90.0000034332277,8|0,0:0|0:0,0:0:0:0:
40,224,50067,2,0,P|48:176|48:148,1,60.0000022888184,2|2,0:0|0:0,0:0:0:0:
48,0,50347,1,8,0:0:0:0:
132,80,50488,1,0,0:0:0:0:
312,16,50628,6,2,L|244:8,1,60.0000022888184
164,188,50908,2,0,L|236:200,1,60.0000022888184,8|2,0:0|0:0,0:0:0:0:
344,148,51189,1,2,0:0:0:0:
248,88,51329,1,2,0:0:0:0:
168,284,51469,2,0,L|232:280,1,60.0000022888184,8|2,0:0|0:0,0:0:0:0:
428,224,51749,2,2,L|348:216,1,60.0000022888184
188,94,52030,2,0,L|264:86,1,60.0000022888184,8|2,0:0|0:0,0:0:0:0:
424,68,52310,1,2,0:0:0:0:
324,16,52450,1,2,0:0:0:0:
292,208,52590,1,8,0:0:0:0:
292,208,52731,1,0,0:0:0:0:
504,280,52871,6,0,P|520:212|504:168,1,103.999995239258,6|0,0:0|0:0,0:0:0:0:
200,156,53432,2,0,P|184:224|204:272,1,103.999995239258
472,308,53992,2,0,P|488:240|476:192,1,103.999995239258
228,124,54553,2,0,P|212:192|260:304,1,181.999991668702
328,316,55114,6,0,L|392:308,1,64,6|0,0:0|0:0,0:0:0:0:
472,176,55394,2,0,L|404:168,1,64,2|0,0:0|0:0,0:0:0:0:
180,44,55675,2,0,P|148:84|152:184,1,128,8|2,0:0|0:0,0:0:0:0:
224,276,56095,1,0,0:0:0:0:
300,152,56235,2,0,L|312:80,1,64,6|0,0:0|0:0,0:0:0:0:
436,0,56516,2,0,L|446:63,1,64,2|0,0:0|0:0,0:0:0:0:
484,256,56796,2,0,P|440:248|420:248,1,64,8|0,0:0|0:0,0:0:0:0:
324,284,57076,1,2,0:0:0:0:
264,368,57217,1,0,0:0:0:0:
484,256,57357,6,0,L|480:176,1,64,6|0,0:0|0:0,0:0:0:0:
332,108,57637,2,0,L|328:171,1,64,2|0,0:0|0:0,0:0:0:0:
440,309,57918,2,0,P|472:257|477:169,1,128,8|2,0:0|0:0,0:0:0:0:
408,88,58338,1,0,0:0:0:0:
316,248,58478,2,0,P|268:256|212:236,1,80,6|0,0:0|0:0,0:0:0:0:
168,36,58759,2,0,P|216:28|272:48,1,80,2|0,0:0|0:0,0:0:0:0:
392,200,59039,2,0,P|404:252|388:300,1,80,8|0,0:0|0:0,0:0:0:0:
260,372,59319,1,2,0:0:0:0:
128,144,59460,1,8,0:0:0:0:
244,185,59600,6,0,L|236:261,1,64,6|0,0:0|0:0,0:0:0:0:
148,336,59880,2,0,L|140:268,1,64,2|0,0:0|0:0,0:0:0:0:
120,60,60161,2,0,P|180:88|264:76,1,128,8|2,0:0|0:0,0:0:0:0:
360,24,60581,1,2,0:0:0:0:
432,188,60721,2,0,L|352:184,1,64,2|0,0:0|0:0,0:0:0:0:
240,85,61002,2,0,L|320:80,1,64,2|0,0:0|0:0,0:0:0:0:
504,68,61282,2,0,P|520:132|504:204,1,128,12|2,0:0|0:0,0:0:0:0:
416,284,61703,1,0,0:0:0:0:
252,184,61843,6,0,P|204:176|132:196,1,96,2|0,0:0|0:0,0:0:0:0:
116,204,62123,2,0,P|128:152|124:104,1,96,2|0,0:0|0:0,0:0:0:0:
108,64,62403,2,0,P|160:80|252:64,1,128,8|2,0:0|0:0,0:0:0:0:
348,0,62824,1,0,0:0:0:0:
424,196,62964,2,0,P|420:236|356:320,1,128,2|0,0:0|0:0,0:0:0:0:
272,344,63385,1,0,0:0:0:0:
96,188,63525,2,0,L|100:108,1,64,8|0,0:0|0:0,0:0:0:0:
226,8,63805,2,0,L|234:92,1,64,2|0,0:0|0:0,0:0:0:0:
320,212,64086,5,2,0:0:0:0:
44,244,64366,1,2,0:0:0:0:
376,112,64646,2,0,P|416:148|432:248,1,128,8|2,0:0|0:0,0:0:0:0:
348,368,65207,5,2,0:0:0:0:
240,148,65488,1,2,0:0:0:0:
76,340,65768,2,0,P|136:352|224:320,1,128,8|2,0:0|0:0,0:0:0:0:
344,96,66329,5,2,0:0:0:0:
108,44,66609,1,2,0:0:0:0:
268,288,66889,1,8,0:0:0:0:
236,36,67170,1,2,0:0:0:0:
20,188,67450,2,0,P|70:230|149:260,1,128,2|2,0:0|0:0,0:0:0:0:
424,144,68011,1,8,0:0:0:0:
240,124,68291,2,0,L|224:196,1,64,2|8,0:0|0:0,0:0:0:0:
200,340,68572,6,0,P|256:308|304:304,1,96,2|0,0:0|0:0,0:0:0:0:
356,320,68852,2,0,P|400:328|464:316,1,96,2|0,0:0|0:0,0:0:0:0:
512,280,69132,1,8,0:0:0:0:
368,40,69413,5,2,0:0:0:0:
208,264,69693,1,2,0:0:0:0:
512,280,69974,1,2,0:0:0:0:
204,80,70254,1,8,0:0:0:0:
68,264,70534,5,2,0:0:0:0:
320,248,70815,2,2,P|332:208|320:112,1,128
72,8,71375,1,8,0:0:0:0:
8,196,71656,1,2,0:0:0:0:
224,120,71936,5,2,0:0:0:0:
32,92,72076,2,2,L|-24:84,2,32
124,116,72357,1,2,0:0:0:0:
88,204,72497,2,2,P|92:252|100:284,1,64
228,352,72777,2,2,P|233:320|235:288,1,64
172,44,73058,1,6,0:0:0:0:
