osu file format v14

[General]
AudioFilename: 07 - Bulletproof Love 1.250x (pitch raised).mp3
AudioLeadIn: 1500
PreviewTime: 53759
Countdown: 0
SampleSet: None
StackLeniency: 0.7
Mode: 3
LetterboxInBreaks: 0
SpecialStyle: 0
WidescreenStoryboard: 0

[Editor]
DistanceSpacing: 1
BeatDivisor: 6
GridSize: 16
TimelineZoom: 1.9

[Metadata]
Title:Bulletproof Love
TitleUnicode:Bulletproof Love
Artist:Pierce The Veil
ArtistUnicode:Pierce The Veil
Creator:Shoegazer
Version:Loveless 1.25x (180bpm)
Source:
Tags:selfish machines post hardcore wiosna
BeatmapID:3079230
BeatmapSetID:559456

[Difficulty]
HPDrainRate:8.5
CircleSize:4
OverallDifficulty:8.5
ApproachRate:9
SliderMultiplier:1.4
SliderTickRate:1

[Events]
//Background and Video events
0,0,"bulletproof-bg.png",0,0
//Break Periods
//Storyboard Layer 0 (Background)
//Storyboard Layer 1 (Fail)
//Storyboard Layer 2 (Pass)
//Storyboard Layer 3 (Foreground)
//Storyboard Layer 4 (Overlay)
//Storyboard Sound Samples

[TimingPoints]
426,333.3336,4,3,0,15,1,0

[HitObjects]
64,0,426,5,0,1:0:0:0:
192,0,426,1,0,0:0:0:0:
320,0,481,1,0,0:0:0:0:
192,0,536,1,0,0:0:0:0:
320,0,592,1,0,0:0:0:0:
64,0,648,1,0,0:0:0:0:
192,0,704,1,0,0:0:0:0:
320,0,759,1,0,0:0:0:0:
448,0,759,1,0,0:0:0:0:
64,0,815,1,0,0:0:0:0:
448,0,870,1,0,0:0:0:0:
192,0,926,1,0,0:0:0:0:
320,0,981,1,0,0:0:0:0:
192,0,1036,1,0,0:0:0:0:
64,0,1092,1,0,0:0:0:0:
448,0,1092,1,0,0:0:0:0:
320,0,1142,1,0,0:0:0:0:
448,0,1190,1,0,0:0:0:0:
192,0,1238,1,0,0:0:0:0:
320,0,1287,1,0,0:0:0:0:
64,0,1336,1,0,0:0:0:0:
320,0,1384,1,0,0:0:0:0:
448,0,1426,1,0,0:0:0:0:
192,0,1475,1,0,0:0:0:0:
64,0,1524,1,0,0:0:0:0:
448,0,1572,1,0,0:0:0:0:
320,0,1620,1,0,0:0:0:0:
192,0,1669,1,0,0:0:0:0:
64,0,1717,1,0,0:0:0:0:
320,0,1759,1,0,0:0:0:0:
448,0,1759,1,0,0:0:0:0:
192,0,1815,1,0,0:0:0:0:
320,0,1870,1,0,0:0:0:0:
448,0,1926,1,0,0:0:0:0:
64,0,1981,1,0,0:0:0:0:
192,0,2036,1,0,0:0:0:0:
320,0,2092,1,0,0:0:0:0:
448,0,2092,1,0,0:0:0:0:
64,0,2148,1,0,0:0:0:0:
320,0,2204,1,0,0:0:0:0:
192,0,2259,1,0,0:0:0:0:
448,0,2315,1,0,0:0:0:0:
192,0,2370,1,0,0:0:0:0:
64,0,2426,1,0,0:0:0:0:
320,0,2426,1,0,0:0:0:0:
448,0,2475,1,0,0:0:0:0:
64,0,2524,1,0,0:0:0:0:
192,0,2572,1,0,0:0:0:0:
320,0,2620,1,0,0:0:0:0:
448,0,2669,1,0,0:0:0:0:
64,0,2717,1,0,0:0:0:0:
192,0,2759,1,0,0:0:0:0:
448,0,2808,1,0,0:0:0:0:
192,0,2857,1,0,0:0:0:0:
320,0,2904,1,0,0:0:0:0:
448,0,2953,1,0,0:0:0:0:
192,0,3003,1,0,0:0:0:0:
320,0,3051,1,0,0:0:0:0:
64,0,3092,1,0,0:0:0:0:
192,0,3092,1,0,0:0:0:0:
448,0,3148,1,0,0:0:0:0:
192,0,3204,1,0,0:0:0:0:
448,0,3259,1,0,0:0:0:0:
64,0,3315,1,0,0:0:0:0:
320,0,3370,1,0,0:0:0:0:
192,0,3426,1,0,0:0:0:0:
448,0,3426,1,0,0:0:0:0:
64,0,3481,1,0,0:0:0:0:
448,0,3536,1,0,0:0:0:0:
320,0,3592,1,0,0:0:0:0:
448,0,3648,1,0,0:0:0:0:
64,0,3704,1,0,0:0:0:0:
192,0,3759,1,0,0:0:0:0:
320,0,3759,1,0,0:0:0:0:
64,0,3808,1,0,0:0:0:0:
320,0,3857,1,0,0:0:0:0:
448,0,3904,1,0,0:0:0:0:
192,0,3953,1,0,0:0:0:0:
64,0,4003,1,0,0:0:0:0:
320,0,4051,1,0,0:0:0:0:
192,0,4092,1,0,0:0:0:0:
320,0,4142,1,0,0:0:0:0:
64,0,4190,1,0,0:0:0:0:
448,0,4238,1,0,0:0:0:0:
192,0,4287,1,0,0:0:0:0:
320,0,4336,1,0,0:0:0:0:
448,0,4384,1,0,0:0:0:0:
64,0,4426,1,0,0:0:0:0:
192,0,4426,1,0,0:0:0:0:
320,0,4481,1,0,0:0:0:0:
192,0,4536,1,0,0:0:0:0:
320,0,4592,1,0,0:0:0:0:
64,0,4648,1,0,0:0:0:0:
192,0,4704,1,0,0:0:0:0:
320,0,4759,1,0,0:0:0:0:
448,0,4759,1,0,0:0:0:0:
64,0,4815,1,0,0:0:0:0:
320,0,4870,1,0,0:0:0:0:
192,0,4926,1,0,0:0:0:0:
448,0,4981,1,0,0:0:0:0:
192,0,5036,1,0,0:0:0:0:
64,0,5092,1,0,0:0:0:0:
320,0,5092,1,0,0:0:0:0:
448,0,5142,1,0,0:0:0:0:
64,0,5190,1,0,0:0:0:0:
192,0,5238,1,0,0:0:0:0:
320,0,5287,1,0,0:0:0:0:
64,0,5336,1,0,0:0:0:0:
192,0,5384,1,0,0:0:0:0:
448,0,5426,1,0,0:0:0:0:
64,0,5475,1,0,0:0:0:0:
448,0,5524,1,0,0:0:0:0:
320,0,5572,1,0,0:0:0:0:
192,0,5620,1,0,0:0:0:0:
64,0,5669,1,0,0:0:0:0:
320,0,5711,1,0,0:0:0:0:
64,0,5759,1,0,0:0:0:0:
192,0,5759,1,0,0:0:0:0:
448,0,5815,1,0,0:0:0:0:
192,0,5870,1,0,0:0:0:0:
448,0,5926,1,0,0:0:0:0:
64,0,5981,1,0,0:0:0:0:
192,0,6036,1,0,0:0:0:0:
320,0,6092,1,0,0:0:0:0:
448,0,6092,1,0,0:0:0:0:
64,0,6148,1,0,0:0:0:0:
448,0,6204,1,0,0:0:0:0:
192,0,6259,1,0,0:0:0:0:
320,0,6315,1,0,0:0:0:0:
192,0,6370,1,0,0:0:0:0:
64,0,6426,1,0,0:0:0:0:
448,0,6426,1,0,0:0:0:0:
320,0,6475,1,0,0:0:0:0:
448,0,6524,1,0,0:0:0:0:
192,0,6572,1,0,0:0:0:0:
320,0,6620,1,0,0:0:0:0:
64,0,6669,1,0,0:0:0:0:
320,0,6717,1,0,0:0:0:0:
192,0,6759,1,0,0:0:0:0:
448,0,6808,1,0,0:0:0:0:
320,0,6857,1,0,0:0:0:0:
192,0,6904,1,0,0:0:0:0:
448,0,6953,1,0,0:0:0:0:
192,0,7003,1,0,0:0:0:0:
64,0,7051,1,0,0:0:0:0:
320,0,7092,1,0,0:0:0:0:
448,0,7092,1,0,0:0:0:0:
192,0,7148,1,0,0:0:0:0:
320,0,7196,1,0,0:0:0:0:
448,0,7259,1,0,0:0:0:0:
64,0,7308,1,0,0:0:0:0:
192,0,7370,1,0,0:0:0:0:
448,0,7426,1,0,0:0:0:0:
320,0,7433,1,0,0:0:0:0:
64,0,7481,1,0,0:0:0:0:
320,0,7536,1,0,0:0:0:0:
192,0,7592,1,0,0:0:0:0:
448,0,7648,1,0,0:0:0:0:
192,0,7704,1,0,0:0:0:0:
64,0,7759,1,0,0:0:0:0:
320,0,7759,1,0,0:0:0:0:
448,0,7808,1,0,0:0:0:0:
64,0,7857,1,0,0:0:0:0:
192,0,7904,1,0,0:0:0:0:
320,0,7953,1,0,0:0:0:0:
448,0,8003,1,0,0:0:0:0:
64,0,8051,1,0,0:0:0:0:
192,0,8092,1,0,0:0:0:0:
448,0,8142,1,0,0:0:0:0:
192,0,8190,1,0,0:0:0:0:
320,0,8238,1,0,0:0:0:0:
448,0,8287,1,0,0:0:0:0:
192,0,8336,1,0,0:0:0:0:
320,0,8384,1,0,0:0:0:0:
64,0,8426,1,0,0:0:0:0:
192,0,8426,1,0,0:0:0:0:
448,0,8481,1,0,0:0:0:0:
192,0,8536,1,0,0:0:0:0:
448,0,8592,1,0,0:0:0:0:
64,0,8648,1,0,0:0:0:0:
320,0,8704,1,0,0:0:0:0:
192,0,8759,1,0,0:0:0:0:
448,0,8759,1,0,0:0:0:0:
64,0,8815,1,0,0:0:0:0:
448,0,8870,1,0,0:0:0:0:
320,0,8926,1,0,0:0:0:0:
448,0,8981,1,0,0:0:0:0:
64,0,9036,1,0,0:0:0:0:
192,0,9092,1,0,0:0:0:0:
320,0,9092,1,0,0:0:0:0:
64,0,9142,1,0,0:0:0:0:
320,0,9190,1,0,0:0:0:0:
448,0,9238,1,0,0:0:0:0:
192,0,9287,1,0,0:0:0:0:
64,0,9336,1,0,0:0:0:0:
448,0,9384,1,0,0:0:0:0:
192,0,9426,1,0,0:0:0:0:
320,0,9475,1,0,0:0:0:0:
192,0,9524,1,0,0:0:0:0:
448,0,9572,1,0,0:0:0:0:
320,0,9620,1,0,0:0:0:0:
192,0,9669,1,0,0:0:0:0:
64,0,9717,1,0,0:0:0:0:
320,0,9759,1,0,0:0:0:0:
448,0,9759,1,0,0:0:0:0:
192,0,9815,1,0,0:0:0:0:
320,0,9870,1,0,0:0:0:0:
64,0,9926,1,0,0:0:0:0:
192,0,9968,1,0,0:0:0:0:
320,0,10036,1,0,0:0:0:0:
192,0,10092,1,0,0:0:0:0:
448,0,10092,1,0,0:0:0:0:
64,0,10134,1,0,0:0:0:0:
320,0,10176,1,0,0:0:0:0:
192,0,10259,1,0,0:0:0:0:
448,0,10315,1,0,0:0:0:0:
192,0,10370,1,0,0:0:0:0:
64,0,10426,1,0,0:0:0:0:
320,0,10426,1,0,0:0:0:0:
448,0,10468,1,0,0:0:0:0:
192,0,10509,1,0,0:0:0:0:
320,0,10536,1,0,0:0:0:0:
64,0,10592,1,0,0:0:0:0:
192,0,10648,1,0,0:0:0:0:
448,0,10704,1,0,0:0:0:0:
320,0,10759,1,0,0:0:0:0:
64,0,10800,1,0,0:0:0:0:
320,0,10842,1,0,0:0:0:0:
192,0,10870,1,0,0:0:0:0:
448,0,10926,1,0,0:0:0:0:
320,0,10968,1,0,0:0:0:0:
192,0,11009,1,0,0:0:0:0:
448,0,11051,1,0,0:0:0:0:
192,0,11092,1,0,0:0:0:0:
320,0,11092,1,0,0:0:0:0:
320,0,11176,1,0,0:0:0:0:
64,0,11259,1,0,0:0:0:0:
448,0,11259,1,0,0:0:0:0:
192,0,11342,1,0,0:0:0:0:
320,0,11426,1,0,0:0:0:0:
448,0,11426,1,0,0:0:0:0:
64,0,11468,1,0,0:0:0:0:
320,0,11509,1,0,0:0:0:0:
192,0,11551,1,0,0:0:0:0:
448,0,11592,1,0,0:0:0:0:
64,0,11676,1,0,0:0:0:0:
192,0,11759,1,0,0:0:0:0:
320,0,11759,1,0,0:0:0:0:
448,0,11800,1,0,0:0:0:0:
192,0,11842,1,0,0:0:0:0:
64,0,11926,1,0,0:0:0:0:
320,0,11926,1,0,0:0:0:0:
448,0,12009,1,0,0:0:0:0:
64,0,12092,1,0,0:0:0:0:
192,0,12092,1,0,0:0:0:0:
320,0,12134,1,0,0:0:0:0:
192,0,12176,1,0,0:0:0:0:
64,0,12259,1,0,0:0:0:0:
448,0,12259,1,0,0:0:0:0:
192,0,12342,1,0,0:0:0:0:
320,0,12426,1,0,0:0:0:0:
448,0,12426,1,0,0:0:0:0:
64,0,12468,1,0,0:0:0:0:
320,0,12509,1,0,0:0:0:0:
192,0,12551,1,0,0:0:0:0:
64,0,12592,1,0,0:0:0:0:
448,0,12676,1,0,0:0:0:0:
192,0,12759,1,0,0:0:0:0:
320,0,12759,1,0,0:0:0:0:
64,0,12800,1,0,0:0:0:0:
320,0,12842,1,0,0:0:0:0:
192,0,12926,1,0,0:0:0:0:
448,0,12926,1,0,0:0:0:0:
192,0,13009,1,0,0:0:0:0:
320,0,13092,1,0,0:0:0:0:
448,0,13092,1,0,0:0:0:0:
64,0,13134,1,0,0:0:0:0:
448,0,13176,1,0,0:0:0:0:
64,0,13259,1,0,0:0:0:0:
192,0,13259,1,0,0:0:0:0:
320,0,13342,1,0,0:0:0:0:
192,0,13426,1,0,0:0:0:0:
448,0,13426,1,0,0:0:0:0:
320,0,13468,1,0,0:0:0:0:
192,0,13509,1,0,0:0:0:0:
64,0,13592,1,0,0:0:0:0:
448,0,13592,1,0,0:0:0:0:
192,0,13676,1,0,0:0:0:0:
320,0,13759,1,0,0:0:0:0:
448,0,13759,1,0,0:0:0:0:
64,0,13800,1,0,0:0:0:0:
448,0,13842,1,0,0:0:0:0:
192,0,13926,1,0,0:0:0:0:
320,0,14009,1,0,0:0:0:0:
64,0,14092,1,0,0:0:0:0:
192,0,14092,1,0,0:0:0:0:
448,0,14134,1,0,0:0:0:0:
192,0,14176,1,0,0:0:0:0:
320,0,14217,1,0,0:0:0:0:
64,0,14259,1,0,0:0:0:0:
192,0,14342,1,0,0:0:0:0:
448,0,14426,1,0,0:0:0:0:
320,0,14468,1,0,0:0:0:0:
192,0,14509,1,0,0:0:0:0:
320,0,14551,1,0,0:0:0:0:
64,0,14592,1,0,0:0:0:0:
192,0,14634,1,0,0:0:0:0:
320,0,14676,1,0,0:0:0:0:
192,0,14717,1,0,0:0:0:0:
448,0,14759,1,0,0:0:0:0:
320,0,14800,1,0,0:0:0:0:
448,0,14842,1,0,0:0:0:0:
64,0,14884,1,0,0:0:0:0:
320,0,14926,1,0,0:0:0:0:
64,0,14968,1,0,0:0:0:0:
320,0,15009,1,0,0:0:0:0:
192,0,15051,1,0,0:0:0:0:
64,0,15092,1,0,0:0:0:0:
448,0,15092,1,0,0:0:0:0:
320,0,15134,1,0,0:0:0:0:
448,0,15176,1,0,0:0:0:0:
64,0,15259,1,0,0:0:0:0:
192,0,15259,1,0,0:0:0:0:
320,0,15342,1,0,0:0:0:0:
64,0,15426,1,0,0:0:0:0:
448,0,15426,1,0,0:0:0:0:
192,0,15468,1,0,0:0:0:0:
448,0,15509,1,0,0:0:0:0:
192,0,15551,1,0,0:0:0:0:
320,0,15592,1,0,0:0:0:0:
64,0,15676,1,0,0:0:0:0:
192,0,15759,1,0,0:0:0:0:
320,0,15800,1,0,0:0:0:0:
448,0,15842,1,0,0:0:0:0:
192,0,15884,1,0,0:0:0:0:
320,0,15926,1,0,0:0:0:0:
64,0,15968,1,0,0:0:0:0:
320,0,16009,1,0,0:0:0:0:
64,0,16092,1,0,0:0:0:0:
192,0,16092,1,0,0:0:0:0:
448,0,16134,1,0,0:0:0:0:
192,0,16176,1,0,0:0:0:0:
320,0,16259,1,0,0:0:0:0:
448,0,16259,1,0,0:0:0:0:
320,0,16342,1,0,0:0:0:0:
64,0,16426,1,0,0:0:0:0:
448,0,16426,1,0,0:0:0:0:
192,0,16468,1,0,0:0:0:0:
448,0,16509,1,0,0:0:0:0:
64,0,16592,1,0,0:0:0:0:
320,0,16592,1,0,0:0:0:0:
192,0,16676,1,0,0:0:0:0:
320,0,16759,1,0,0:0:0:0:
448,0,16759,1,0,0:0:0:0:
64,0,16800,1,0,0:0:0:0:
448,0,16842,1,0,0:0:0:0:
192,0,16884,1,0,0:0:0:0:
320,0,16926,1,0,0:0:0:0:
64,0,17009,1,0,0:0:0:0:
192,0,17092,1,0,0:0:0:0:
320,0,17092,1,0,0:0:0:0:
64,0,17134,1,0,0:0:0:0:
320,0,17176,1,0,0:0:0:0:
64,0,17259,1,0,0:0:0:0:
192,0,17259,1,0,0:0:0:0:
320,0,17342,1,0,0:0:0:0:
192,0,17426,1,0,0:0:0:0:
448,0,17426,1,0,0:0:0:0:
64,0,17468,1,0,0:0:0:0:
192,0,17509,1,0,0:0:0:0:
320,0,17592,1,0,0:0:0:0:
448,0,17592,1,0,0:0:0:0:
64,0,17676,1,0,0:0:0:0:
192,0,17759,1,0,0:0:0:0:
320,0,17800,1,0,0:0:0:0:
64,0,17842,1,0,0:0:0:0:
320,0,17884,1,0,0:0:0:0:
192,0,17926,1,0,0:0:0:0:
448,0,17968,1,0,0:0:0:0:
320,0,18009,1,0,0:0:0:0:
192,0,18051,1,0,0:0:0:0:
64,0,18092,1,0,0:0:0:0:
448,0,18092,1,0,0:0:0:0:
320,0,18134,1,0,0:0:0:0:
320,0,18225,1,0,0:0:0:0:
64,0,18259,1,0,0:0:0:0:
192,0,18259,1,0,0:0:0:0:
448,0,18300,1,0,0:0:0:0:
448,0,18392,1,0,0:0:0:0:
64,0,18426,1,0,0:0:0:0:
320,0,18426,1,0,0:0:0:0:
192,0,18468,1,0,0:0:0:0:
192,0,18558,1,0,0:0:0:0:
64,0,18592,1,0,0:0:0:0:
448,0,18634,1,0,0:0:0:0:
64,0,18676,1,0,0:0:0:0:
320,0,18759,1,0,0:0:0:0:
448,0,18759,1,0,0:0:0:0:
192,0,18800,1,0,0:0:0:0:
448,0,18842,1,0,0:0:0:0:
64,0,18926,1,0,0:0:0:0:
192,0,18926,1,0,0:0:0:0:
320,0,19009,1,0,0:0:0:0:
64,0,19092,1,0,0:0:0:0:
448,0,19092,1,0,0:0:0:0:
320,0,19134,1,0,0:0:0:0:
64,0,19176,1,0,0:0:0:0:
192,0,19217,1,0,0:0:0:0:
320,0,19259,1,0,0:0:0:0:
192,0,19342,1,0,0:0:0:0:
320,0,19426,1,0,0:0:0:0:
448,0,19426,1,0,0:0:0:0:
64,0,19468,1,0,0:0:0:0:
320,0,19509,1,0,0:0:0:0:
192,0,19551,1,0,0:0:0:0:
448,0,19592,1,0,0:0:0:0:
192,0,19676,1,0,0:0:0:0:
64,0,19759,1,0,0:0:0:0:
320,0,19800,1,0,0:0:0:0:
448,0,19842,1,0,0:0:0:0:
192,0,19884,1,0,0:0:0:0:
320,0,19926,1,0,0:0:0:0:
64,0,19968,1,0,0:0:0:0:
192,0,20009,1,0,0:0:0:0:
448,0,20051,1,0,0:0:0:0:
64,0,20092,1,0,0:0:0:0:
320,0,20092,1,0,0:0:0:0:
192,0,20134,1,0,0:0:0:0:
320,0,20176,1,0,0:0:0:0:
64,0,20259,1,0,0:0:0:0:
192,0,20259,1,0,0:0:0:0:
448,0,20300,1,0,0:0:0:0:
192,0,20342,1,0,0:0:0:0:
320,0,20426,1,0,0:0:0:0:
448,0,20426,1,0,0:0:0:0:
64,0,20717,128,0,21092:0:0:0:0:
192,0,21092,1,0,0:0:0:0:
320,0,21092,128,0,21426:0:0:0:0:
448,0,21176,1,0,0:0:0:0:
64,0,21259,1,0,0:0:0:0:
192,0,21259,1,0,0:0:0:0:
64,0,21342,1,0,0:0:0:0:
192,0,21426,1,0,0:0:0:0:
448,0,21426,1,0,0:0:0:0:
320,0,21509,1,0,0:0:0:0:
448,0,21509,1,0,0:0:0:0:
320,0,21592,1,0,0:0:0:0:
64,0,21676,1,0,0:0:0:0:
320,0,21759,1,0,0:0:0:0:
448,0,21759,1,0,0:0:0:0:
192,0,21800,1,0,0:0:0:0:
320,0,21842,1,0,0:0:0:0:
64,0,21884,1,0,0:0:0:0:
192,0,21926,1,0,0:0:0:0:
320,0,22009,1,0,0:0:0:0:
64,0,22092,1,0,0:0:0:0:
192,0,22092,1,0,0:0:0:0:
320,0,22134,1,0,0:0:0:0:
64,0,22176,1,0,0:0:0:0:
192,0,22259,1,0,0:0:0:0:
320,0,22259,1,0,0:0:0:0:
448,0,22342,1,0,0:0:0:0:
64,0,22426,1,0,0:0:0:0:
320,0,22426,1,0,0:0:0:0:
192,0,22468,1,0,0:0:0:0:
320,0,22509,1,0,0:0:0:0:
64,0,22592,1,0,0:0:0:0:
192,0,22592,1,0,0:0:0:0:
320,0,22676,1,0,0:0:0:0:
64,0,22759,1,0,0:0:0:0:
448,0,22759,1,0,0:0:0:0:
192,0,22800,1,0,0:0:0:0:
64,0,22842,1,0,0:0:0:0:
320,0,22926,1,0,0:0:0:0:
448,0,22926,1,0,0:0:0:0:
192,0,23009,1,0,0:0:0:0:
64,0,23092,1,0,0:0:0:0:
320,0,23092,1,0,0:0:0:0:
448,0,23134,1,0,0:0:0:0:
64,0,23176,1,0,0:0:0:0:
192,0,23217,1,0,0:0:0:0:
320,0,23259,1,0,0:0:0:0:
192,0,23300,1,0,0:0:0:0:
320,0,23342,1,0,0:0:0:0:
448,0,23384,1,0,0:0:0:0:
64,0,23426,1,0,0:0:0:0:
192,0,23426,1,0,0:0:0:0:
320,0,23468,1,0,0:0:0:0:
192,0,23509,1,0,0:0:0:0:
64,0,23592,1,0,0:0:0:0:
320,0,23592,1,0,0:0:0:0:
320,0,23676,1,0,0:0:0:0:
64,0,23759,1,0,0:0:0:0:
192,0,23759,1,0,0:0:0:0:
448,0,23787,1,0,0:0:0:0:
64,0,23842,1,0,0:0:0:0:
192,0,23926,1,0,0:0:0:0:
448,0,23926,1,0,0:0:0:0:
64,0,23968,1,0,0:0:0:0:
320,0,24009,1,0,0:0:0:0:
64,0,24092,1,0,0:0:0:0:
192,0,24092,1,0,0:0:0:0:
448,0,24134,1,0,0:0:0:0:
192,0,24176,1,0,0:0:0:0:
320,0,24259,1,0,0:0:0:0:
64,0,24300,1,0,0:0:0:0:
448,0,24342,1,0,0:0:0:0:
64,0,24426,1,0,0:0:0:0:
192,0,24426,1,0,0:0:0:0:
320,0,24468,1,0,0:0:0:0:
192,0,24509,1,0,0:0:0:0:
448,0,24551,1,0,0:0:0:0:
320,0,24592,1,0,0:0:0:0:
320,0,24676,1,0,0:0:0:0:
64,0,24759,1,0,0:0:0:0:
192,0,24759,1,0,0:0:0:0:
448,0,24800,1,0,0:0:0:0:
192,0,24842,1,0,0:0:0:0:
64,0,24884,1,0,0:0:0:0:
320,0,24926,1,0,0:0:0:0:
320,0,25009,1,0,0:0:0:0:
192,0,25092,1,0,0:0:0:0:
448,0,25092,1,0,0:0:0:0:
64,0,25134,1,0,0:0:0:0:
320,0,25176,1,0,0:0:0:0:
192,0,25217,1,0,0:0:0:0:
448,0,25259,1,0,0:0:0:0:
320,0,25300,1,0,0:0:0:0:
192,0,25342,1,0,0:0:0:0:
64,0,25384,1,0,0:0:0:0:
320,0,25426,1,0,0:0:0:0:
448,0,25468,1,0,0:0:0:0:
320,0,25509,1,0,0:0:0:0:
192,0,25551,1,0,0:0:0:0:
64,0,25592,1,0,0:0:0:0:
448,0,25592,1,0,0:0:0:0:
448,0,25676,1,0,0:0:0:0:
64,0,25759,1,0,0:0:0:0:
320,0,25759,1,0,0:0:0:0:
192,0,25800,1,0,0:0:0:0:
448,0,25842,1,0,0:0:0:0:
320,0,25884,1,0,0:0:0:0:
192,0,25926,1,0,0:0:0:0:
64,0,26009,1,0,0:0:0:0:
320,0,26092,1,0,0:0:0:0:
448,0,26092,1,0,0:0:0:0:
64,0,26128,1,0,0:0:0:0:
448,0,26176,1,0,0:0:0:0:
192,0,26259,1,0,0:0:0:0:
320,0,26342,1,0,0:0:0:0:
64,0,26426,1,0,0:0:0:0:
448,0,26426,1,0,0:0:0:0:
192,0,26468,1,0,0:0:0:0:
448,0,26509,1,0,0:0:0:0:
320,0,26551,1,0,0:0:0:0:
64,0,26592,1,0,0:0:0:0:
192,0,26592,1,0,0:0:0:0:
64,0,26676,1,0,0:0:0:0:
192,0,26676,1,0,0:0:0:0:
320,0,26759,1,0,0:0:0:0:
448,0,26759,1,0,0:0:0:0:
64,0,26800,1,0,0:0:0:0:
320,0,26842,1,0,0:0:0:0:
64,0,26926,1,0,0:0:0:0:
192,0,26926,1,0,0:0:0:0:
320,0,27009,1,0,0:0:0:0:
64,0,27092,1,0,0:0:0:0:
448,0,27092,1,0,0:0:0:0:
192,0,27134,1,0,0:0:0:0:
320,0,27176,1,0,0:0:0:0:
64,0,27217,1,0,0:0:0:0:
320,0,27259,1,0,0:0:0:0:
192,0,27342,1,0,0:0:0:0:
320,0,27426,1,0,0:0:0:0:
448,0,27426,1,0,0:0:0:0:
192,0,27468,1,0,0:0:0:0:
448,0,27509,1,0,0:0:0:0:
64,0,27592,1,0,0:0:0:0:
192,0,27592,1,0,0:0:0:0:
320,0,27676,1,0,0:0:0:0:
192,0,27759,1,0,0:0:0:0:
448,0,27759,1,0,0:0:0:0:
64,0,27800,1,0,0:0:0:0:
448,0,27842,1,0,0:0:0:0:
320,0,27884,1,0,0:0:0:0:
64,0,27926,1,0,0:0:0:0:
192,0,27926,1,0,0:0:0:0:
448,0,28009,1,0,0:0:0:0:
192,0,28092,1,0,0:0:0:0:
320,0,28092,1,0,0:0:0:0:
64,0,28134,1,0,0:0:0:0:
320,0,28176,1,0,0:0:0:0:
192,0,28259,1,0,0:0:0:0:
448,0,28259,1,0,0:0:0:0:
64,0,28342,1,0,0:0:0:0:
192,0,28426,1,0,0:0:0:0:
448,0,28426,1,0,0:0:0:0:
64,0,28468,1,0,0:0:0:0:
448,0,28509,1,0,0:0:0:0:
320,0,28551,1,0,0:0:0:0:
192,0,28592,1,0,0:0:0:0:
64,0,28634,1,0,0:0:0:0:
320,0,28676,1,0,0:0:0:0:
64,0,28759,1,0,0:0:0:0:
192,0,28759,1,0,0:0:0:0:
448,0,28800,1,0,0:0:0:0:
448,0,28892,1,0,0:0:0:0:
64,0,28926,1,0,0:0:0:0:
320,0,28926,1,0,0:0:0:0:
192,0,28968,1,0,0:0:0:0:
192,0,29058,1,0,0:0:0:0:
320,0,29092,1,0,0:0:0:0:
448,0,29092,1,0,0:0:0:0:
64,0,29134,1,0,0:0:0:0:
64,0,29225,1,0,0:0:0:0:
192,0,29259,1,0,0:0:0:0:
320,0,29259,1,0,0:0:0:0:
448,0,29300,1,0,0:0:0:0:
320,0,29342,1,0,0:0:0:0:
64,0,29426,1,0,0:0:0:0:
192,0,29426,1,0,0:0:0:0:
448,0,29468,1,0,0:0:0:0:
192,0,29509,1,0,0:0:0:0:
320,0,29551,1,0,0:0:0:0:
448,0,29592,1,0,0:0:0:0:
192,0,29634,1,0,0:0:0:0:
64,0,29676,1,0,0:0:0:0:
192,0,29759,1,0,0:0:0:0:
320,0,29759,1,0,0:0:0:0:
64,0,29800,1,0,0:0:0:0:
320,0,29842,1,0,0:0:0:0:
192,0,29926,1,0,0:0:0:0:
448,0,29926,1,0,0:0:0:0:
64,0,29968,1,0,0:0:0:0:
448,0,30009,1,0,0:0:0:0:
64,0,30092,1,0,0:0:0:0:
192,0,30092,1,0,0:0:0:0:
320,0,30134,1,0,0:0:0:0:
192,0,30176,1,0,0:0:0:0:
448,0,30217,1,0,0:0:0:0:
320,0,30259,1,0,0:0:0:0:
320,0,30342,1,0,0:0:0:0:
64,0,30426,1,0,0:0:0:0:
192,0,30426,1,0,0:0:0:0:
320,0,30468,1,0,0:0:0:0:
192,0,30509,1,0,0:0:0:0:
448,0,30551,1,0,0:0:0:0:
320,0,30592,1,0,0:0:0:0:
64,0,30634,1,0,0:0:0:0:
320,0,30676,1,0,0:0:0:0:
192,0,30717,1,0,0:0:0:0:
448,0,30759,1,0,0:0:0:0:
64,0,30800,1,0,0:0:0:0:
448,0,30842,1,0,0:0:0:0:
320,0,30884,1,0,0:0:0:0:
64,0,30926,1,0,0:0:0:0:
192,0,30926,1,0,0:0:0:0:
448,0,30968,1,0,0:0:0:0:
64,0,31009,1,0,0:0:0:0:
192,0,31009,1,0,0:0:0:0:
64,0,31092,1,0,0:0:0:0:
192,0,31092,1,0,0:0:0:0:
448,0,31092,1,0,0:0:0:0:
192,0,31426,128,0,31759:0:0:0:0:
448,0,31759,128,0,32092:0:0:0:0:
320,0,32092,128,0,32426:0:0:0:0:
64,0,32426,1,0,0:0:0:0:
192,0,32426,1,0,0:0:0:0:
448,0,32468,1,0,0:0:0:0:
192,0,32509,1,0,0:0:0:0:
320,0,32551,1,0,0:0:0:0:
64,0,32592,1,0,0:0:0:0:
192,0,32634,1,0,0:0:0:0:
320,0,32676,1,0,0:0:0:0:
448,0,32717,1,0,0:0:0:0:
64,0,32759,1,0,0:0:0:0:
192,0,32759,1,0,0:0:0:0:
320,0,32800,1,0,0:0:0:0:
192,0,32842,1,0,0:0:0:0:
320,0,32884,1,0,0:0:0:0:
448,0,32926,1,0,0:0:0:0:
64,0,32968,1,0,0:0:0:0:
320,0,33009,1,0,0:0:0:0:
192,0,33051,1,0,0:0:0:0:
64,0,33092,1,0,0:0:0:0:
448,0,33092,1,0,0:0:0:0:
320,0,33134,1,0,0:0:0:0:
192,0,33176,1,0,0:0:0:0:
64,0,33217,1,0,0:0:0:0:
448,0,33259,1,0,0:0:0:0:
320,0,33300,1,0,0:0:0:0:
448,0,33342,1,0,0:0:0:0:
192,0,33384,1,0,0:0:0:0:
64,0,33426,1,0,0:0:0:0:
320,0,33426,1,0,0:0:0:0:
448,0,33468,1,0,0:0:0:0:
320,0,33509,1,0,0:0:0:0:
192,0,33551,1,0,0:0:0:0:
64,0,33592,1,0,0:0:0:0:
320,0,33642,1,0,0:0:0:0:
192,0,33690,1,0,0:0:0:0:
448,0,33738,1,0,0:0:0:0:
320,0,33759,1,0,0:0:0:0:
64,0,33815,1,0,0:0:0:0:
320,0,33870,1,0,0:0:0:0:
64,0,33926,1,0,0:0:0:0:
192,0,33926,1,0,0:0:0:0:
448,0,33981,1,0,0:0:0:0:
192,0,34036,1,0,0:0:0:0:
64,0,34092,1,0,0:0:0:0:
320,0,34092,1,0,0:0:0:0:
448,0,34148,1,0,0:0:0:0:
64,0,34204,1,0,0:0:0:0:
320,0,34259,1,0,0:0:0:0:
448,0,34259,1,0,0:0:0:0:
64,0,34315,1,0,0:0:0:0:
192,0,34370,1,0,0:0:0:0:
320,0,34426,1,0,0:0:0:0:
448,0,34426,1,0,0:0:0:0:
64,0,34475,1,0,0:0:0:0:
320,0,34524,1,0,0:0:0:0:
192,0,34572,1,0,0:0:0:0:
64,0,34620,1,0,0:0:0:0:
320,0,34669,1,0,0:0:0:0:
448,0,34717,1,0,0:0:0:0:
64,0,34759,1,0,0:0:0:0:
192,0,34759,1,0,0:0:0:0:
320,0,34808,1,0,0:0:0:0:
192,0,34857,1,0,0:0:0:0:
64,0,34904,1,0,0:0:0:0:
320,0,34953,1,0,0:0:0:0:
192,0,35003,1,0,0:0:0:0:
320,0,35051,1,0,0:0:0:0:
64,0,35092,1,0,0:0:0:0:
448,0,35092,1,0,0:0:0:0:
192,0,35142,1,0,0:0:0:0:
64,0,35190,1,0,0:0:0:0:
320,0,35231,1,0,0:0:0:0:
192,0,35280,1,0,0:0:0:0:
64,0,35329,1,0,0:0:0:0:
192,0,35384,1,0,0:0:0:0:
320,0,35426,1,0,0:0:0:0:
448,0,35426,1,0,0:0:0:0:
64,0,35468,1,0,0:0:0:0:
320,0,35509,1,0,0:0:0:0:
192,0,35551,1,0,0:0:0:0:
64,0,35592,1,0,0:0:0:0:
448,0,35592,1,0,0:0:0:0:
320,0,35648,1,0,0:0:0:0:
448,0,35704,1,0,0:0:0:0:
64,0,35759,1,0,0:0:0:0:
192,0,35759,1,0,0:0:0:0:
320,0,35800,1,0,0:0:0:0:
192,0,35842,1,0,0:0:0:0:
64,0,35884,1,0,0:0:0:0:
320,0,35926,1,0,0:0:0:0:
448,0,35926,1,0,0:0:0:0:
192,0,35981,1,0,0:0:0:0:
320,0,36036,1,0,0:0:0:0:
64,0,36092,1,0,0:0:0:0:
448,0,36092,1,0,0:0:0:0:
192,0,36134,1,0,0:0:0:0:
448,0,36176,1,0,0:0:0:0:
320,0,36217,1,0,0:0:0:0:
64,0,36259,1,0,0:0:0:0:
192,0,36259,1,0,0:0:0:0:
448,0,36315,1,0,0:0:0:0:
192,0,36370,1,0,0:0:0:0:
320,0,36426,1,0,0:0:0:0:
448,0,36426,1,0,0:0:0:0:
64,0,36468,1,0,0:0:0:0:
320,0,36509,1,0,0:0:0:0:
192,0,36551,1,0,0:0:0:0:
64,0,36592,1,0,0:0:0:0:
320,0,36592,1,0,0:0:0:0:
448,0,36648,1,0,0:0:0:0:
192,0,36704,1,0,0:0:0:0:
64,0,36759,1,0,0:0:0:0:
320,0,36759,1,0,0:0:0:0:
448,0,36800,1,0,0:0:0:0:
192,0,36842,1,0,0:0:0:0:
320,0,36884,1,0,0:0:0:0:
64,0,36926,1,0,0:0:0:0:
448,0,36926,1,0,0:0:0:0:
192,0,36981,1,0,0:0:0:0:
64,0,37036,1,0,0:0:0:0:
320,0,37092,1,0,0:0:0:0:
448,0,37092,1,0,0:0:0:0:
192,0,37134,1,0,0:0:0:0:
320,0,37176,1,0,0:0:0:0:
64,0,37217,1,0,0:0:0:0:
192,0,37259,1,0,0:0:0:0:
448,0,37259,1,0,0:0:0:0:
320,0,37315,1,0,0:0:0:0:
192,0,37370,1,0,0:0:0:0:
320,0,37426,1,0,0:0:0:0:
448,0,37426,1,0,0:0:0:0:
64,0,37468,1,0,0:0:0:0:
320,0,37509,1,0,0:0:0:0:
192,0,37536,1,0,0:0:0:0:
64,0,37592,1,0,0:0:0:0:
448,0,37592,1,0,0:0:0:0:
320,0,37648,1,0,0:0:0:0:
448,0,37704,1,0,0:0:0:0:
64,0,37759,1,0,0:0:0:0:
192,0,37759,1,0,0:0:0:0:
320,0,37800,1,0,0:0:0:0:
64,0,37870,1,0,0:0:0:0:
192,0,37926,1,0,0:0:0:0:
448,0,37926,1,0,0:0:0:0:
320,0,37968,1,0,0:0:0:0:
192,0,38036,1,0,0:0:0:0:
64,0,38092,1,0,0:0:0:0:
448,0,38092,1,0,0:0:0:0:
320,0,38142,1,0,0:0:0:0:
448,0,38190,1,0,0:0:0:0:
192,0,38238,1,0,0:0:0:0:
320,0,38287,1,0,0:0:0:0:
64,0,38336,1,0,0:0:0:0:
320,0,38384,1,0,0:0:0:0:
192,0,38426,1,0,0:0:0:0:
448,0,38426,1,0,0:0:0:0:
64,0,38475,1,0,0:0:0:0:
448,0,38524,1,0,0:0:0:0:
320,0,38572,1,0,0:0:0:0:
192,0,38620,1,0,0:0:0:0:
320,0,38669,1,0,0:0:0:0:
192,0,38717,1,0,0:0:0:0:
64,0,38759,1,0,0:0:0:0:
448,0,38759,1,0,0:0:0:0:
192,0,38829,1,0,0:0:0:0:
320,0,38878,1,0,0:0:0:0:
192,0,38933,1,0,0:0:0:0:
448,0,38933,1,0,0:0:0:0:
320,0,38996,1,0,0:0:0:0:
448,0,39044,1,0,0:0:0:0:
64,0,39092,1,0,0:0:0:0:
192,0,39092,1,0,0:0:0:0:
320,0,39148,1,0,0:0:0:0:
192,0,39204,1,0,0:0:0:0:
64,0,39259,1,0,0:0:0:0:
448,0,39259,1,0,0:0:0:0:
320,0,39315,1,0,0:0:0:0:
448,0,39370,1,0,0:0:0:0:
64,0,39426,1,0,0:0:0:0:
192,0,39426,1,0,0:0:0:0:
320,0,39468,1,0,0:0:0:0:
192,0,39509,1,0,0:0:0:0:
448,0,39536,1,0,0:0:0:0:
320,0,39592,1,0,0:0:0:0:
192,0,39648,1,0,0:0:0:0:
320,0,39704,1,0,0:0:0:0:
64,0,39759,1,0,0:0:0:0:
448,0,39759,1,0,0:0:0:0:
192,0,39800,1,0,0:0:0:0:
320,0,39842,1,0,0:0:0:0:
192,0,39884,1,0,0:0:0:0:
64,0,39926,1,0,0:0:0:0:
448,0,39926,1,0,0:0:0:0:
320,0,39981,1,0,0:0:0:0:
448,0,40036,1,0,0:0:0:0:
192,0,40092,1,0,0:0:0:0:
320,0,40134,1,0,0:0:0:0:
64,0,40176,1,0,0:0:0:0:
320,0,40217,1,0,0:0:0:0:
192,0,40259,1,0,0:0:0:0:
448,0,40259,1,0,0:0:0:0:
64,0,40315,1,0,0:0:0:0:
320,0,40370,1,0,0:0:0:0:
64,0,40426,1,0,0:0:0:0:
192,0,40426,1,0,0:0:0:0:
448,0,40468,1,0,0:0:0:0:
192,0,40509,1,0,0:0:0:0:
320,0,40551,1,0,0:0:0:0:
64,0,40592,1,0,0:0:0:0:
448,0,40592,1,0,0:0:0:0:
192,0,40648,1,0,0:0:0:0:
64,0,40704,1,0,0:0:0:0:
320,0,40759,1,0,0:0:0:0:
448,0,40759,1,0,0:0:0:0:
192,0,40815,1,0,0:0:0:0:
320,0,40870,1,0,0:0:0:0:
64,0,40926,1,0,0:0:0:0:
192,0,40926,1,0,0:0:0:0:
320,0,40981,1,0,0:0:0:0:
448,0,41036,1,0,0:0:0:0:
64,0,41092,1,0,0:0:0:0:
192,0,41092,1,0,0:0:0:0:
320,0,41134,1,0,0:0:0:0:
192,0,41176,1,0,0:0:0:0:
448,0,41217,1,0,0:0:0:0:
64,0,41259,1,0,0:0:0:0:
320,0,41300,1,0,0:0:0:0:
448,0,41342,1,0,0:0:0:0:
192,0,41384,1,0,0:0:0:0:
64,0,41426,1,0,0:0:0:0:
192,0,41468,1,0,0:0:0:0:
448,0,41509,1,0,0:0:0:0:
320,0,41551,1,0,0:0:0:0:
192,0,41592,1,0,0:0:0:0:
320,0,41634,1,0,0:0:0:0:
192,0,41676,1,0,0:0:0:0:
64,0,41717,1,0,0:0:0:0:
320,0,41759,1,0,0:0:0:0:
448,0,41759,1,0,0:0:0:0:
192,0,41808,1,0,0:0:0:0:
320,0,41857,1,0,0:0:0:0:
64,0,41904,1,0,0:0:0:0:
320,0,41953,1,0,0:0:0:0:
192,0,42003,1,0,0:0:0:0:
64,0,42051,1,0,0:0:0:0:
320,0,42092,1,0,0:0:0:0:
448,0,42092,1,0,0:0:0:0:
192,0,42134,1,0,0:0:0:0:
320,0,42176,1,0,0:0:0:0:
64,0,42204,1,0,0:0:0:0:
192,0,42259,1,0,0:0:0:0:
448,0,42259,1,0,0:0:0:0:
320,0,42315,1,0,0:0:0:0:
192,0,42370,1,0,0:0:0:0:
64,0,42426,1,0,0:0:0:0:
448,0,42426,1,0,0:0:0:0:
320,0,42468,1,0,0:0:0:0:
448,0,42509,1,0,0:0:0:0:
192,0,42536,1,0,0:0:0:0:
64,0,42592,1,0,0:0:0:0:
320,0,42592,1,0,0:0:0:0:
192,0,42648,1,0,0:0:0:0:
448,0,42704,1,0,0:0:0:0:
64,0,42759,1,0,0:0:0:0:
192,0,42759,1,0,0:0:0:0:
320,0,42800,1,0,0:0:0:0:
64,0,42842,1,0,0:0:0:0:
192,0,42926,1,0,0:0:0:0:
192,0,43009,1,0,0:0:0:0:
64,0,43092,1,0,0:0:0:0:
448,0,43092,1,0,0:0:0:0:
192,0,43134,1,0,0:0:0:0:
448,0,43176,1,0,0:0:0:0:
320,0,43217,1,0,0:0:0:0:
64,0,43259,1,0,0:0:0:0:
192,0,43259,1,0,0:0:0:0:
192,0,43342,1,0,0:0:0:0:
64,0,43426,1,0,0:0:0:0:
320,0,43426,1,0,0:0:0:0:
448,0,43509,1,0,0:0:0:0:
64,0,43592,1,0,0:0:0:0:
192,0,43592,1,0,0:0:0:0:
320,0,43676,1,0,0:0:0:0:
192,0,43759,1,0,0:0:0:0:
448,0,43759,1,0,0:0:0:0:
448,0,43842,1,0,0:0:0:0:
64,0,43926,1,0,0:0:0:0:
192,0,43926,1,0,0:0:0:0:
192,0,44003,1,0,0:0:0:0:
64,0,44092,1,0,0:0:0:0:
320,0,44092,1,0,0:0:0:0:
320,0,44176,1,0,0:0:0:0:
64,0,44259,1,0,0:0:0:0:
192,0,44259,1,0,0:0:0:0:
448,0,44300,1,0,0:0:0:0:
192,0,44342,1,0,0:0:0:0:
64,0,44426,1,0,0:0:0:0:
448,0,44426,1,0,0:0:0:0:
448,0,44509,1,0,0:0:0:0:
64,0,44592,1,0,0:0:0:0:
192,0,44592,1,0,0:0:0:0:
320,0,44634,1,0,0:0:0:0:
192,0,44676,1,0,0:0:0:0:
64,0,44759,1,0,0:0:0:0:
320,0,44759,1,0,0:0:0:0:
448,0,44842,1,0,0:0:0:0:
64,0,44926,1,0,0:0:0:0:
192,0,44926,1,0,0:0:0:0:
448,0,44968,1,0,0:0:0:0:
320,0,45009,1,0,0:0:0:0:
192,0,45092,1,0,0:0:0:0:
448,0,45092,1,0,0:0:0:0:
448,0,45176,1,0,0:0:0:0:
64,0,45259,1,0,0:0:0:0:
192,0,45259,1,0,0:0:0:0:
320,0,45300,1,0,0:0:0:0:
192,0,45342,1,0,0:0:0:0:
64,0,45426,1,0,0:0:0:0:
320,0,45426,1,0,0:0:0:0:
320,0,45509,1,0,0:0:0:0:
64,0,45592,1,0,0:0:0:0:
192,0,45592,1,0,0:0:0:0:
320,0,45634,1,0,0:0:0:0:
192,0,45676,1,0,0:0:0:0:
320,0,45717,1,0,0:0:0:0:
448,0,45759,1,0,0:0:0:0:
192,0,45800,1,0,0:0:0:0:
448,0,45842,1,0,0:0:0:0:
320,0,45884,1,0,0:0:0:0:
192,0,45926,1,0,0:0:0:0:
448,0,45968,1,0,0:0:0:0:
192,0,46009,1,0,0:0:0:0:
320,0,46051,1,0,0:0:0:0:
64,0,46092,1,0,0:0:0:0:
448,0,46092,1,0,0:0:0:0:
192,0,46134,1,0,0:0:0:0:
320,0,46176,1,0,0:0:0:0:
64,0,46259,1,0,0:0:0:0:
192,0,46259,1,0,0:0:0:0:
320,0,46342,1,0,0:0:0:0:
192,0,46426,1,0,0:0:0:0:
448,0,46426,1,0,0:0:0:0:
448,0,46509,1,0,0:0:0:0:
64,0,46592,1,0,0:0:0:0:
192,0,46592,1,0,0:0:0:0:
192,0,46663,1,0,0:0:0:0:
64,0,46759,1,0,0:0:0:0:
320,0,46759,1,0,0:0:0:0:
320,0,46829,1,0,0:0:0:0:
64,0,46926,1,0,0:0:0:0:
192,0,46926,1,0,0:0:0:0:
320,0,46968,1,0,0:0:0:0:
192,0,47009,1,0,0:0:0:0:
64,0,47092,1,0,0:0:0:0:
448,0,47092,1,0,0:0:0:0:
64,0,47176,1,0,0:0:0:0:
320,0,47259,1,0,0:0:0:0:
448,0,47259,1,0,0:0:0:0:
64,0,47300,1,0,0:0:0:0:
320,0,47342,1,0,0:0:0:0:
192,0,47426,1,0,0:0:0:0:
448,0,47426,1,0,0:0:0:0:
320,0,47509,1,0,0:0:0:0:
64,0,47592,1,0,0:0:0:0:
192,0,47592,1,0,0:0:0:0:
448,0,47634,1,0,0:0:0:0:
320,0,47676,1,0,0:0:0:0:
64,0,47759,1,0,0:0:0:0:
448,0,47759,1,0,0:0:0:0:
64,0,47842,1,0,0:0:0:0:
320,0,47926,1,0,0:0:0:0:
448,0,47926,1,0,0:0:0:0:
192,0,47968,1,0,0:0:0:0:
320,0,48009,1,0,0:0:0:0:
192,0,48092,1,0,0:0:0:0:
448,0,48092,1,0,0:0:0:0:
64,0,48134,1,0,0:0:0:0:
320,0,48176,1,0,0:0:0:0:
192,0,48217,1,0,0:0:0:0:
64,0,48259,1,0,0:0:0:0:
320,0,48300,1,0,0:0:0:0:
192,0,48342,1,0,0:0:0:0:
320,0,48384,1,0,0:0:0:0:
64,0,48426,1,0,0:0:0:0:
448,0,48426,1,0,0:0:0:0:
448,0,48509,1,0,0:0:0:0:
64,0,48592,1,0,0:0:0:0:
192,0,48592,1,0,0:0:0:0:
192,0,48663,1,0,0:0:0:0:
64,0,48759,1,0,0:0:0:0:
320,0,48759,1,0,0:0:0:0:
448,0,48842,1,0,0:0:0:0:
64,0,48926,1,0,0:0:0:0:
192,0,48926,1,0,0:0:0:0:
320,0,48968,1,0,0:0:0:0:
192,0,49009,1,0,0:0:0:0:
320,0,49051,1,0,0:0:0:0:
64,0,49092,1,0,0:0:0:0:
448,0,49092,1,0,0:0:0:0:
448,0,49176,1,0,0:0:0:0:
192,0,49259,1,0,0:0:0:0:
320,0,49259,1,0,0:0:0:0:
64,0,49300,1,0,0:0:0:0:
320,0,49342,1,0,0:0:0:0:
192,0,49384,1,0,0:0:0:0:
64,0,49426,1,0,0:0:0:0:
448,0,49426,1,0,0:0:0:0:
448,0,49509,1,0,0:0:0:0:
64,0,49592,1,0,0:0:0:0:
192,0,49592,1,0,0:0:0:0:
320,0,49634,1,0,0:0:0:0:
192,0,49676,1,0,0:0:0:0:
320,0,49717,1,0,0:0:0:0:
64,0,49759,1,0,0:0:0:0:
448,0,49759,1,0,0:0:0:0:
448,0,49842,1,0,0:0:0:0:
64,0,49926,1,0,0:0:0:0:
192,0,49926,1,0,0:0:0:0:
320,0,49968,1,0,0:0:0:0:
192,0,50009,1,0,0:0:0:0:
64,0,50051,1,0,0:0:0:0:
320,0,50092,1,0,0:0:0:0:
448,0,50092,1,0,0:0:0:0:
192,0,50176,1,0,0:0:0:0:
64,0,50259,1,0,0:0:0:0:
320,0,50259,1,0,0:0:0:0:
192,0,50300,1,0,0:0:0:0:
320,0,50342,1,0,0:0:0:0:
192,0,50426,1,0,0:0:0:0:
448,0,50426,1,0,0:0:0:0:
448,0,50509,1,0,0:0:0:0:
64,0,50592,1,0,0:0:0:0:
192,0,50592,1,0,0:0:0:0:
320,0,50634,1,0,0:0:0:0:
192,0,50676,1,0,0:0:0:0:
64,0,50759,1,0,0:0:0:0:
320,0,50759,1,0,0:0:0:0:
320,0,50842,1,0,0:0:0:0:
64,0,50926,1,0,0:0:0:0:
192,0,50926,1,0,0:0:0:0:
320,0,50968,1,0,0:0:0:0:
192,0,51009,1,0,0:0:0:0:
320,0,51051,1,0,0:0:0:0:
64,0,51092,1,0,0:0:0:0:
448,0,51092,1,0,0:0:0:0:
448,0,51176,1,0,0:0:0:0:
64,0,51259,1,0,0:0:0:0:
192,0,51259,1,0,0:0:0:0:
448,0,51300,1,0,0:0:0:0:
192,0,51342,1,0,0:0:0:0:
64,0,51426,1,0,0:0:0:0:
448,0,51426,1,0,0:0:0:0:
320,0,51509,1,0,0:0:0:0:
64,0,51592,1,0,0:0:0:0:
192,0,51592,1,0,0:0:0:0:
448,0,51634,1,0,0:0:0:0:
320,0,51676,1,0,0:0:0:0:
192,0,51759,1,0,0:0:0:0:
448,0,51759,1,0,0:0:0:0:
448,0,51842,1,0,0:0:0:0:
64,0,51926,1,0,0:0:0:0:
192,0,51926,1,0,0:0:0:0:
320,0,51968,1,0,0:0:0:0:
192,0,52009,1,0,0:0:0:0:
448,0,52051,1,0,0:0:0:0:
64,0,52092,1,0,0:0:0:0:
192,0,52134,1,0,0:0:0:0:
320,0,52176,1,0,0:0:0:0:
64,0,52259,1,0,0:0:0:0:
192,0,52259,1,0,0:0:0:0:
192,0,52342,1,0,0:0:0:0:
64,0,52426,1,0,0:0:0:0:
448,0,52426,1,0,0:0:0:0:
320,0,52468,1,0,0:0:0:0:
64,0,52509,1,0,0:0:0:0:
192,0,52551,1,0,0:0:0:0:
320,0,52592,1,0,0:0:0:0:
64,0,52634,1,0,0:0:0:0:
320,0,52676,1,0,0:0:0:0:
192,0,52717,1,0,0:0:0:0:
64,0,52759,1,0,0:0:0:0:
448,0,52759,1,0,0:0:0:0:
320,0,52800,1,0,0:0:0:0:
192,0,52842,1,0,0:0:0:0:
64,0,52884,1,0,0:0:0:0:
320,0,52926,1,0,0:0:0:0:
448,0,52926,1,0,0:0:0:0:
192,0,53009,1,0,0:0:0:0:
64,0,53092,1,0,0:0:0:0:
448,0,53092,1,0,0:0:0:0:
64,0,53176,1,0,0:0:0:0:
192,0,53176,1,0,0:0:0:0:
320,0,53259,1,0,0:0:0:0:
192,0,53342,1,0,0:0:0:0:
320,0,53426,1,0,0:0:0:0:
448,0,53426,1,0,0:0:0:0:
320,0,53509,1,0,0:0:0:0:
448,0,53509,1,0,0:0:0:0:
64,0,53592,1,0,0:0:0:0:
192,0,53592,1,0,0:0:0:0:
64,0,53676,1,0,0:0:0:0:
192,0,53676,1,0,0:0:0:0:
320,0,53759,1,0,0:0:0:0:
448,0,53759,1,0,0:0:0:0:
192,0,53800,1,0,0:0:0:0:
320,0,53842,1,0,0:0:0:0:
192,0,53884,1,0,0:0:0:0:
64,0,53926,1,0,0:0:0:0:
448,0,53926,1,0,0:0:0:0:
320,0,53981,1,0,0:0:0:0:
192,0,54036,1,0,0:0:0:0:
320,0,54092,1,0,0:0:0:0:
448,0,54092,1,0,0:0:0:0:
64,0,54148,1,0,0:0:0:0:
448,0,54204,1,0,0:0:0:0:
64,0,54259,1,0,0:0:0:0:
192,0,54259,1,0,0:0:0:0:
320,0,54300,1,0,0:0:0:0:
192,0,54342,1,0,0:0:0:0:
448,0,54384,1,0,0:0:0:0:
320,0,54426,1,0,0:0:0:0:
192,0,54468,1,0,0:0:0:0:
320,0,54509,1,0,0:0:0:0:
64,0,54551,1,0,0:0:0:0:
192,0,54592,1,0,0:0:0:0:
448,0,54592,1,0,0:0:0:0:
320,0,54648,1,0,0:0:0:0:
192,0,54704,1,0,0:0:0:0:
320,0,54759,1,0,0:0:0:0:
448,0,54759,1,0,0:0:0:0:
64,0,54800,1,0,0:0:0:0:
448,0,54842,1,0,0:0:0:0:
320,0,54870,1,0,0:0:0:0:
64,0,54926,1,0,0:0:0:0:
192,0,54926,1,0,0:0:0:0:
448,0,54981,1,0,0:0:0:0:
192,0,55036,1,0,0:0:0:0:
64,0,55092,1,0,0:0:0:0:
320,0,55092,1,0,0:0:0:0:
448,0,55134,1,0,0:0:0:0:
192,0,55176,1,0,0:0:0:0:
320,0,55217,1,0,0:0:0:0:
64,0,55259,1,0,0:0:0:0:
192,0,55300,1,0,0:0:0:0:
320,0,55342,1,0,0:0:0:0:
192,0,55384,1,0,0:0:0:0:
320,0,55426,1,0,0:0:0:0:
448,0,55426,1,0,0:0:0:0:
64,0,55481,1,0,0:0:0:0:
448,0,55536,1,0,0:0:0:0:
192,0,55592,1,0,0:0:0:0:
320,0,55592,1,0,0:0:0:0:
64,0,55648,1,0,0:0:0:0:
320,0,55704,1,0,0:0:0:0:
192,0,55759,1,0,0:0:0:0:
448,0,55759,1,0,0:0:0:0:
64,0,55800,1,0,0:0:0:0:
320,0,55842,1,0,0:0:0:0:
448,0,55884,1,0,0:0:0:0:
192,0,55926,1,0,0:0:0:0:
320,0,55981,1,0,0:0:0:0:
192,0,56036,1,0,0:0:0:0:
64,0,56092,1,0,0:0:0:0:
448,0,56092,1,0,0:0:0:0:
320,0,56134,1,0,0:0:0:0:
64,0,56176,1,0,0:0:0:0:
192,0,56217,1,0,0:0:0:0:
448,0,56259,1,0,0:0:0:0:
64,0,56315,1,0,0:0:0:0:
448,0,56370,1,0,0:0:0:0:
64,0,56426,1,0,0:0:0:0:
192,0,56426,1,0,0:0:0:0:
320,0,56468,1,0,0:0:0:0:
192,0,56509,1,0,0:0:0:0:
320,0,56551,1,0,0:0:0:0:
448,0,56592,1,0,0:0:0:0:
64,0,56634,1,0,0:0:0:0:
320,0,56676,1,0,0:0:0:0:
192,0,56717,1,0,0:0:0:0:
320,0,56759,1,0,0:0:0:0:
448,0,56759,1,0,0:0:0:0:
64,0,56815,1,0,0:0:0:0:
448,0,56870,1,0,0:0:0:0:
320,0,56926,1,0,0:0:0:0:
192,0,56968,1,0,0:0:0:0:
320,0,57009,1,0,0:0:0:0:
192,0,57051,1,0,0:0:0:0:
64,0,57092,1,0,0:0:0:0:
448,0,57092,1,0,0:0:0:0:
320,0,57148,1,0,0:0:0:0:
192,0,57204,1,0,0:0:0:0:
448,0,57259,1,0,0:0:0:0:
192,0,57315,1,0,0:0:0:0:
64,0,57370,1,0,0:0:0:0:
320,0,57426,1,0,0:0:0:0:
448,0,57426,1,0,0:0:0:0:
192,0,57468,1,0,0:0:0:0:
448,0,57509,1,0,0:0:0:0:
64,0,57536,1,0,0:0:0:0:
320,0,57592,1,0,0:0:0:0:
192,0,57648,1,0,0:0:0:0:
320,0,57704,1,0,0:0:0:0:
64,0,57759,1,0,0:0:0:0:
448,0,57759,1,0,0:0:0:0:
192,0,57800,1,0,0:0:0:0:
320,0,57842,1,0,0:0:0:0:
192,0,57884,1,0,0:0:0:0:
64,0,57926,1,0,0:0:0:0:
320,0,57968,1,0,0:0:0:0:
192,0,58009,1,0,0:0:0:0:
320,0,58051,1,0,0:0:0:0:
64,0,58092,1,0,0:0:0:0:
448,0,58092,1,0,0:0:0:0:
192,0,58148,1,0,0:0:0:0:
64,0,58204,1,0,0:0:0:0:
320,0,58259,1,0,0:0:0:0:
448,0,58259,1,0,0:0:0:0:
192,0,58315,1,0,0:0:0:0:
320,0,58370,1,0,0:0:0:0:
64,0,58426,1,0,0:0:0:0:
192,0,58426,1,0,0:0:0:0:
448,0,58468,1,0,0:0:0:0:
192,0,58509,1,0,0:0:0:0:
320,0,58551,1,0,0:0:0:0:
64,0,58592,1,0,0:0:0:0:
320,0,58634,1,0,0:0:0:0:
448,0,58634,1,0,0:0:0:0:
192,0,58676,1,0,0:0:0:0:
320,0,58717,1,0,0:0:0:0:
64,0,58759,1,0,0:0:0:0:
448,0,58759,1,0,0:0:0:0:
192,0,58808,1,0,0:0:0:0:
64,0,58857,1,0,0:0:0:0:
320,0,58905,1,0,0:0:0:0:
448,0,58905,1,0,0:0:0:0:
192,0,58953,1,0,0:0:0:0:
320,0,59003,1,0,0:0:0:0:
64,0,59051,1,0,0:0:0:0:
192,0,59092,1,0,0:0:0:0:
448,0,59092,1,0,0:0:0:0:
320,0,59134,1,0,0:0:0:0:
64,0,59176,1,0,0:0:0:0:
192,0,59217,1,0,0:0:0:0:
320,0,59259,1,0,0:0:0:0:
64,0,59300,1,0,0:0:0:0:
320,0,59342,1,0,0:0:0:0:
192,0,59384,1,0,0:0:0:0:
448,0,59426,1,0,0:0:0:0:
320,0,59468,1,0,0:0:0:0:
448,0,59509,1,0,0:0:0:0:
192,0,59551,1,0,0:0:0:0:
320,0,59592,1,0,0:0:0:0:
64,0,59634,1,0,0:0:0:0:
192,0,59676,1,0,0:0:0:0:
448,0,59717,1,0,0:0:0:0:
320,0,59759,1,0,0:0:0:0:
192,0,59800,1,0,0:0:0:0:
320,0,59842,1,0,0:0:0:0:
64,0,59884,1,0,0:0:0:0:
192,0,59926,1,0,0:0:0:0:
320,0,59968,1,0,0:0:0:0:
64,0,60009,1,0,0:0:0:0:
448,0,60051,1,0,0:0:0:0:
192,0,60092,1,0,0:0:0:0:
320,0,60134,1,0,0:0:0:0:
192,0,60176,1,0,0:0:0:0:
64,0,60217,1,0,0:0:0:0:
448,0,60259,1,0,0:0:0:0:
320,0,60300,1,0,0:0:0:0:
192,0,60342,1,0,0:0:0:0:
64,0,60384,1,0,0:0:0:0:
320,0,60426,1,0,0:0:0:0:
192,0,60468,1,0,0:0:0:0:
320,0,60509,1,0,0:0:0:0:
64,0,60551,1,0,0:0:0:0:
192,0,60592,1,0,0:0:0:0:
448,0,60634,1,0,0:0:0:0:
320,0,60676,1,0,0:0:0:0:
64,0,60717,1,0,0:0:0:0:
192,0,60759,1,0,0:0:0:0:
320,0,60800,1,0,0:0:0:0:
192,0,60842,1,0,0:0:0:0:
64,0,60884,1,0,0:0:0:0:
448,0,60926,1,0,0:0:0:0:
192,0,60968,1,0,0:0:0:0:
320,0,61009,1,0,0:0:0:0:
448,0,61051,1,0,0:0:0:0:
64,0,61092,1,0,0:0:0:0:
320,0,61134,1,0,0:0:0:0:
64,0,61176,1,0,0:0:0:0:
192,0,61217,1,0,0:0:0:0:
320,0,61259,1,0,0:0:0:0:
448,0,61300,1,0,0:0:0:0:
192,0,61342,1,0,0:0:0:0:
64,0,61384,1,0,0:0:0:0:
448,0,61426,1,0,0:0:0:0:
192,0,61468,1,0,0:0:0:0:
448,0,61509,1,0,0:0:0:0:
320,0,61551,1,0,0:0:0:0:
192,0,61592,1,0,0:0:0:0:
64,0,61634,1,0,0:0:0:0:
448,0,61676,1,0,0:0:0:0:
192,0,61717,1,0,0:0:0:0:
64,0,61759,1,0,0:0:0:0:
192,0,62092,128,0,62426:0:0:0:0:
64,0,62426,128,0,62759:0:0:0:0:
320,0,62759,128,0,63092:0:0:0:0:
448,0,63092,128,0,63426:0:0:0:0:
192,0,63426,128,0,63759:0:0:0:0:
448,0,63759,128,0,64092:0:0:0:0:
320,0,64092,128,0,64426:0:0:0:0:
64,0,64426,1,0,0:0:0:0:
192,0,64426,1,0,0:0:0:0:
448,0,64468,1,0,0:0:0:0:
192,0,64509,1,0,0:0:0:0:
320,0,64551,1,0,0:0:0:0:
64,0,64592,1,0,0:0:0:0:
192,0,64634,1,0,0:0:0:0:
448,0,64676,1,0,0:0:0:0:
320,0,64717,1,0,0:0:0:0:
64,0,64759,1,0,0:0:0:0:
192,0,64759,1,0,0:0:0:0:
448,0,64800,1,0,0:0:0:0:
192,0,64842,1,0,0:0:0:0:
448,0,64884,1,0,0:0:0:0:
320,0,64926,1,0,0:0:0:0:
64,0,64968,1,0,0:0:0:0:
320,0,65009,1,0,0:0:0:0:
192,0,65051,1,0,0:0:0:0:
64,0,65092,1,0,0:0:0:0:
448,0,65092,1,0,0:0:0:0:
320,0,65134,1,0,0:0:0:0:
192,0,65176,1,0,0:0:0:0:
64,0,65217,1,0,0:0:0:0:
448,0,65259,1,0,0:0:0:0:
192,0,65300,1,0,0:0:0:0:
448,0,65342,1,0,0:0:0:0:
320,0,65384,1,0,0:0:0:0:
64,0,65426,1,0,0:0:0:0:
192,0,65426,1,0,0:0:0:0:
448,0,65468,1,0,0:0:0:0:
320,0,65509,1,0,0:0:0:0:
192,0,65551,1,0,0:0:0:0:
64,0,65592,1,0,0:0:0:0:
320,0,65642,1,0,0:0:0:0:
192,0,65690,1,0,0:0:0:0:
448,0,65738,1,0,0:0:0:0:
320,0,65759,1,0,0:0:0:0:
64,0,65815,1,0,0:0:0:0:
320,0,65870,1,0,0:0:0:0:
64,0,65926,1,0,0:0:0:0:
192,0,65926,1,0,0:0:0:0:
448,0,65981,1,0,0:0:0:0:
192,0,66036,1,0,0:0:0:0:
64,0,66092,1,0,0:0:0:0:
320,0,66092,1,0,0:0:0:0:
448,0,66148,1,0,0:0:0:0:
64,0,66204,1,0,0:0:0:0:
320,0,66259,1,0,0:0:0:0:
448,0,66259,1,0,0:0:0:0:
64,0,66315,1,0,0:0:0:0:
192,0,66370,1,0,0:0:0:0:
320,0,66426,1,0,0:0:0:0:
448,0,66426,1,0,0:0:0:0:
64,0,66475,1,0,0:0:0:0:
320,0,66524,1,0,0:0:0:0:
448,0,66572,1,0,0:0:0:0:
64,0,66620,1,0,0:0:0:0:
192,0,66669,1,0,0:0:0:0:
448,0,66717,1,0,0:0:0:0:
64,0,66759,1,0,0:0:0:0:
320,0,66759,1,0,0:0:0:0:
192,0,66808,1,0,0:0:0:0:
64,0,66857,1,0,0:0:0:0:
448,0,66905,1,0,0:0:0:0:
320,0,66953,1,0,0:0:0:0:
192,0,67003,1,0,0:0:0:0:
320,0,67051,1,0,0:0:0:0:
64,0,67092,1,0,0:0:0:0:
448,0,67092,1,0,0:0:0:0:
192,0,67142,1,0,0:0:0:0:
64,0,67190,1,0,0:0:0:0:
320,0,67232,1,0,0:0:0:0:
192,0,67280,1,0,0:0:0:0:
64,0,67329,1,0,0:0:0:0:
192,0,67384,1,0,0:0:0:0:
320,0,67426,1,0,0:0:0:0:
448,0,67426,1,0,0:0:0:0:
64,0,67468,1,0,0:0:0:0:
448,0,67509,1,0,0:0:0:0:
192,0,67551,1,0,0:0:0:0:
64,0,67592,1,0,0:0:0:0:
320,0,67592,1,0,0:0:0:0:
448,0,67648,1,0,0:0:0:0:
320,0,67704,1,0,0:0:0:0:
64,0,67759,1,0,0:0:0:0:
192,0,67759,1,0,0:0:0:0:
448,0,67800,1,0,0:0:0:0:
192,0,67842,1,0,0:0:0:0:
64,0,67884,1,0,0:0:0:0:
320,0,67926,1,0,0:0:0:0:
448,0,67926,1,0,0:0:0:0:
192,0,67981,1,0,0:0:0:0:
320,0,68036,1,0,0:0:0:0:
64,0,68092,1,0,0:0:0:0:
448,0,68092,1,0,0:0:0:0:
192,0,68134,1,0,0:0:0:0:
448,0,68176,1,0,0:0:0:0:
320,0,68217,1,0,0:0:0:0:
64,0,68259,1,0,0:0:0:0:
192,0,68259,1,0,0:0:0:0:
448,0,68315,1,0,0:0:0:0:
192,0,68370,1,0,0:0:0:0:
320,0,68426,1,0,0:0:0:0:
448,0,68426,1,0,0:0:0:0:
64,0,68468,1,0,0:0:0:0:
320,0,68509,1,0,0:0:0:0:
192,0,68551,1,0,0:0:0:0:
64,0,68592,1,0,0:0:0:0:
320,0,68592,1,0,0:0:0:0:
448,0,68648,1,0,0:0:0:0:
192,0,68704,1,0,0:0:0:0:
64,0,68759,1,0,0:0:0:0:
320,0,68759,1,0,0:0:0:0:
448,0,68800,1,0,0:0:0:0:
192,0,68842,1,0,0:0:0:0:
64,0,68884,1,0,0:0:0:0:
320,0,68926,1,0,0:0:0:0:
448,0,68926,1,0,0:0:0:0:
192,0,68981,1,0,0:0:0:0:
320,0,69036,1,0,0:0:0:0:
64,0,69092,1,0,0:0:0:0:
448,0,69092,1,0,0:0:0:0:
192,0,69134,1,0,0:0:0:0:
448,0,69176,1,0,0:0:0:0:
64,0,69217,1,0,0:0:0:0:
192,0,69259,1,0,0:0:0:0:
320,0,69259,1,0,0:0:0:0:
448,0,69315,1,0,0:0:0:0:
192,0,69370,1,0,0:0:0:0:
320,0,69426,1,0,0:0:0:0:
448,0,69426,1,0,0:0:0:0:
64,0,69468,1,0,0:0:0:0:
320,0,69509,1,0,0:0:0:0:
192,0,69536,1,0,0:0:0:0:
64,0,69592,1,0,0:0:0:0:
448,0,69592,1,0,0:0:0:0:
320,0,69648,1,0,0:0:0:0:
448,0,69704,1,0,0:0:0:0:
64,0,69759,1,0,0:0:0:0:
192,0,69759,1,0,0:0:0:0:
320,0,69800,1,0,0:0:0:0:
64,0,69870,1,0,0:0:0:0:
192,0,69926,1,0,0:0:0:0:
448,0,69926,1,0,0:0:0:0:
320,0,69968,1,0,0:0:0:0:
192,0,70036,1,0,0:0:0:0:
64,0,70092,1,0,0:0:0:0:
448,0,70092,1,0,0:0:0:0:
320,0,70142,1,0,0:0:0:0:
448,0,70190,1,0,0:0:0:0:
192,0,70238,1,0,0:0:0:0:
320,0,70287,1,0,0:0:0:0:
64,0,70336,1,0,0:0:0:0:
320,0,70384,1,0,0:0:0:0:
192,0,70426,1,0,0:0:0:0:
448,0,70426,1,0,0:0:0:0:
64,0,70475,1,0,0:0:0:0:
448,0,70524,1,0,0:0:0:0:
320,0,70572,1,0,0:0:0:0:
192,0,70620,1,0,0:0:0:0:
320,0,70669,1,0,0:0:0:0:
192,0,70717,1,0,0:0:0:0:
64,0,70759,1,0,0:0:0:0:
448,0,70759,1,0,0:0:0:0:
320,0,70829,1,0,0:0:0:0:
192,0,70878,1,0,0:0:0:0:
64,0,70933,1,0,0:0:0:0:
320,0,70933,1,0,0:0:0:0:
192,0,70996,1,0,0:0:0:0:
64,0,71044,1,0,0:0:0:0:
320,0,71092,1,0,0:0:0:0:
448,0,71092,1,0,0:0:0:0:
192,0,71148,1,0,0:0:0:0:
320,0,71204,1,0,0:0:0:0:
64,0,71259,1,0,0:0:0:0:
448,0,71259,1,0,0:0:0:0:
192,0,71315,1,0,0:0:0:0:
448,0,71370,1,0,0:0:0:0:
64,0,71426,1,0,0:0:0:0:
192,0,71426,1,0,0:0:0:0:
320,0,71468,1,0,0:0:0:0:
192,0,71509,1,0,0:0:0:0:
448,0,71536,1,0,0:0:0:0:
320,0,71592,1,0,0:0:0:0:
192,0,71648,1,0,0:0:0:0:
320,0,71704,1,0,0:0:0:0:
64,0,71759,1,0,0:0:0:0:
448,0,71759,1,0,0:0:0:0:
192,0,71800,1,0,0:0:0:0:
448,0,71842,1,0,0:0:0:0:
320,0,71884,1,0,0:0:0:0:
64,0,71926,1,0,0:0:0:0:
192,0,71926,1,0,0:0:0:0:
448,0,71981,1,0,0:0:0:0:
192,0,72036,1,0,0:0:0:0:
64,0,72092,1,0,0:0:0:0:
320,0,72134,1,0,0:0:0:0:
192,0,72176,1,0,0:0:0:0:
320,0,72217,1,0,0:0:0:0:
64,0,72259,1,0,0:0:0:0:
448,0,72259,1,0,0:0:0:0:
192,0,72315,1,0,0:0:0:0:
320,0,72370,1,0,0:0:0:0:
64,0,72426,1,0,0:0:0:0:
192,0,72426,1,0,0:0:0:0:
448,0,72468,1,0,0:0:0:0:
192,0,72509,1,0,0:0:0:0:
320,0,72551,1,0,0:0:0:0:
64,0,72592,1,0,0:0:0:0:
448,0,72592,1,0,0:0:0:0:
192,0,72648,1,0,0:0:0:0:
64,0,72704,1,0,0:0:0:0:
320,0,72759,1,0,0:0:0:0:
448,0,72759,1,0,0:0:0:0:
192,0,72815,1,0,0:0:0:0:
448,0,72870,1,0,0:0:0:0:
64,0,72926,1,0,0:0:0:0:
192,0,72926,1,0,0:0:0:0:
320,0,72981,1,0,0:0:0:0:
64,0,73036,1,0,0:0:0:0:
320,0,73092,1,0,0:0:0:0:
448,0,73092,1,0,0:0:0:0:
192,0,73134,1,0,0:0:0:0:
320,0,73176,1,0,0:0:0:0:
64,0,73217,1,0,0:0:0:0:
192,0,73259,1,0,0:0:0:0:
320,0,73300,1,0,0:0:0:0:
448,0,73342,1,0,0:0:0:0:
192,0,73384,1,0,0:0:0:0:
64,0,73426,1,0,0:0:0:0:
192,0,73468,1,0,0:0:0:0:
448,0,73509,1,0,0:0:0:0:
320,0,73551,1,0,0:0:0:0:
192,0,73592,1,0,0:0:0:0:
320,0,73634,1,0,0:0:0:0:
192,0,73676,1,0,0:0:0:0:
64,0,73717,1,0,0:0:0:0:
320,0,73759,1,0,0:0:0:0:
448,0,73759,1,0,0:0:0:0:
192,0,73808,1,0,0:0:0:0:
448,0,73857,1,0,0:0:0:0:
64,0,73905,1,0,0:0:0:0:
448,0,73953,1,0,0:0:0:0:
192,0,74003,1,0,0:0:0:0:
64,0,74051,1,0,0:0:0:0:
320,0,74092,1,0,0:0:0:0:
448,0,74092,1,0,0:0:0:0:
192,0,74134,1,0,0:0:0:0:
320,0,74176,1,0,0:0:0:0:
64,0,74204,1,0,0:0:0:0:
192,0,74259,1,0,0:0:0:0:
448,0,74259,1,0,0:0:0:0:
320,0,74315,1,0,0:0:0:0:
192,0,74370,1,0,0:0:0:0:
64,0,74426,1,0,0:0:0:0:
448,0,74426,1,0,0:0:0:0:
320,0,74468,1,0,0:0:0:0:
448,0,74509,1,0,0:0:0:0:
192,0,74536,1,0,0:0:0:0:
64,0,74592,1,0,0:0:0:0:
320,0,74592,1,0,0:0:0:0:
192,0,74648,1,0,0:0:0:0:
448,0,74704,1,0,0:0:0:0:
64,0,74759,1,0,0:0:0:0:
192,0,74759,1,0,0:0:0:0:
320,0,74800,1,0,0:0:0:0:
64,0,74842,1,0,0:0:0:0:
192,0,74926,1,0,0:0:0:0:
192,0,75009,1,0,0:0:0:0:
64,0,75092,1,0,0:0:0:0:
448,0,75092,1,0,0:0:0:0:
192,0,75134,1,0,0:0:0:0:
448,0,75176,1,0,0:0:0:0:
320,0,75217,1,0,0:0:0:0:
64,0,75259,1,0,0:0:0:0:
192,0,75259,1,0,0:0:0:0:
192,0,75342,1,0,0:0:0:0:
64,0,75426,1,0,0:0:0:0:
320,0,75426,1,0,0:0:0:0:
448,0,75509,1,0,0:0:0:0:
64,0,75592,1,0,0:0:0:0:
192,0,75592,1,0,0:0:0:0:
320,0,75676,1,0,0:0:0:0:
192,0,75759,1,0,0:0:0:0:
448,0,75759,1,0,0:0:0:0:
448,0,75842,1,0,0:0:0:0:
64,0,75926,1,0,0:0:0:0:
192,0,75926,1,0,0:0:0:0:
192,0,76003,1,0,0:0:0:0:
64,0,76092,1,0,0:0:0:0:
320,0,76092,1,0,0:0:0:0:
320,0,76176,1,0,0:0:0:0:
64,0,76259,1,0,0:0:0:0:
192,0,76259,1,0,0:0:0:0:
448,0,76300,1,0,0:0:0:0:
192,0,76342,1,0,0:0:0:0:
64,0,76426,1,0,0:0:0:0:
448,0,76426,1,0,0:0:0:0:
448,0,76509,1,0,0:0:0:0:
64,0,76592,1,0,0:0:0:0:
192,0,76592,1,0,0:0:0:0:
320,0,76634,1,0,0:0:0:0:
192,0,76676,1,0,0:0:0:0:
64,0,76759,1,0,0:0:0:0:
320,0,76759,1,0,0:0:0:0:
448,0,76842,1,0,0:0:0:0:
64,0,76926,1,0,0:0:0:0:
192,0,76926,1,0,0:0:0:0:
448,0,76968,1,0,0:0:0:0:
320,0,77009,1,0,0:0:0:0:
192,0,77092,1,0,0:0:0:0:
448,0,77092,1,0,0:0:0:0:
448,0,77176,1,0,0:0:0:0:
64,0,77259,1,0,0:0:0:0:
192,0,77259,1,0,0:0:0:0:
320,0,77300,1,0,0:0:0:0:
192,0,77342,1,0,0:0:0:0:
64,0,77426,1,0,0:0:0:0:
320,0,77426,1,0,0:0:0:0:
320,0,77509,1,0,0:0:0:0:
64,0,77592,1,0,0:0:0:0:
192,0,77592,1,0,0:0:0:0:
320,0,77634,1,0,0:0:0:0:
64,0,77676,1,0,0:0:0:0:
320,0,77717,1,0,0:0:0:0:
448,0,77759,1,0,0:0:0:0:
64,0,77800,1,0,0:0:0:0:
448,0,77842,1,0,0:0:0:0:
320,0,77884,1,0,0:0:0:0:
64,0,77926,1,0,0:0:0:0:
448,0,77968,1,0,0:0:0:0:
64,0,78009,1,0,0:0:0:0:
320,0,78051,1,0,0:0:0:0:
192,0,78092,1,0,0:0:0:0:
448,0,78092,1,0,0:0:0:0:
64,0,78134,1,0,0:0:0:0:
320,0,78176,1,0,0:0:0:0:
64,0,78259,1,0,0:0:0:0:
192,0,78259,1,0,0:0:0:0:
320,0,78342,1,0,0:0:0:0:
192,0,78426,1,0,0:0:0:0:
448,0,78426,1,0,0:0:0:0:
448,0,78509,1,0,0:0:0:0:
64,0,78592,1,0,0:0:0:0:
192,0,78592,1,0,0:0:0:0:
192,0,78663,1,0,0:0:0:0:
64,0,78759,1,0,0:0:0:0:
320,0,78759,1,0,0:0:0:0:
320,0,78829,1,0,0:0:0:0:
64,0,78926,1,0,0:0:0:0:
192,0,78926,1,0,0:0:0:0:
320,0,78968,1,0,0:0:0:0:
192,0,79009,1,0,0:0:0:0:
64,0,79092,1,0,0:0:0:0:
448,0,79092,1,0,0:0:0:0:
64,0,79176,1,0,0:0:0:0:
320,0,79259,1,0,0:0:0:0:
448,0,79259,1,0,0:0:0:0:
64,0,79300,1,0,0:0:0:0:
320,0,79342,1,0,0:0:0:0:
192,0,79426,1,0,0:0:0:0:
448,0,79426,1,0,0:0:0:0:
320,0,79509,1,0,0:0:0:0:
64,0,79592,1,0,0:0:0:0:
192,0,79592,1,0,0:0:0:0:
448,0,79634,1,0,0:0:0:0:
320,0,79676,1,0,0:0:0:0:
64,0,79759,1,0,0:0:0:0:
448,0,79759,1,0,0:0:0:0:
64,0,79842,1,0,0:0:0:0:
192,0,79842,1,0,0:0:0:0:
320,0,79926,1,0,0:0:0:0:
448,0,79926,1,0,0:0:0:0:
192,0,79968,1,0,0:0:0:0:
320,0,80009,1,0,0:0:0:0:
64,0,80092,1,0,0:0:0:0:
192,0,80092,1,0,0:0:0:0:
448,0,80092,1,0,0:0:0:0:
320,0,80134,1,0,0:0:0:0:
448,0,80176,1,0,0:0:0:0:
64,0,80259,1,0,0:0:0:0:
320,0,80259,1,0,0:0:0:0:
192,0,80342,1,0,0:0:0:0:
64,0,80426,1,0,0:0:0:0:
320,0,80426,1,0,0:0:0:0:
192,0,80509,1,0,0:0:0:0:
320,0,80509,1,0,0:0:0:0:
64,0,80592,1,0,0:0:0:0:
448,0,80592,1,0,0:0:0:0:
192,0,80634,1,0,0:0:0:0:
448,0,80676,1,0,0:0:0:0:
64,0,80759,1,0,0:0:0:0:
320,0,80759,1,0,0:0:0:0:
320,0,80836,1,0,0:0:0:0:
64,0,80926,1,0,0:0:0:0:
192,0,80926,1,0,0:0:0:0:
448,0,80968,1,0,0:0:0:0:
192,0,81009,1,0,0:0:0:0:
320,0,81009,1,0,0:0:0:0:
64,0,81092,1,0,0:0:0:0:
448,0,81092,1,0,0:0:0:0:
448,0,81176,1,0,0:0:0:0:
192,0,81259,1,0,0:0:0:0:
320,0,81259,1,0,0:0:0:0:
64,0,81300,1,0,0:0:0:0:
320,0,81342,1,0,0:0:0:0:
192,0,81384,1,0,0:0:0:0:
64,0,81426,1,0,0:0:0:0:
448,0,81426,1,0,0:0:0:0:
320,0,81509,1,0,0:0:0:0:
448,0,81509,1,0,0:0:0:0:
64,0,81592,1,0,0:0:0:0:
192,0,81592,1,0,0:0:0:0:
320,0,81634,1,0,0:0:0:0:
192,0,81676,1,0,0:0:0:0:
320,0,81717,1,0,0:0:0:0:
64,0,81759,1,0,0:0:0:0:
448,0,81759,1,0,0:0:0:0:
448,0,81842,1,0,0:0:0:0:
64,0,81926,1,0,0:0:0:0:
192,0,81926,1,0,0:0:0:0:
320,0,81968,1,0,0:0:0:0:
64,0,82009,1,0,0:0:0:0:
192,0,82009,1,0,0:0:0:0:
320,0,82092,1,0,0:0:0:0:
448,0,82092,1,0,0:0:0:0:
192,0,82176,1,0,0:0:0:0:
64,0,82259,1,0,0:0:0:0:
320,0,82259,1,0,0:0:0:0:
192,0,82300,1,0,0:0:0:0:
320,0,82342,1,0,0:0:0:0:
192,0,82426,1,0,0:0:0:0:
448,0,82426,1,0,0:0:0:0:
448,0,82509,1,0,0:0:0:0:
64,0,82592,1,0,0:0:0:0:
192,0,82592,1,0,0:0:0:0:
320,0,82592,1,0,0:0:0:0:
448,0,82634,1,0,0:0:0:0:
192,0,82676,1,0,0:0:0:0:
64,0,82759,1,0,0:0:0:0:
320,0,82759,1,0,0:0:0:0:
448,0,82759,1,0,0:0:0:0:
320,0,82842,1,0,0:0:0:0:
64,0,82926,1,0,0:0:0:0:
192,0,82926,1,0,0:0:0:0:
320,0,82968,1,0,0:0:0:0:
192,0,83009,1,0,0:0:0:0:
64,0,83092,1,0,0:0:0:0:
448,0,83092,1,0,0:0:0:0:
320,0,83176,1,0,0:0:0:0:
448,0,83176,1,0,0:0:0:0:
64,0,83259,1,0,0:0:0:0:
192,0,83259,1,0,0:0:0:0:
448,0,83300,1,0,0:0:0:0:
192,0,83342,1,0,0:0:0:0:
64,0,83426,1,0,0:0:0:0:
448,0,83426,1,0,0:0:0:0:
320,0,83509,1,0,0:0:0:0:
64,0,83592,1,0,0:0:0:0:
192,0,83592,1,0,0:0:0:0:
448,0,83634,1,0,0:0:0:0:
64,0,83676,1,0,0:0:0:0:
320,0,83676,1,0,0:0:0:0:
192,0,83759,1,0,0:0:0:0:
448,0,83759,1,0,0:0:0:0:
448,0,83842,1,0,0:0:0:0:
64,0,83926,1,0,0:0:0:0:
192,0,83926,1,0,0:0:0:0:
320,0,83968,1,0,0:0:0:0:
192,0,84009,1,0,0:0:0:0:
448,0,84051,1,0,0:0:0:0:
64,0,84092,1,0,0:0:0:0:
320,0,84092,1,0,0:0:0:0:
320,0,84176,1,0,0:0:0:0:
448,0,84176,1,0,0:0:0:0:
64,0,84259,1,0,0:0:0:0:
192,0,84259,1,0,0:0:0:0:
192,0,84342,1,0,0:0:0:0:
64,0,84426,1,0,0:0:0:0:
448,0,84426,1,0,0:0:0:0:
320,0,84468,1,0,0:0:0:0:
64,0,84509,1,0,0:0:0:0:
192,0,84551,1,0,0:0:0:0:
320,0,84592,1,0,0:0:0:0:
448,0,84592,1,0,0:0:0:0:
64,0,84634,1,0,0:0:0:0:
320,0,84676,1,0,0:0:0:0:
448,0,84676,1,0,0:0:0:0:
192,0,84717,1,0,0:0:0:0:
64,0,84759,1,0,0:0:0:0:
448,0,84759,1,0,0:0:0:0:
320,0,84800,1,0,0:0:0:0:
192,0,84842,1,0,0:0:0:0:
64,0,84884,1,0,0:0:0:0:
320,0,84926,1,0,0:0:0:0:
448,0,84926,1,0,0:0:0:0:
192,0,85009,1,0,0:0:0:0:
64,0,85092,1,0,0:0:0:0:
448,0,85092,1,0,0:0:0:0:
64,0,85176,1,0,0:0:0:0:
192,0,85176,1,0,0:0:0:0:
320,0,85259,1,0,0:0:0:0:
192,0,85342,1,0,0:0:0:0:
320,0,85426,1,0,0:0:0:0:
448,0,85426,1,0,0:0:0:0:
320,0,85509,1,0,0:0:0:0:
448,0,85509,1,0,0:0:0:0:
64,0,85592,1,0,0:0:0:0:
192,0,85592,1,0,0:0:0:0:
64,0,85676,1,0,0:0:0:0:
192,0,85676,1,0,0:0:0:0:
320,0,85759,1,0,0:0:0:0:
448,0,85759,1,0,0:0:0:0:
192,0,85800,1,0,0:0:0:0:
320,0,85842,1,0,0:0:0:0:
192,0,85884,1,0,0:0:0:0:
64,0,85926,1,0,0:0:0:0:
448,0,85926,1,0,0:0:0:0:
320,0,85981,1,0,0:0:0:0:
192,0,86036,1,0,0:0:0:0:
320,0,86092,1,0,0:0:0:0:
448,0,86092,1,0,0:0:0:0:
64,0,86148,1,0,0:0:0:0:
448,0,86204,1,0,0:0:0:0:
64,0,86259,1,0,0:0:0:0:
192,0,86259,1,0,0:0:0:0:
320,0,86300,1,0,0:0:0:0:
192,0,86342,1,0,0:0:0:0:
448,0,86384,1,0,0:0:0:0:
320,0,86426,1,0,0:0:0:0:
192,0,86468,1,0,0:0:0:0:
320,0,86509,1,0,0:0:0:0:
64,0,86551,1,0,0:0:0:0:
192,0,86592,1,0,0:0:0:0:
448,0,86592,1,0,0:0:0:0:
320,0,86648,1,0,0:0:0:0:
192,0,86704,1,0,0:0:0:0:
320,0,86759,1,0,0:0:0:0:
448,0,86759,1,0,0:0:0:0:
64,0,86800,1,0,0:0:0:0:
448,0,86842,1,0,0:0:0:0:
320,0,86870,1,0,0:0:0:0:
64,0,86926,1,0,0:0:0:0:
192,0,86926,1,0,0:0:0:0:
448,0,86981,1,0,0:0:0:0:
192,0,87036,1,0,0:0:0:0:
64,0,87092,1,0,0:0:0:0:
320,0,87092,1,0,0:0:0:0:
448,0,87134,1,0,0:0:0:0:
192,0,87176,1,0,0:0:0:0:
320,0,87217,1,0,0:0:0:0:
64,0,87259,1,0,0:0:0:0:
192,0,87300,1,0,0:0:0:0:
320,0,87342,1,0,0:0:0:0:
192,0,87384,1,0,0:0:0:0:
320,0,87426,1,0,0:0:0:0:
448,0,87426,1,0,0:0:0:0:
64,0,87481,1,0,0:0:0:0:
448,0,87536,1,0,0:0:0:0:
64,0,87592,1,0,0:0:0:0:
192,0,87592,1,0,0:0:0:0:
320,0,87648,1,0,0:0:0:0:
192,0,87704,1,0,0:0:0:0:
64,0,87759,1,0,0:0:0:0:
448,0,87759,1,0,0:0:0:0:
320,0,87800,1,0,0:0:0:0:
64,0,87842,1,0,0:0:0:0:
192,0,87870,1,0,0:0:0:0:
320,0,87926,1,0,0:0:0:0:
448,0,87926,1,0,0:0:0:0:
192,0,87968,1,0,0:0:0:0:
192,0,88051,1,0,0:0:0:0:
64,0,88092,1,0,0:0:0:0:
320,0,88092,1,0,0:0:0:0:
448,0,88134,1,0,0:0:0:0:
64,0,88176,1,0,0:0:0:0:
192,0,88204,1,0,0:0:0:0:
320,0,88259,1,0,0:0:0:0:
448,0,88259,1,0,0:0:0:0:
64,0,88315,1,0,0:0:0:0:
448,0,88370,1,0,0:0:0:0:
64,0,88426,1,0,0:0:0:0:
192,0,88426,1,0,0:0:0:0:
320,0,88468,1,0,0:0:0:0:
192,0,88509,1,0,0:0:0:0:
320,0,88551,1,0,0:0:0:0:
448,0,88592,1,0,0:0:0:0:
64,0,88634,1,0,0:0:0:0:
320,0,88676,1,0,0:0:0:0:
192,0,88717,1,0,0:0:0:0:
64,0,88759,1,0,0:0:0:0:
448,0,88759,1,0,0:0:0:0:
320,0,88815,1,0,0:0:0:0:
448,0,88870,1,0,0:0:0:0:
64,0,88926,1,0,0:0:0:0:
192,0,88926,1,0,0:0:0:0:
320,0,88981,1,0,0:0:0:0:
64,0,89036,1,0,0:0:0:0:
320,0,89092,1,0,0:0:0:0:
448,0,89092,1,0,0:0:0:0:
192,0,89134,1,0,0:0:0:0:
320,0,89176,1,0,0:0:0:0:
192,0,89217,1,0,0:0:0:0:
64,0,89259,1,0,0:0:0:0:
448,0,89300,1,0,0:0:0:0:
192,0,89342,1,0,0:0:0:0:
320,0,89384,1,0,0:0:0:0:
64,0,89426,1,0,0:0:0:0:
192,0,89426,1,0,0:0:0:0:
448,0,89481,1,0,0:0:0:0:
64,0,89536,1,0,0:0:0:0:
320,0,89592,1,0,0:0:0:0:
448,0,89592,1,0,0:0:0:0:
192,0,89648,1,0,0:0:0:0:
448,0,89704,1,0,0:0:0:0:
192,0,89759,1,0,0:0:0:0:
320,0,89759,1,0,0:0:0:0:
64,0,89800,1,0,0:0:0:0:
320,0,89842,1,0,0:0:0:0:
192,0,89884,1,0,0:0:0:0:
448,0,89926,1,0,0:0:0:0:
320,0,89968,1,0,0:0:0:0:
192,0,90009,1,0,0:0:0:0:
64,0,90051,1,0,0:0:0:0:
320,0,90092,1,0,0:0:0:0:
448,0,90092,1,0,0:0:0:0:
192,0,90148,1,0,0:0:0:0:
320,0,90204,1,0,0:0:0:0:
64,0,90259,1,0,0:0:0:0:
192,0,90259,1,0,0:0:0:0:
448,0,90315,1,0,0:0:0:0:
192,0,90370,1,0,0:0:0:0:
320,0,90426,1,0,0:0:0:0:
448,0,90426,1,0,0:0:0:0:
64,0,90468,1,0,0:0:0:0:
320,0,90509,1,0,0:0:0:0:
192,0,90536,1,0,0:0:0:0:
64,0,90600,1,0,0:0:0:0:
448,0,90600,1,0,0:0:0:0:
192,0,90648,1,0,0:0:0:0:
448,0,90704,1,0,0:0:0:0:
64,0,90759,1,0,0:0:0:0:
320,0,90759,1,0,0:0:0:0:
192,0,90800,1,0,0:0:0:0:
448,0,90842,1,0,0:0:0:0:
320,0,90884,1,0,0:0:0:0:
192,0,90926,1,0,0:0:0:0:
320,0,90981,1,0,0:0:0:0:
64,0,91036,1,0,0:0:0:0:
192,0,91092,1,0,0:0:0:0:
320,0,91092,1,0,0:0:0:0:
448,0,91092,1,0,0:0:0:0:
64,0,91134,1,0,0:0:0:0:
320,0,91176,1,0,0:0:0:0:
192,0,91217,1,0,0:0:0:0:
64,0,91259,1,0,0:0:0:0:
448,0,91259,1,0,0:0:0:0:
320,0,91315,1,0,0:0:0:0:
64,0,91370,1,0,0:0:0:0:
192,0,91370,1,0,0:0:0:0:
320,0,91426,1,0,0:0:0:0:
448,0,91426,1,0,0:0:0:0:
64,0,91481,1,0,0:0:0:0:
192,0,91536,1,0,0:0:0:0:
448,0,91536,1,0,0:0:0:0:
320,0,91592,1,0,0:0:0:0:
64,0,91634,1,0,0:0:0:0:
192,0,91676,1,0,0:0:0:0:
448,0,91717,1,0,0:0:0:0:
64,0,91759,1,0,0:0:0:0:
320,0,91759,1,0,0:0:0:0:
192,0,91800,1,0,0:0:0:0:
320,0,91842,1,0,0:0:0:0:
64,0,91884,1,0,0:0:0:0:
192,0,91926,1,0,0:0:0:0:
448,0,91926,1,0,0:0:0:0:
320,0,91981,1,0,0:0:0:0:
64,0,92036,1,0,0:0:0:0:
192,0,92036,1,0,0:0:0:0:
320,0,92092,1,0,0:0:0:0:
448,0,92092,1,0,0:0:0:0:
64,0,92134,1,0,0:0:0:0:
448,0,92176,1,0,0:0:0:0:
192,0,92204,1,0,0:0:0:0:
64,0,92259,1,0,0:0:0:0:
320,0,92259,1,0,0:0:0:0:
448,0,92315,1,0,0:0:0:0:
64,0,92370,1,0,0:0:0:0:
192,0,92370,1,0,0:0:0:0:
320,0,92426,1,0,0:0:0:0:
448,0,92426,1,0,0:0:0:0:
192,0,92468,1,0,0:0:0:0:
320,0,92509,1,0,0:0:0:0:
192,0,92551,1,0,0:0:0:0:
64,0,92592,1,0,0:0:0:0:
448,0,92592,1,0,0:0:0:0:
320,0,92634,1,0,0:0:0:0:
448,0,92676,1,0,0:0:0:0:
192,0,92717,1,0,0:0:0:0:
64,0,92759,1,0,0:0:0:0:
320,0,92759,1,0,0:0:0:0:
448,0,92815,1,0,0:0:0:0:
64,0,92870,1,0,0:0:0:0:
192,0,92870,1,0,0:0:0:0:
320,0,92926,1,0,0:0:0:0:
64,0,92981,1,0,0:0:0:0:
192,0,93036,1,0,0:0:0:0:
320,0,93092,1,0,0:0:0:0:
448,0,93092,1,0,0:0:0:0:
64,0,93148,1,0,0:0:0:0:
192,0,93204,1,0,0:0:0:0:
448,0,93204,1,0,0:0:0:0:
320,0,93259,1,0,0:0:0:0:
64,0,93315,1,0,0:0:0:0:
320,0,93370,1,0,0:0:0:0:
192,0,93426,1,0,0:0:0:0:
448,0,93426,1,0,0:0:0:0:
64,0,93468,1,0,0:0:0:0:
448,0,93509,1,0,0:0:0:0:
192,0,93536,1,0,0:0:0:0:
64,0,93592,1,0,0:0:0:0:
320,0,93592,1,0,0:0:0:0:
448,0,93648,1,0,0:0:0:0:
64,0,93704,1,0,0:0:0:0:
192,0,93704,1,0,0:0:0:0:
320,0,93759,1,0,0:0:0:0:
448,0,93759,1,0,0:0:0:0:
64,0,93800,1,0,0:0:0:0:
320,0,93842,1,0,0:0:0:0:
192,0,93884,1,0,0:0:0:0:
64,0,93926,1,0,0:0:0:0:
448,0,93926,1,0,0:0:0:0:
320,0,93968,1,0,0:0:0:0:
448,0,94009,1,0,0:0:0:0:
192,0,94051,1,0,0:0:0:0:
64,0,94092,1,0,0:0:0:0:
320,0,94092,1,0,0:0:0:0:
448,0,94148,1,0,0:0:0:0:
64,0,94204,1,0,0:0:0:0:
192,0,94204,1,0,0:0:0:0:
320,0,94259,1,0,0:0:0:0:
192,0,94300,1,0,0:0:0:0:
320,0,94342,1,0,0:0:0:0:
64,0,94384,1,0,0:0:0:0:
192,0,94426,1,0,0:0:0:0:
448,0,94426,1,0,0:0:0:0:
320,0,94481,1,0,0:0:0:0:
64,0,94536,1,0,0:0:0:0:
192,0,94536,1,0,0:0:0:0:
320,0,94592,1,0,0:0:0:0:
64,0,94648,1,0,0:0:0:0:
448,0,94648,1,0,0:0:0:0:
192,0,94704,1,0,0:0:0:0:
320,0,94759,1,0,0:0:0:0:
448,0,94759,1,0,0:0:0:0:
64,0,94800,1,0,0:0:0:0:
320,0,94842,1,0,0:0:0:0:
192,0,94870,1,0,0:0:0:0:
64,0,94926,1,0,0:0:0:0:
448,0,94926,1,0,0:0:0:0:
320,0,94981,1,0,0:0:0:0:
64,0,95036,1,0,0:0:0:0:
192,0,95036,1,0,0:0:0:0:
320,0,95092,1,0,0:0:0:0:
448,0,95092,1,0,0:0:0:0:
192,0,95134,1,0,0:0:0:0:
320,0,95176,1,0,0:0:0:0:
192,0,95217,1,0,0:0:0:0:
64,0,95259,1,0,0:0:0:0:
448,0,95259,1,0,0:0:0:0:
320,0,95300,1,0,0:0:0:0:
192,0,95342,1,0,0:0:0:0:
320,0,95384,1,0,0:0:0:0:
64,0,95426,1,0,0:0:0:0:
448,0,95426,1,0,0:0:0:0:
192,0,95481,1,0,0:0:0:0:
64,0,95536,1,0,0:0:0:0:
448,0,95536,1,0,0:0:0:0:
192,0,95592,1,0,0:0:0:0:
320,0,95592,1,0,0:0:0:0:
64,0,95648,1,0,0:0:0:0:
320,0,95704,1,0,0:0:0:0:
448,0,95704,1,0,0:0:0:0:
64,0,95759,1,0,0:0:0:0:
192,0,95759,1,0,0:0:0:0:
448,0,95800,1,0,0:0:0:0:
64,0,95842,1,0,0:0:0:0:
192,0,95842,1,0,0:0:0:0:
320,0,95884,1,0,0:0:0:0:
64,0,95926,1,0,0:0:0:0:
320,0,95968,1,0,0:0:0:0:
448,0,95968,1,0,0:0:0:0:
192,0,96009,1,0,0:0:0:0:
320,0,96051,1,0,0:0:0:0:
64,0,96092,1,0,0:0:0:0:
448,0,96092,1,0,0:0:0:0:
192,0,96142,1,0,0:0:0:0:
64,0,96190,1,0,0:0:0:0:
320,0,96238,1,0,0:0:0:0:
448,0,96238,1,0,0:0:0:0:
192,0,96287,1,0,0:0:0:0:
320,0,96336,1,0,0:0:0:0:
64,0,96384,1,0,0:0:0:0:
192,0,96426,1,0,0:0:0:0:
448,0,96426,1,0,0:0:0:0:
320,0,96468,1,0,0:0:0:0:
192,0,96509,1,0,0:0:0:0:
64,0,96551,1,0,0:0:0:0:
320,0,96592,1,0,0:0:0:0:
448,0,96634,1,0,0:0:0:0:
192,0,96676,1,0,0:0:0:0:
320,0,96717,1,0,0:0:0:0:
64,0,96759,1,0,0:0:0:0:
192,0,96759,1,0,0:0:0:0:
448,0,96800,1,0,0:0:0:0:
64,0,96842,1,0,0:0:0:0:
192,0,96884,1,0,0:0:0:0:
320,0,96926,1,0,0:0:0:0:
448,0,96968,1,0,0:0:0:0:
64,0,97009,1,0,0:0:0:0:
320,0,97051,1,0,0:0:0:0:
192,0,97092,1,0,0:0:0:0:
448,0,97092,1,0,0:0:0:0:
64,0,97134,1,0,0:0:0:0:
320,0,97176,1,0,0:0:0:0:
448,0,97217,1,0,0:0:0:0:
192,0,97259,1,0,0:0:0:0:
320,0,97300,1,0,0:0:0:0:
64,0,97342,1,0,0:0:0:0:
192,0,97384,1,0,0:0:0:0:
320,0,97426,1,0,0:0:0:0:
448,0,97426,1,0,0:0:0:0:
64,0,97468,1,0,0:0:0:0:
320,0,97509,1,0,0:0:0:0:
192,0,97551,1,0,0:0:0:0:
448,0,97592,1,0,0:0:0:0:
192,0,97634,1,0,0:0:0:0:
64,0,97676,1,0,0:0:0:0:
320,0,97717,1,0,0:0:0:0:
192,0,97759,1,0,0:0:0:0:
448,0,97759,1,0,0:0:0:0:
64,0,97800,1,0,0:0:0:0:
448,0,97842,1,0,0:0:0:0:
320,0,97884,1,0,0:0:0:0:
64,0,97926,1,0,0:0:0:0:
192,0,97968,1,0,0:0:0:0:
320,0,98009,1,0,0:0:0:0:
64,0,98051,1,0,0:0:0:0:
192,0,98092,1,0,0:0:0:0:
448,0,98092,1,0,0:0:0:0:
64,0,98134,1,0,0:0:0:0:
448,0,98176,1,0,0:0:0:0:
320,0,98217,1,0,0:0:0:0:
192,0,98259,1,0,0:0:0:0:
64,0,98300,1,0,0:0:0:0:
320,0,98342,1,0,0:0:0:0:
448,0,98384,1,0,0:0:0:0:
64,0,98426,1,0,0:0:0:0:
192,0,98426,1,0,0:0:0:0:
320,0,98468,1,0,0:0:0:0:
64,0,98509,1,0,0:0:0:0:
448,0,98551,1,0,0:0:0:0:
192,0,98592,1,0,0:0:0:0:
64,0,98634,1,0,0:0:0:0:
320,0,98676,1,0,0:0:0:0:
192,0,98717,1,0,0:0:0:0:
64,0,98759,1,0,0:0:0:0:
448,0,98759,1,0,0:0:0:0:
320,0,98800,1,0,0:0:0:0:
64,0,98842,1,0,0:0:0:0:
448,0,98884,1,0,0:0:0:0:
192,0,98926,1,0,0:0:0:0:
448,0,98968,1,0,0:0:0:0:
64,0,99009,1,0,0:0:0:0:
192,0,99051,1,0,0:0:0:0:
320,0,99092,1,0,0:0:0:0:
448,0,99092,1,0,0:0:0:0:
64,0,99134,1,0,0:0:0:0:
320,0,99176,1,0,0:0:0:0:
192,0,99217,1,0,0:0:0:0:
448,0,99259,1,0,0:0:0:0:
320,0,99300,1,0,0:0:0:0:
192,0,99342,1,0,0:0:0:0:
64,0,99384,1,0,0:0:0:0:
320,0,99426,1,0,0:0:0:0:
448,0,99426,1,0,0:0:0:0:
192,0,99475,1,0,0:0:0:0:
320,0,99524,1,0,0:0:0:0:
192,0,99572,1,0,0:0:0:0:
64,0,99620,1,0,0:0:0:0:
320,0,99669,1,0,0:0:0:0:
448,0,99717,1,0,0:0:0:0:
64,0,99759,1,0,0:0:0:0:
192,0,99759,1,0,0:0:0:0:
320,0,99808,1,0,0:0:0:0:
192,0,99857,1,0,0:0:0:0:
320,0,99905,1,0,0:0:0:0:
64,0,99953,1,0,0:0:0:0:
192,0,100003,1,0,0:0:0:0:
64,0,100051,1,0,0:0:0:0:
320,0,100092,1,0,0:0:0:0:
448,0,100092,1,0,0:0:0:0:
192,0,100142,1,0,0:0:0:0:
320,0,100190,1,0,0:0:0:0:
64,0,100238,1,0,0:0:0:0:
448,0,100259,1,0,0:0:0:0:
320,0,100300,1,0,0:0:0:0:
192,0,100342,1,0,0:0:0:0:
64,0,100384,1,0,0:0:0:0:
320,0,100426,1,0,0:0:0:0:
448,0,100426,1,0,0:0:0:0:
192,0,100481,1,0,0:0:0:0:
320,0,100536,1,0,0:0:0:0:
64,0,100592,1,0,0:0:0:0:
192,0,100592,1,0,0:0:0:0:
448,0,100648,1,0,0:0:0:0:
192,0,100704,1,0,0:0:0:0:
320,0,100759,1,0,0:0:0:0:
448,0,100759,1,0,0:0:0:0:
64,0,100815,1,0,0:0:0:0:
320,0,100870,1,0,0:0:0:0:
192,0,100926,1,0,0:0:0:0:
448,0,100926,1,0,0:0:0:0:
64,0,100981,1,0,0:0:0:0:
448,0,101036,1,0,0:0:0:0:
192,0,101092,1,0,0:0:0:0:
320,0,101092,1,0,0:0:0:0:
64,0,101142,1,0,0:0:0:0:
320,0,101190,1,0,0:0:0:0:
64,0,101238,1,0,0:0:0:0:
192,0,101238,1,0,0:0:0:0:
448,0,101287,1,0,0:0:0:0:
320,0,101336,1,0,0:0:0:0:
448,0,101384,1,0,0:0:0:0:
64,0,101426,1,0,0:0:0:0:
192,0,101426,1,0,0:0:0:0:
320,0,101468,1,0,0:0:0:0:
192,0,101509,1,0,0:0:0:0:
448,0,101551,1,0,0:0:0:0:
64,0,101592,1,0,0:0:0:0:
320,0,101592,1,0,0:0:0:0:
192,0,101634,1,0,0:0:0:0:
320,0,101676,1,0,0:0:0:0:
192,0,101717,1,0,0:0:0:0:
64,0,101759,1,0,0:0:0:0:
448,0,101759,1,0,0:0:0:0:
320,0,101808,1,0,0:0:0:0:
192,0,101857,1,0,0:0:0:0:
320,0,101905,1,0,0:0:0:0:
448,0,101905,1,0,0:0:0:0:
64,0,101953,1,0,0:0:0:0:
192,0,102003,1,0,0:0:0:0:
320,0,102051,1,0,0:0:0:0:
64,0,102092,1,0,0:0:0:0:
448,0,102092,1,0,0:0:0:0:
192,0,102142,1,0,0:0:0:0:
64,0,102190,1,0,0:0:0:0:
320,0,102238,1,0,0:0:0:0:
448,0,102238,1,0,0:0:0:0:
192,0,102287,1,0,0:0:0:0:
320,0,102336,1,0,0:0:0:0:
192,0,102384,1,0,0:0:0:0:
64,0,102426,1,0,0:0:0:0:
448,0,102426,1,0,0:0:0:0:
320,0,102475,1,0,0:0:0:0:
448,0,102524,1,0,0:0:0:0:
64,0,102572,1,0,0:0:0:0:
192,0,102572,1,0,0:0:0:0:
320,0,102620,1,0,0:0:0:0:
192,0,102669,1,0,0:0:0:0:
448,0,102717,1,0,0:0:0:0:
64,0,102759,1,0,0:0:0:0:
320,0,102759,1,0,0:0:0:0:
192,0,102808,1,0,0:0:0:0:
320,0,102857,1,0,0:0:0:0:
64,0,102905,1,0,0:0:0:0:
448,0,102905,1,0,0:0:0:0:
192,0,102953,1,0,0:0:0:0:
64,0,103003,1,0,0:0:0:0:
320,0,103051,1,0,0:0:0:0:
192,0,103092,1,0,0:0:0:0:
448,0,103092,1,0,0:0:0:0:
64,0,103142,1,0,0:0:0:0:
448,0,103190,1,0,0:0:0:0:
64,0,103238,1,0,0:0:0:0:
192,0,103238,1,0,0:0:0:0:
320,0,103287,1,0,0:0:0:0:
192,0,103336,1,0,0:0:0:0:
320,0,103384,1,0,0:0:0:0:
64,0,103426,1,0,0:0:0:0:
448,0,103426,1,0,0:0:0:0:
192,0,103481,1,0,0:0:0:0:
320,0,103536,1,0,0:0:0:0:
64,0,103592,1,0,0:0:0:0:
192,0,103592,1,0,0:0:0:0:
448,0,103648,1,0,0:0:0:0:
192,0,103704,1,0,0:0:0:0:
64,0,103759,1,0,0:0:0:0:
320,0,103759,1,0,0:0:0:0:
448,0,103815,1,0,0:0:0:0:
192,0,103870,1,0,0:0:0:0:
320,0,103926,1,0,0:0:0:0:
448,0,103926,1,0,0:0:0:0:
64,0,103981,1,0,0:0:0:0:
320,0,104036,1,0,0:0:0:0:
64,0,104092,1,0,0:0:0:0:
192,0,104092,1,0,0:0:0:0:
448,0,104134,1,0,0:0:0:0:
320,0,104176,1,0,0:0:0:0:
192,0,104217,1,0,0:0:0:0:
64,0,104259,1,0,0:0:0:0:
320,0,104300,1,0,0:0:0:0:
192,0,104342,1,0,0:0:0:0:
64,0,104384,1,0,0:0:0:0:
320,0,104426,1,0,0:0:0:0:
448,0,104426,1,0,0:0:0:0:
192,0,104475,1,0,0:0:0:0:
320,0,104524,1,0,0:0:0:0:
64,0,104572,1,0,0:0:0:0:
448,0,104572,1,0,0:0:0:0:
192,0,104620,1,0,0:0:0:0:
64,0,104669,1,0,0:0:0:0:
320,0,104717,1,0,0:0:0:0:
192,0,104759,1,0,0:0:0:0:
448,0,104759,1,0,0:0:0:0:
64,0,104808,1,0,0:0:0:0:
448,0,104857,1,0,0:0:0:0:
64,0,104905,1,0,0:0:0:0:
192,0,104905,1,0,0:0:0:0:
320,0,104953,1,0,0:0:0:0:
192,0,105003,1,0,0:0:0:0:
320,0,105051,1,0,0:0:0:0:
64,0,105092,1,0,0:0:0:0:
448,0,105092,1,0,0:0:0:0:
192,0,105142,1,0,0:0:0:0:
64,0,105190,1,0,0:0:0:0:
320,0,105238,1,0,0:0:0:0:
448,0,105238,1,0,0:0:0:0:
192,0,105287,1,0,0:0:0:0:
320,0,105336,1,0,0:0:0:0:
192,0,105384,1,0,0:0:0:0:
64,0,105426,1,0,0:0:0:0:
448,0,105426,1,0,0:0:0:0:
320,0,105475,1,0,0:0:0:0:
448,0,105524,1,0,0:0:0:0:
64,0,105572,1,0,0:0:0:0:
192,0,105572,1,0,0:0:0:0:
320,0,105620,1,0,0:0:0:0:
64,0,105669,1,0,0:0:0:0:
320,0,105717,1,0,0:0:0:0:
192,0,105759,1,0,0:0:0:0:
448,0,105759,1,0,0:0:0:0:
64,0,105808,1,0,0:0:0:0:
448,0,105857,1,0,0:0:0:0:
64,0,105905,1,0,0:0:0:0:
192,0,105905,1,0,0:0:0:0:
320,0,105953,1,0,0:0:0:0:
192,0,106003,1,0,0:0:0:0:
320,0,106051,1,0,0:0:0:0:
64,0,106092,1,0,0:0:0:0:
448,0,106092,1,0,0:0:0:0:
192,0,106142,1,0,0:0:0:0:
64,0,106190,1,0,0:0:0:0:
320,0,106238,1,0,0:0:0:0:
448,0,106238,1,0,0:0:0:0:
192,0,106287,1,0,0:0:0:0:
448,0,106336,1,0,0:0:0:0:
320,0,106384,1,0,0:0:0:0:
64,0,106426,1,0,0:0:0:0:
192,0,106426,1,0,0:0:0:0:
448,0,106475,1,0,0:0:0:0:
192,0,106524,1,0,0:0:0:0:
64,0,106572,1,0,0:0:0:0:
320,0,106572,1,0,0:0:0:0:
448,0,106620,1,0,0:0:0:0:
64,0,106669,1,0,0:0:0:0:
192,0,106717,1,0,0:0:0:0:
320,0,106759,1,0,0:0:0:0:
448,0,106759,1,0,0:0:0:0:
64,0,106842,1,0,0:0:0:0:
320,0,106842,1,0,0:0:0:0:
192,0,106926,1,0,0:0:0:0:
448,0,106926,1,0,0:0:0:0:
192,0,107009,1,0,0:0:0:0:
320,0,107009,1,0,0:0:0:0:
64,0,107092,1,0,0:0:0:0:
192,0,107092,1,0,0:0:0:0:
448,0,107092,1,0,0:0:0:0:
64,0,107259,1,0,0:0:0:0:
192,0,107259,1,0,0:0:0:0:
448,0,107259,1,0,0:0:0:0:
