osu file format v14

[General]
AudioFilename: audio.mp3
AudioLeadIn: 0
PreviewTime: 67209
Countdown: 0
SampleSet: Soft
StackLeniency: 0.7
Mode: 3
LetterboxInBreaks: 0
SpecialStyle: 0
WidescreenStoryboard: 1

[Editor]
DistanceSpacing: 1
BeatDivisor: 4
GridSize: 16
TimelineZoom: 1.4

[Metadata]
Title:Bulletproof Love (Cut Ver.)
TitleUnicode:Bulletproof Love (Cut Ver.)
Artist:Pierce The Veil
ArtistUnicode:Pierce The Veil
Creator:NzArs
Version:Iyehz's Hard
Source:
Tags:post-hardcore pop punk emo-pop progressive rock selfish machines iyehz pairoxd ptv english version
BeatmapID:3799675
BeatmapSetID:1849703

[Difficulty]
HPDrainRate:7.5
CircleSize:4
OverallDifficulty:7.5
ApproachRate:5
SliderMultiplier:1.4
SliderTickRate:1

[Events]
//Background and Video events
0,0,"8nCZtlvw_4x (1).jpg",0,0
//Break Periods
//Storyboard Layer 0 (Background)
//Storyboard Layer 1 (Fail)
//Storyboard Layer 2 (Pass)
//Storyboard Layer 3 (Foreground)
//Storyboard Layer 4 (Overlay)
//Storyboard Sound Samples

[TimingPoints]
543,416.666666666667,4,2,1,70,1,0
53876,-100,4,2,1,70,0,1
66376,-100,4,2,1,70,0,0
93876,-100,4,2,1,70,0,1
107209,-100,4,2,1,70,0,0
113876,-100,4,2,1,70,0,1
120543,-100,4,2,1,70,0,0

[HitObjects]
320,192,543,5,0,0:0:0:0:
64,192,543,1,0,0:0:0:0:
448,192,543,1,0,0:0:0:0:
448,192,751,5,0,0:0:0:0:
64,192,959,1,0,0:0:0:0:
320,192,959,1,0,0:0:0:0:
448,192,1168,1,0,0:0:0:0:
192,192,1376,1,0,0:0:0:0:
192,192,1584,1,0,0:0:0:0:
320,192,1793,1,0,0:0:0:0:
64,192,1793,1,0,0:0:0:0:
192,192,2001,1,0,0:0:0:0:
448,192,2209,1,0,0:0:0:0:
448,192,2418,1,0,0:0:0:0:
64,192,2626,1,0,0:0:0:0:
320,192,2626,1,0,0:0:0:0:
192,192,2834,1,0,0:0:0:0:
320,192,3043,1,0,0:0:0:0:
320,192,3251,1,0,0:0:0:0:
64,192,3459,1,0,0:0:0:0:
192,192,3459,1,0,0:0:0:0:
448,192,3668,1,0,0:0:0:0:
320,192,3876,1,0,0:0:0:0:
320,192,4084,1,0,0:0:0:0:
64,192,4293,1,0,0:0:0:0:
192,192,4293,1,0,0:0:0:0:
320,192,4501,1,0,0:0:0:0:
64,192,4709,1,0,0:0:0:0:
64,192,4918,1,0,0:0:0:0:
448,192,5126,1,0,0:0:0:0:
192,192,5126,1,0,0:0:0:0:
320,192,5334,1,0,0:0:0:0:
192,192,5543,1,0,0:0:0:0:
192,192,5751,1,0,0:0:0:0:
448,192,5959,1,0,0:0:0:0:
64,192,5959,1,0,0:0:0:0:
320,192,6168,1,0,0:0:0:0:
192,192,6376,1,0,0:0:0:0:
192,192,6584,1,0,0:0:0:0:
64,192,6793,1,0,0:0:0:0:
448,192,6793,1,0,0:0:0:0:
192,192,7001,1,0,0:0:0:0:
320,192,7209,1,0,0:0:0:0:
320,192,7418,1,0,0:0:0:0:
448,192,7626,1,0,0:0:0:0:
64,192,7626,1,0,0:0:0:0:
192,192,7834,1,0,0:0:0:0:
320,192,8043,1,0,0:0:0:0:
320,192,8251,1,0,0:0:0:0:
64,192,8459,1,0,0:0:0:0:
448,192,8459,1,0,0:0:0:0:
192,192,8668,1,0,0:0:0:0:
64,192,8876,1,0,0:0:0:0:
64,192,9084,1,0,0:0:0:0:
448,192,9293,1,0,0:0:0:0:
320,192,9293,1,0,0:0:0:0:
192,192,9501,1,0,0:0:0:0:
64,192,9709,1,0,0:0:0:0:
64,192,9918,1,0,0:0:0:0:
320,192,10126,1,0,0:0:0:0:
448,192,10126,1,0,0:0:0:0:
64,192,10334,1,0,0:0:0:0:
192,192,10543,1,0,0:0:0:0:
192,192,10751,1,0,0:0:0:0:
320,192,10959,1,0,0:0:0:0:
448,192,10959,1,0,0:0:0:0:
192,192,11168,1,0,0:0:0:0:
320,192,11376,1,0,0:0:0:0:
320,192,11584,1,0,0:0:0:0:
192,192,11793,1,0,0:0:0:0:
64,192,11793,1,0,0:0:0:0:
320,192,12001,1,0,0:0:0:0:
448,192,12209,1,0,0:0:0:0:
448,192,12418,1,0,0:0:0:0:
64,192,12626,1,0,0:0:0:0:
192,192,12626,1,0,0:0:0:0:
320,192,12834,1,0,0:0:0:0:
192,192,13043,1,0,0:0:0:0:
192,192,13251,1,0,0:0:0:0:
64,192,13459,1,0,0:0:0:0:
320,192,13459,1,0,0:0:0:0:
192,192,13668,1,0,0:0:0:0:
320,192,13772,1,0,0:0:0:0:
64,192,13876,1,0,0:0:0:0:
320,192,14084,1,0,0:0:0:0:
448,192,14293,1,0,0:0:0:0:
192,192,14293,1,0,0:0:0:0:
64,192,14293,1,0,0:0:0:0:
320,192,14501,1,0,0:0:0:0:
192,192,14709,1,0,0:0:0:0:
448,192,14918,1,0,0:0:0:0:
320,192,14918,1,0,0:0:0:0:
64,192,15126,1,0,0:0:0:0:
192,192,15334,1,0,0:0:0:0:
448,192,15334,1,0,0:0:0:0:
64,192,15543,1,0,0:0:0:0:
320,192,15751,1,0,0:0:0:0:
448,192,15959,1,0,0:0:0:0:
64,192,15959,1,0,0:0:0:0:
192,192,15959,1,0,0:0:0:0:
320,192,16168,1,0,0:0:0:0:
448,192,16376,1,0,0:0:0:0:
64,192,16584,1,0,0:0:0:0:
448,192,16793,1,0,0:0:0:0:
192,192,16793,1,0,0:0:0:0:
320,192,17001,1,0,0:0:0:0:
192,192,17209,1,0,0:0:0:0:
64,192,17418,1,0,0:0:0:0:
448,192,17626,1,0,0:0:0:0:
192,192,17626,1,0,0:0:0:0:
320,192,17626,1,0,0:0:0:0:
64,192,17834,1,0,0:0:0:0:
320,192,18043,1,0,0:0:0:0:
448,192,18251,1,0,0:0:0:0:
64,192,18251,1,0,0:0:0:0:
192,192,18459,1,0,0:0:0:0:
320,192,18668,1,0,0:0:0:0:
448,192,18668,1,0,0:0:0:0:
64,192,18876,1,0,0:0:0:0:
320,192,19084,1,0,0:0:0:0:
448,192,19293,1,0,0:0:0:0:
192,192,19293,1,0,0:0:0:0:
64,192,19293,1,0,0:0:0:0:
320,192,19501,1,0,0:0:0:0:
64,192,19709,1,0,0:0:0:0:
192,192,19918,1,0,0:0:0:0:
64,192,20126,1,0,0:0:0:0:
448,192,20126,1,0,0:0:0:0:
320,192,20126,1,0,0:0:0:0:
192,192,20334,1,0,0:0:0:0:
320,192,20543,1,0,0:0:0:0:
448,192,20751,1,0,0:0:0:0:
192,192,20959,1,0,0:0:0:0:
320,192,20959,1,0,0:0:0:0:
64,192,20959,1,0,0:0:0:0:
448,192,21168,1,0,0:0:0:0:
192,192,21376,1,0,0:0:0:0:
64,192,21584,1,0,0:0:0:0:
320,192,21584,1,0,0:0:0:0:
448,192,21793,1,0,0:0:0:0:
192,192,22001,1,0,0:0:0:0:
64,192,22001,1,0,0:0:0:0:
448,192,22209,1,0,0:0:0:0:
320,192,22418,1,0,0:0:0:0:
448,192,22626,1,0,0:0:0:0:
192,192,22626,1,0,0:0:0:0:
64,192,22626,1,0,0:0:0:0:
320,192,22834,1,0,0:0:0:0:
192,192,23043,1,0,0:0:0:0:
448,192,23251,1,0,0:0:0:0:
192,192,23459,1,0,0:0:0:0:
320,192,23459,1,0,0:0:0:0:
64,192,23459,1,0,0:0:0:0:
448,192,23668,1,0,0:0:0:0:
192,192,23876,1,0,0:0:0:0:
64,192,24084,1,0,0:0:0:0:
192,192,24293,1,0,0:0:0:0:
320,192,24293,1,0,0:0:0:0:
448,192,24293,1,0,0:0:0:0:
320,192,24501,1,0,0:0:0:0:
192,192,24709,1,0,0:0:0:0:
448,192,24918,1,0,0:0:0:0:
320,192,24918,1,0,0:0:0:0:
192,192,25126,1,0,0:0:0:0:
448,192,25334,1,0,0:0:0:0:
64,192,25334,1,0,0:0:0:0:
320,192,25334,1,0,0:0:0:0:
192,192,25543,1,0,0:0:0:0:
64,192,25543,1,0,0:0:0:0:
448,192,25959,128,0,26376:0:0:0:0:
64,192,26168,128,0,26376:0:0:0:0:
320,192,26376,1,0,0:0:0:0:
192,192,26480,1,0,0:0:0:0:
448,192,26584,1,0,0:0:0:0:
64,192,26584,1,0,0:0:0:0:
320,192,26688,1,0,0:0:0:0:
192,192,26793,1,0,0:0:0:0:
64,192,26793,1,0,0:0:0:0:
448,192,26897,1,0,0:0:0:0:
320,192,27001,1,0,0:0:0:0:
192,192,27105,1,0,0:0:0:0:
64,192,27209,1,0,0:0:0:0:
448,192,27209,1,0,0:0:0:0:
320,192,27418,1,0,0:0:0:0:
64,192,27626,1,0,0:0:0:0:
192,192,27626,1,0,0:0:0:0:
320,192,27834,1,0,0:0:0:0:
192,192,28043,1,0,0:0:0:0:
64,192,28251,1,0,0:0:0:0:
448,192,28251,1,0,0:0:0:0:
320,192,28459,1,0,0:0:0:0:
192,192,28668,1,0,0:0:0:0:
64,192,28876,1,0,0:0:0:0:
448,192,29084,1,0,0:0:0:0:
320,192,29293,1,0,0:0:0:0:
64,192,29293,1,0,0:0:0:0:
192,192,29501,1,0,0:0:0:0:
320,192,29709,1,0,0:0:0:0:
192,192,29918,1,0,0:0:0:0:
64,192,30126,1,0,0:0:0:0:
448,192,30126,1,0,0:0:0:0:
320,192,30334,1,0,0:0:0:0:
192,192,30438,1,0,0:0:0:0:
448,192,30543,1,0,0:0:0:0:
64,192,30543,1,0,0:0:0:0:
320,192,30751,1,0,0:0:0:0:
64,192,30959,1,0,0:0:0:0:
192,192,30959,1,0,0:0:0:0:
320,192,31168,1,0,0:0:0:0:
448,192,31376,1,0,0:0:0:0:
192,192,31584,1,0,0:0:0:0:
64,192,31584,1,0,0:0:0:0:
320,192,31793,1,0,0:0:0:0:
192,192,32001,1,0,0:0:0:0:
448,192,32209,1,0,0:0:0:0:
64,192,32418,1,0,0:0:0:0:
192,192,32626,1,0,0:0:0:0:
448,192,32626,1,0,0:0:0:0:
64,192,32834,1,0,0:0:0:0:
192,192,33043,1,0,0:0:0:0:
320,192,33147,1,0,0:0:0:0:
64,192,33251,1,0,0:0:0:0:
448,192,33251,1,0,0:0:0:0:
192,192,33355,1,0,0:0:0:0:
320,192,33459,1,0,0:0:0:0:
448,192,33459,1,0,0:0:0:0:
64,192,33563,1,0,0:0:0:0:
320,192,33668,1,0,0:0:0:0:
192,192,33876,1,0,0:0:0:0:
320,192,34084,1,0,0:0:0:0:
64,192,34293,1,0,0:0:0:0:
448,192,34293,1,0,0:0:0:0:
192,192,34501,1,0,0:0:0:0:
320,192,34709,1,0,0:0:0:0:
192,192,34918,1,0,0:0:0:0:
448,192,34918,1,0,0:0:0:0:
64,192,35126,1,0,0:0:0:0:
320,192,35334,1,0,0:1:0:0:
192,192,35543,1,0,0:0:0:0:
320,192,35751,1,0,0:0:0:0:
192,192,35959,1,0,0:0:0:0:
448,192,35959,1,0,0:0:0:0:
64,192,36168,1,0,0:0:0:0:
320,192,36376,1,0,0:0:0:0:
192,192,36584,1,0,0:0:0:0:
64,192,36793,1,0,0:0:0:0:
448,192,36793,1,0,0:0:0:0:
320,192,37001,1,0,0:0:0:0:
192,192,37105,1,0,0:0:0:0:
64,192,37209,1,0,0:0:0:0:
448,192,37209,1,0,0:0:0:0:
320,192,37418,1,0,0:0:0:0:
64,192,37626,1,0,0:0:0:0:
192,192,37626,1,0,0:0:0:0:
320,192,37834,1,0,0:0:0:0:
192,192,38043,1,0,0:0:0:0:
448,192,38251,1,0,0:0:0:0:
192,192,38355,1,0,0:0:0:0:
448,192,38459,1,0,0:0:0:0:
320,192,38459,1,0,0:0:0:0:
192,192,38563,1,0,0:0:0:0:
448,192,38668,1,0,0:0:0:0:
64,192,38668,1,0,0:0:0:0:
320,192,38772,1,0,0:0:0:0:
192,192,38876,1,0,0:0:0:0:
64,192,38876,1,0,0:0:0:0:
64,192,39293,1,0,0:0:0:0:
192,192,39709,1,0,0:0:0:0:
320,192,40126,1,0,0:0:0:0:
192,192,40543,1,0,0:0:0:0:
64,192,40543,1,0,0:0:0:0:
320,192,40751,1,0,0:0:0:0:
192,192,40751,1,0,0:0:0:0:
448,192,40959,1,0,0:0:0:0:
320,192,40959,1,0,0:0:0:0:
64,192,40959,1,0,0:0:0:0:
192,192,41168,1,0,0:0:0:0:
64,192,41168,1,0,0:0:0:0:
448,192,41376,1,0,0:0:0:0:
320,192,41376,1,0,0:0:0:0:
320,192,41584,1,0,0:0:0:0:
192,192,41584,1,0,0:0:0:0:
448,192,41793,1,0,0:0:0:0:
192,192,41793,1,0,0:0:0:0:
64,192,41793,1,0,0:0:0:0:
448,192,42001,1,0,0:0:0:0:
320,192,42001,1,0,0:0:0:0:
192,192,42209,1,0,0:0:0:0:
64,192,42209,1,0,0:0:0:0:
320,192,42418,1,0,0:0:0:0:
64,192,42418,1,0,0:0:0:0:
320,192,42626,1,0,0:0:0:0:
192,192,42626,1,0,0:0:0:0:
448,192,42626,1,0,0:0:0:0:
448,192,42834,1,0,0:0:0:0:
192,192,42834,1,0,0:0:0:0:
64,192,43043,1,0,0:0:0:0:
320,192,43043,1,0,0:0:0:0:
192,192,43251,1,0,0:0:0:0:
64,192,43251,1,0,0:0:0:0:
192,192,43459,1,0,0:0:0:0:
320,192,43459,1,0,0:0:0:0:
448,192,43459,1,0,0:0:0:0:
448,192,43668,1,0,0:0:0:0:
320,192,43668,1,0,0:0:0:0:
192,192,43876,1,0,0:0:0:0:
64,192,43876,1,0,0:0:0:0:
192,192,44084,1,0,0:0:0:0:
320,192,44084,1,0,0:0:0:0:
64,192,44293,1,0,0:0:0:0:
320,192,44293,1,0,0:0:0:0:
448,192,44293,1,0,0:0:0:0:
64,192,44501,1,0,0:0:0:0:
192,192,44501,1,0,0:0:0:0:
320,192,44709,1,0,0:0:0:0:
448,192,44709,1,0,0:0:0:0:
64,192,44918,1,0,0:0:0:0:
320,192,44918,1,0,0:0:0:0:
192,192,45126,1,0,0:0:0:0:
448,192,45126,1,0,0:0:0:0:
64,192,45126,1,0,0:0:0:0:
192,192,45334,1,0,0:0:0:0:
320,192,45334,1,0,0:0:0:0:
448,192,45543,1,0,0:0:0:0:
64,192,45543,1,0,0:0:0:0:
448,192,45751,1,0,0:0:0:0:
320,192,45751,1,0,0:0:0:0:
192,192,45959,1,0,0:0:0:0:
320,192,45959,1,0,0:0:0:0:
64,192,45959,1,0,0:0:0:0:
64,192,46168,1,0,0:0:0:0:
448,192,46168,1,0,0:0:0:0:
320,192,46376,1,0,0:0:0:0:
192,192,46376,1,0,0:0:0:0:
448,192,46584,1,0,0:0:0:0:
320,192,46584,1,0,0:0:0:0:
192,192,46793,1,0,0:0:0:0:
64,192,46793,1,0,0:0:0:0:
448,192,46793,1,0,0:0:0:0:
320,192,47001,1,0,0:0:0:0:
192,192,47001,1,0,0:0:0:0:
448,192,47209,1,0,0:0:0:0:
64,192,47209,1,0,0:0:0:0:
320,192,47418,1,0,0:0:0:0:
448,192,47418,1,0,0:0:0:0:
320,192,47626,1,0,0:0:0:0:
64,192,47626,1,0,0:0:0:0:
192,192,47626,1,0,0:0:0:0:
192,192,47834,1,0,0:0:0:0:
448,192,47834,1,0,0:0:0:0:
64,192,48043,1,0,0:0:0:0:
320,192,48043,1,0,0:0:0:0:
64,192,48251,1,0,0:0:0:0:
192,192,48251,1,0,0:0:0:0:
320,192,48459,1,0,0:0:0:0:
448,192,48459,1,0,0:0:0:0:
192,192,48459,1,0,0:0:0:0:
320,192,48668,1,0,0:0:0:0:
64,192,48668,1,0,0:0:0:0:
448,192,48876,1,0,0:0:0:0:
192,192,48876,1,0,0:0:0:0:
448,192,49084,1,0,0:0:0:0:
320,192,49084,1,0,0:0:0:0:
320,192,49293,1,0,0:0:0:0:
64,192,49293,1,0,0:0:0:0:
192,192,49293,1,0,0:0:0:0:
64,192,49501,1,0,0:0:0:0:
192,192,49501,1,0,0:0:0:0:
320,192,49709,1,0,0:0:0:0:
448,192,49709,1,0,0:0:0:0:
64,192,49918,1,0,0:0:0:0:
320,192,49918,1,0,0:0:0:0:
192,192,50126,1,0,0:0:0:0:
448,192,50126,1,0,0:0:0:0:
64,192,50126,1,0,0:0:0:0:
448,192,50334,1,0,0:0:0:0:
320,192,50334,1,0,0:0:0:0:
64,192,50543,1,0,0:0:0:0:
192,192,50543,1,0,0:0:0:0:
192,192,50751,1,0,0:0:0:0:
448,192,50751,1,0,0:0:0:0:
320,192,50959,1,0,0:0:0:0:
448,192,50959,1,0,0:0:0:0:
64,192,50959,1,0,0:0:0:0:
64,192,51168,1,0,0:0:0:0:
192,192,51168,1,0,0:0:0:0:
320,192,51376,1,0,0:0:0:0:
448,192,51376,1,0,0:0:0:0:
320,192,51584,1,0,0:0:0:0:
64,192,51584,1,0,0:0:0:0:
448,192,51793,1,0,0:0:0:0:
64,192,51793,1,0,0:0:0:0:
192,192,51793,1,0,0:0:0:0:
320,192,52001,1,0,0:0:0:0:
192,192,52001,1,0,0:0:0:0:
64,192,52209,1,0,0:0:0:0:
448,192,52209,1,0,0:0:0:0:
448,192,52418,1,0,0:0:0:0:
320,192,52418,1,0,0:0:0:0:
64,192,52626,1,0,0:0:0:0:
192,192,52626,1,0,0:0:0:0:
320,192,52834,1,0,0:0:0:0:
448,192,52834,1,0,0:0:0:0:
64,192,53043,1,0,0:0:0:0:
192,192,53147,1,0,0:0:0:0:
448,192,53251,1,0,0:0:0:0:
320,192,53355,1,0,0:0:0:0:
64,192,53459,1,0,0:0:0:0:
192,192,53459,1,0,0:0:0:0:
320,192,53668,1,0,0:0:0:0:
64,192,53876,1,0,0:0:0:0:
448,192,53876,1,0,0:0:0:0:
320,192,54084,1,0,0:0:0:0:
192,192,54084,1,0,0:0:0:0:
64,192,54293,1,0,0:0:0:0:
192,192,54397,1,0,0:0:0:0:
448,192,54501,1,0,0:0:0:0:
320,192,54501,1,0,0:0:0:0:
320,192,54709,1,0,0:0:0:0:
192,192,54813,1,0,0:0:0:0:
64,192,54918,1,0,0:0:0:0:
448,192,54918,1,0,0:0:0:0:
320,192,55126,1,0,0:0:0:0:
192,192,55230,1,0,0:0:0:0:
64,192,55334,1,0,0:0:0:0:
320,192,55334,1,0,0:0:0:0:
64,192,55543,1,0,0:0:0:0:
192,192,55647,1,0,0:0:0:0:
320,192,55751,1,0,0:0:0:0:
448,192,55751,1,0,0:0:0:0:
192,192,55959,1,0,0:0:0:0:
448,192,56063,1,0,0:0:0:0:
64,192,56168,1,0,0:0:0:0:
320,192,56168,1,0,0:0:0:0:
320,192,56376,1,0,0:0:0:0:
192,192,56480,1,0,0:0:0:0:
64,192,56584,1,0,0:0:0:0:
448,192,56584,1,0,0:0:0:0:
448,192,56793,1,0,0:0:0:0:
320,192,56897,1,0,0:0:0:0:
192,192,57001,1,0,0:0:0:0:
64,192,57001,1,0,0:0:0:0:
320,192,57209,1,0,0:0:0:0:
192,192,57313,1,0,0:0:0:0:
64,192,57418,1,0,0:0:0:0:
448,192,57418,1,0,0:0:0:0:
64,192,57626,1,0,0:0:0:0:
192,192,57730,1,0,0:0:0:0:
320,192,57834,1,0,0:0:0:0:
448,192,57834,1,0,0:0:0:0:
192,192,58043,1,0,0:0:0:0:
320,192,58147,1,0,0:0:0:0:
448,192,58251,1,0,0:0:0:0:
192,192,58251,1,0,0:0:0:0:
448,192,58459,1,0,0:0:0:0:
320,192,58563,1,0,0:0:0:0:
64,192,58668,1,0,0:0:0:0:
192,192,58668,1,0,0:0:0:0:
320,192,58876,1,0,0:0:0:0:
192,192,58980,1,0,0:0:0:0:
448,192,59084,1,0,0:0:0:0:
64,192,59084,1,0,0:0:0:0:
320,192,59293,1,0,0:0:0:0:
192,192,59397,1,0,0:0:0:0:
64,192,59501,1,0,0:0:0:0:
448,192,59501,1,0,0:0:0:0:
64,192,59709,1,0,0:0:0:0:
192,192,59709,1,0,0:0:0:0:
320,192,59918,1,0,0:0:0:0:
192,192,60126,1,0,0:0:0:0:
64,192,60126,1,0,0:0:0:0:
448,192,60334,1,0,0:0:0:0:
320,192,60334,1,0,0:0:0:0:
320,192,60543,1,0,0:0:0:0:
64,192,60543,1,0,0:0:0:0:
192,192,60751,1,0,0:0:0:0:
448,192,60751,1,0,0:0:0:0:
64,192,60959,1,0,0:0:0:0:
192,192,61063,1,0,0:0:0:0:
448,192,61168,1,0,0:0:0:0:
64,192,61168,1,0,0:0:0:0:
320,192,61376,1,0,0:0:0:0:
192,192,61480,1,0,0:0:0:0:
64,192,61584,1,0,0:0:0:0:
448,192,61584,1,0,0:0:0:0:
192,192,61793,1,0,0:0:0:0:
320,192,61897,1,0,0:0:0:0:
448,192,62001,1,0,0:0:0:0:
192,192,62001,1,0,0:0:0:0:
448,192,62209,1,0,0:0:0:0:
320,192,62313,1,0,0:0:0:0:
64,192,62418,1,0,0:0:0:0:
192,192,62418,1,0,0:0:0:0:
320,192,62626,1,0,0:0:0:0:
64,192,62730,1,0,0:0:0:0:
192,192,62834,1,0,0:0:0:0:
448,192,62834,1,0,0:0:0:0:
448,192,63043,1,0,0:0:0:0:
320,192,63147,1,0,0:0:0:0:
192,192,63251,1,0,0:0:0:0:
64,192,63251,1,0,0:0:0:0:
320,192,63459,1,0,0:0:0:0:
192,192,63563,1,0,0:0:0:0:
448,192,63668,1,0,0:0:0:0:
64,192,63668,1,0,0:0:0:0:
448,192,63876,1,0,0:0:0:0:
320,192,63980,1,0,0:0:0:0:
64,192,64084,1,0,0:0:0:0:
192,192,64084,1,0,0:0:0:0:
320,192,64293,1,0,0:0:0:0:
64,192,64397,1,0,0:0:0:0:
448,192,64501,1,0,0:0:0:0:
192,192,64501,1,0,0:0:0:0:
192,192,64709,1,0,0:0:0:0:
320,192,64813,1,0,0:0:0:0:
448,192,64918,1,0,0:0:0:0:
64,192,64918,1,0,0:0:0:0:
192,192,65126,1,0,0:0:0:0:
320,192,65230,1,0,0:0:0:0:
448,192,65334,1,0,0:0:0:0:
64,192,65334,1,0,0:0:0:0:
64,192,65543,1,0,0:0:0:0:
192,192,65647,1,0,0:0:0:0:
320,192,65751,1,0,0:0:0:0:
448,192,65751,1,0,0:0:0:0:
192,192,65959,1,0,0:0:0:0:
448,192,66063,1,0,0:0:0:0:
64,192,66168,1,0,0:0:0:0:
320,192,66168,1,0,0:0:0:0:
448,192,66272,1,0,0:0:0:0:
64,192,66376,5,0,0:0:0:0:
192,192,66376,1,0,0:0:0:0:
448,192,66480,1,0,0:0:0:0:
320,192,66480,1,0,0:0:0:0:
192,192,66584,1,0,0:0:0:0:
320,192,66688,1,0,0:0:0:0:
192,192,66793,1,0,0:0:0:0:
64,192,66793,1,0,0:0:0:0:
320,192,66897,1,0,0:0:0:0:
448,192,67001,1,0,0:0:0:0:
64,192,67001,1,0,0:0:0:0:
192,192,67105,1,0,0:0:0:0:
320,192,67209,1,0,0:0:0:0:
64,192,67209,1,0,0:0:0:0:
448,192,67209,1,0,0:0:0:0:
320,192,67418,1,0,0:0:0:0:
448,192,67626,1,0,0:0:0:0:
64,192,67626,1,0,0:0:0:0:
192,192,67626,1,0,0:0:0:0:
320,192,67834,1,0,0:0:0:0:
192,192,68043,1,0,0:0:0:0:
192,192,68251,1,0,0:0:0:0:
448,192,68459,1,0,0:0:0:0:
64,192,68459,1,0,0:0:0:0:
320,192,68459,1,0,0:0:0:0:
192,192,68668,1,0,0:0:0:0:
320,192,68876,1,0,0:0:0:0:
320,192,69084,1,0,0:0:0:0:
64,192,69293,1,0,0:0:0:0:
192,192,69293,1,0,0:0:0:0:
448,192,69293,1,0,0:0:0:0:
192,192,69501,1,0,0:0:0:0:
320,192,69709,1,0,0:0:0:0:
320,192,69918,1,0,0:0:0:0:
448,192,70126,1,0,0:0:0:0:
64,192,70126,1,0,0:0:0:0:
192,192,70126,1,0,0:0:0:0:
448,192,70334,1,0,0:0:0:0:
320,192,70543,1,0,0:0:0:0:
320,192,70751,1,0,0:0:0:0:
192,192,70959,1,0,0:0:0:0:
64,192,70959,1,0,0:0:0:0:
448,192,70959,1,0,0:0:0:0:
320,192,71168,1,0,0:0:0:0:
192,192,71376,1,0,0:0:0:0:
192,192,71584,1,0,0:0:0:0:
320,192,71793,1,0,0:0:0:0:
448,192,71793,1,0,0:0:0:0:
64,192,71793,1,0,0:0:0:0:
192,192,72001,1,0,0:0:0:0:
448,192,72209,1,0,0:0:0:0:
448,192,72418,1,0,0:0:0:0:
192,192,72626,1,0,0:0:0:0:
320,192,72626,1,0,0:0:0:0:
64,192,72626,1,0,0:0:0:0:
448,192,73043,1,0,0:0:0:0:
192,192,73251,1,0,0:0:0:0:
320,192,73355,1,0,0:0:0:0:
192,192,73459,1,0,0:0:0:0:
64,192,73668,1,0,0:0:0:0:
320,192,73876,1,0,0:0:0:0:
448,192,73876,1,0,0:0:0:0:
192,192,74293,1,0,0:0:0:0:
64,192,74709,1,0,0:0:0:0:
448,192,75126,1,0,0:0:0:0:
192,192,75543,1,0,0:0:0:0:
320,192,75959,1,0,0:0:0:0:
448,192,76376,1,0,0:0:0:0:
64,192,76793,1,0,0:0:0:0:
320,192,77209,1,0,0:0:0:0:
192,192,77626,128,0,78043:0:0:0:0:
320,192,78043,1,0,0:0:0:0:
320,192,78459,128,0,78876:0:0:0:0:
192,192,78876,1,0,0:0:0:0:
448,192,79293,128,0,79709:0:0:0:0:
320,192,79709,128,0,80126:0:0:0:0:
64,192,80126,1,0,0:0:0:0:
192,192,80126,1,0,0:0:0:0:
320,192,80543,1,0,0:0:0:0:
448,192,80543,1,0,0:0:0:0:
320,192,80751,1,0,0:0:0:0:
192,192,80751,1,0,0:0:0:0:
64,192,80959,1,0,0:0:0:0:
192,192,80959,1,0,0:0:0:0:
448,192,80959,1,0,0:0:0:0:
448,192,81168,1,0,0:0:0:0:
320,192,81168,1,0,0:0:0:0:
192,192,81376,1,0,0:0:0:0:
64,192,81376,1,0,0:0:0:0:
192,192,81584,1,0,0:0:0:0:
448,192,81584,1,0,0:0:0:0:
320,192,81793,1,0,0:0:0:0:
448,192,81793,1,0,0:0:0:0:
64,192,81793,1,0,0:0:0:0:
64,192,82001,1,0,0:0:0:0:
192,192,82001,1,0,0:0:0:0:
320,192,82209,1,0,0:0:0:0:
448,192,82209,1,0,0:0:0:0:
320,192,82418,1,0,0:0:0:0:
64,192,82418,1,0,0:0:0:0:
64,192,82626,1,0,0:0:0:0:
192,192,82626,1,0,0:0:0:0:
448,192,82626,1,0,0:0:0:0:
448,192,82834,1,0,0:0:0:0:
320,192,82834,1,0,0:0:0:0:
192,192,83043,1,0,0:0:0:0:
64,192,83043,1,0,0:0:0:0:
192,192,83251,1,0,0:0:0:0:
448,192,83251,1,0,0:0:0:0:
448,192,83459,1,0,0:0:0:0:
320,192,83459,1,0,0:0:0:0:
64,192,83459,1,0,0:0:0:0:
64,192,83668,1,0,0:0:0:0:
192,192,83668,1,0,0:0:0:0:
320,192,83876,1,0,0:0:0:0:
448,192,83876,1,0,0:0:0:0:
64,192,84084,1,0,0:0:0:0:
448,192,84084,1,0,0:0:0:0:
320,192,84293,1,0,0:0:0:0:
192,192,84293,1,0,0:0:0:0:
64,192,84293,1,0,0:0:0:0:
192,192,84501,1,0,0:0:0:0:
448,192,84501,1,0,0:0:0:0:
64,192,84709,1,0,0:0:0:0:
320,192,84709,1,0,0:0:0:0:
192,192,84918,1,0,0:0:0:0:
320,192,84918,1,0,0:0:0:0:
192,192,85126,1,0,0:0:0:0:
448,192,85126,1,0,0:0:0:0:
64,192,85126,1,0,0:0:0:0:
320,192,85334,1,0,0:0:0:0:
448,192,85334,1,0,0:0:0:0:
192,192,85543,1,0,0:0:0:0:
64,192,85543,1,0,0:0:0:0:
192,192,85751,1,0,0:0:0:0:
448,192,85751,1,0,0:0:0:0:
320,192,85959,1,0,0:0:0:0:
448,192,85959,1,0,0:0:0:0:
64,192,85959,1,0,0:0:0:0:
320,192,86168,1,0,0:0:0:0:
192,192,86168,1,0,0:0:0:0:
448,192,86376,1,0,0:0:0:0:
64,192,86376,1,0,0:0:0:0:
64,192,86584,1,0,0:0:0:0:
192,192,86584,1,0,0:0:0:0:
192,192,86793,1,0,0:0:0:0:
448,192,86793,1,0,0:0:0:0:
320,192,86793,1,0,0:0:0:0:
320,192,87001,1,0,0:0:0:0:
448,192,87001,1,0,0:0:0:0:
64,192,87209,1,0,0:0:0:0:
192,192,87209,1,0,0:0:0:0:
192,192,87418,1,0,0:0:0:0:
448,192,87418,1,0,0:0:0:0:
448,192,87626,1,0,0:0:0:0:
320,192,87626,1,0,0:0:0:0:
64,192,87626,1,0,0:0:0:0:
64,192,87834,1,0,0:0:0:0:
192,192,87834,1,0,0:0:0:0:
320,192,88043,1,0,0:0:0:0:
448,192,88043,1,0,0:0:0:0:
64,192,88251,1,0,0:0:0:0:
320,192,88251,1,0,0:0:0:0:
192,192,88459,1,0,0:0:0:0:
64,192,88459,1,0,0:0:0:0:
448,192,88459,1,0,0:0:0:0:
192,192,88668,1,0,0:0:0:0:
320,192,88668,1,0,0:0:0:0:
448,192,88876,1,0,0:0:0:0:
64,192,88876,1,0,0:0:0:0:
448,192,89084,1,0,0:0:0:0:
320,192,89084,1,0,0:0:0:0:
320,192,89293,1,0,0:0:0:0:
192,192,89293,1,0,0:0:0:0:
64,192,89293,1,0,0:0:0:0:
192,192,89501,1,0,0:0:0:0:
448,192,89501,1,0,0:0:0:0:
64,192,89709,1,0,0:0:0:0:
320,192,89709,1,0,0:0:0:0:
64,192,89918,1,0,0:0:0:0:
192,192,89918,1,0,0:0:0:0:
320,192,90126,1,0,0:0:0:0:
448,192,90126,1,0,0:0:0:0:
192,192,90126,1,0,0:0:0:0:
320,192,90334,1,0,0:0:0:0:
448,192,90334,1,0,0:0:0:0:
64,192,90543,1,0,0:0:0:0:
192,192,90543,1,0,0:0:0:0:
192,192,90751,1,0,0:0:0:0:
320,192,90751,1,0,0:0:0:0:
320,192,90959,1,0,0:0:0:0:
448,192,90959,1,0,0:0:0:0:
64,192,90959,1,0,0:0:0:0:
64,192,91168,1,0,0:0:0:0:
192,192,91168,1,0,0:0:0:0:
448,192,91376,1,0,0:0:0:0:
320,192,91376,1,0,0:0:0:0:
320,192,91584,1,0,0:0:0:0:
64,192,91584,1,0,0:0:0:0:
192,192,91793,1,0,0:0:0:0:
64,192,91793,1,0,0:0:0:0:
448,192,91793,1,0,0:0:0:0:
448,192,92001,1,0,0:0:0:0:
320,192,92001,1,0,0:0:0:0:
192,192,92209,1,0,0:0:0:0:
64,192,92209,1,0,0:0:0:0:
320,192,92418,1,0,0:0:0:0:
192,192,92418,1,0,0:0:0:0:
320,192,92626,1,0,0:0:0:0:
448,192,92626,1,0,0:0:0:0:
64,192,92626,1,0,0:0:0:0:
192,192,92834,1,0,0:0:0:0:
64,192,92834,1,0,0:0:0:0:
448,192,93043,1,0,0:0:0:0:
320,192,93147,1,0,0:0:0:0:
64,192,93251,1,0,0:0:0:0:
192,192,93355,1,0,0:0:0:0:
320,192,93459,1,0,0:0:0:0:
448,192,93459,1,0,0:0:0:0:
64,192,93668,1,0,0:0:0:0:
320,192,93876,1,0,0:0:0:0:
448,192,93876,1,0,0:0:0:0:
64,192,94084,1,0,0:0:0:0:
192,192,94084,1,0,0:0:0:0:
320,192,94293,1,0,0:0:0:0:
192,192,94397,1,0,0:0:0:0:
64,192,94501,1,0,0:0:0:0:
448,192,94501,1,0,0:0:0:0:
448,192,94709,1,0,0:0:0:0:
320,192,94813,1,0,0:0:0:0:
192,192,94918,1,0,0:0:0:0:
64,192,94918,1,0,0:0:0:0:
320,192,95126,1,0,0:0:0:0:
64,192,95230,1,0,0:0:0:0:
192,192,95334,1,0,0:0:0:0:
448,192,95334,1,0,0:0:0:0:
192,192,95543,1,0,0:0:0:0:
320,192,95647,1,0,0:0:0:0:
448,192,95751,1,0,0:0:0:0:
64,192,95751,1,0,0:0:0:0:
192,192,95959,1,0,0:0:0:0:
320,192,96063,1,0,0:0:0:0:
448,192,96168,1,0,0:0:0:0:
64,192,96168,1,0,0:0:0:0:
64,192,96376,1,0,0:0:0:0:
192,192,96480,1,0,0:0:0:0:
320,192,96584,1,0,0:0:0:0:
448,192,96584,1,0,0:0:0:0:
192,192,96793,1,0,0:0:0:0:
448,192,96897,1,0,0:0:0:0:
64,192,97001,1,0,0:0:0:0:
320,192,97001,1,0,0:0:0:0:
320,192,97209,1,0,0:0:0:0:
192,192,97313,1,0,0:0:0:0:
448,192,97418,1,0,0:0:0:0:
64,192,97418,1,0,0:0:0:0:
192,192,97626,1,0,0:0:0:0:
320,192,97730,1,0,0:0:0:0:
448,192,97834,1,0,0:0:0:0:
192,192,97834,1,0,0:0:0:0:
448,192,98043,1,0,0:0:0:0:
320,192,98147,1,0,0:0:0:0:
64,192,98251,1,0,0:0:0:0:
192,192,98251,1,0,0:0:0:0:
320,192,98459,1,0,0:0:0:0:
64,192,98563,1,0,0:0:0:0:
448,192,98668,1,0,0:0:0:0:
192,192,98668,1,0,0:0:0:0:
192,192,98876,1,0,0:0:0:0:
320,192,98980,1,0,0:0:0:0:
64,192,99084,1,0,0:0:0:0:
448,192,99084,1,0,0:0:0:0:
192,192,99293,1,0,0:0:0:0:
448,192,99397,1,0,0:0:0:0:
320,192,99501,1,0,0:0:0:0:
64,192,99501,1,0,0:0:0:0:
320,192,99709,1,0,0:0:0:0:
448,192,99709,1,0,0:0:0:0:
192,192,99813,1,0,0:0:0:0:
64,192,99813,1,0,0:0:0:0:
320,192,99918,1,0,0:0:0:0:
448,192,100126,1,0,0:0:0:0:
192,192,100126,1,0,0:0:0:0:
320,192,100334,1,0,0:0:0:0:
192,192,100438,1,0,0:0:0:0:
448,192,100543,1,0,0:0:0:0:
320,192,100647,1,0,0:0:0:0:
192,192,100751,1,0,0:0:0:0:
64,192,100751,1,0,0:0:0:0:
448,192,100959,1,0,0:0:0:0:
320,192,101063,1,0,0:0:0:0:
192,192,101168,1,0,0:0:0:0:
64,192,101272,1,0,0:0:0:0:
448,192,101376,1,0,0:0:0:0:
320,192,101376,1,0,0:0:0:0:
192,192,101584,1,0,0:0:0:0:
448,192,101688,1,0,0:0:0:0:
64,192,101793,1,0,0:0:0:0:
192,192,101897,1,0,0:0:0:0:
320,192,102001,1,0,0:0:0:0:
448,192,102001,1,0,0:0:0:0:
64,192,102209,1,0,0:0:0:0:
192,192,102313,1,0,0:0:0:0:
320,192,102418,1,0,0:0:0:0:
448,192,102522,1,0,0:0:0:0:
192,192,102626,1,0,0:0:0:0:
64,192,102626,1,0,0:0:0:0:
320,192,102834,1,0,0:0:0:0:
192,192,102938,1,0,0:0:0:0:
448,192,103043,1,0,0:0:0:0:
64,192,103043,1,0,0:0:0:0:
192,192,103251,1,0,0:0:0:0:
320,192,103251,1,0,0:0:0:0:
192,192,103459,1,0,0:0:0:0:
320,192,103459,1,0,0:0:0:0:
448,192,103668,1,0,0:0:0:0:
64,192,103668,1,0,0:0:0:0:
192,192,103876,1,0,0:0:0:0:
448,192,103980,1,0,0:0:0:0:
320,192,104084,1,0,0:0:0:0:
64,192,104084,1,0,0:0:0:0:
192,192,104293,1,0,0:0:0:0:
448,192,104397,1,0,0:0:0:0:
64,192,104501,1,0,0:0:0:0:
192,192,104605,1,0,0:0:0:0:
320,192,104709,1,0,0:0:0:0:
448,192,104709,1,0,0:0:0:0:
64,192,104918,1,0,0:0:0:0:
192,192,105022,1,0,0:0:0:0:
320,192,105126,1,0,0:0:0:0:
448,192,105230,1,0,0:0:0:0:
192,192,105334,1,0,0:0:0:0:
64,192,105334,1,0,0:0:0:0:
448,192,105543,1,0,0:0:0:0:
320,192,105647,1,0,0:0:0:0:
64,192,105751,1,0,0:0:0:0:
192,192,105855,1,0,0:0:0:0:
448,192,105959,1,0,0:0:0:0:
320,192,105959,1,0,0:0:0:0:
64,192,106168,1,0,0:0:0:0:
192,192,106272,1,0,0:0:0:0:
320,192,106376,1,0,0:0:0:0:
448,192,106376,1,0,0:0:0:0:
192,192,106480,1,0,0:0:0:0:
64,192,106480,1,0,0:0:0:0:
448,192,106584,1,0,0:0:0:0:
64,192,106688,1,0,0:0:0:0:
448,192,106793,1,0,0:0:0:0:
320,192,106793,1,0,0:0:0:0:
192,192,106897,1,0,0:0:0:0:
64,192,106897,1,0,0:0:0:0:
320,192,107001,1,0,0:0:0:0:
192,192,107105,1,0,0:0:0:0:
448,192,107209,1,0,0:0:0:0:
64,192,107209,1,0,0:0:0:0:
320,192,107209,1,0,0:0:0:0:
448,192,107418,1,0,0:0:0:0:
320,192,107626,1,0,0:0:0:0:
64,192,107626,1,0,0:0:0:0:
192,192,107626,1,0,0:0:0:0:
448,192,107834,1,0,0:0:0:0:
192,192,108043,1,0,0:0:0:0:
192,192,108251,1,0,0:0:0:0:
320,192,108459,1,0,0:0:0:0:
64,192,108459,1,0,0:0:0:0:
448,192,108459,1,0,0:0:0:0:
192,192,108668,1,0,0:0:0:0:
320,192,108876,1,0,0:0:0:0:
320,192,109084,1,0,0:0:0:0:
448,192,109293,1,0,0:0:0:0:
192,192,109293,1,0,0:0:0:0:
64,192,109293,1,0,0:0:0:0:
192,192,109501,1,0,0:0:0:0:
320,192,109709,1,0,0:0:0:0:
320,192,109918,1,0,0:0:0:0:
192,192,110126,1,0,0:0:0:0:
64,192,110126,1,0,0:0:0:0:
448,192,110126,1,0,0:0:0:0:
448,192,110334,1,0,0:0:0:0:
192,192,110543,1,0,0:0:0:0:
192,192,110751,1,0,0:0:0:0:
448,192,110959,1,0,0:0:0:0:
64,192,110959,1,0,0:0:0:0:
320,192,110959,1,0,0:0:0:0:
448,192,111168,1,0,0:0:0:0:
64,192,111376,1,0,0:0:0:0:
64,192,111584,1,0,0:0:0:0:
320,192,111793,1,0,0:0:0:0:
448,192,111793,1,0,0:0:0:0:
192,192,111793,1,0,0:0:0:0:
64,192,112001,1,0,0:0:0:0:
320,192,112209,1,0,0:0:0:0:
320,192,112418,1,0,0:0:0:0:
448,192,112626,1,0,0:0:0:0:
192,192,112626,1,0,0:0:0:0:
64,192,112626,1,0,0:0:0:0:
320,192,112834,1,0,0:0:0:0:
64,192,113043,1,0,0:0:0:0:
192,192,113251,1,0,0:0:0:0:
320,192,113459,1,0,0:0:0:0:
64,192,113459,1,0,0:0:0:0:
448,192,113459,1,0,0:0:0:0:
192,192,113668,1,0,0:0:0:0:
448,192,113876,1,0,0:0:0:0:
320,192,113876,1,0,0:0:0:0:
64,192,113876,1,0,0:0:0:0:
448,192,114084,1,0,0:0:0:0:
192,192,114293,1,0,0:0:0:0:
448,192,114293,1,0,0:0:0:0:
64,192,114293,1,0,0:0:0:0:
64,192,114501,1,0,0:0:0:0:
448,192,114709,1,0,0:0:0:0:
64,192,114709,1,0,0:0:0:0:
320,192,114709,1,0,0:0:0:0:
320,192,114918,1,0,0:0:0:0:
320,192,115126,1,0,0:0:0:0:
64,192,115126,1,0,0:0:0:0:
448,192,115126,1,0,0:0:0:0:
64,192,115334,1,0,0:0:0:0:
320,192,115543,1,0,0:0:0:0:
64,192,115543,1,0,0:0:0:0:
448,192,115543,1,0,0:0:0:0:
320,192,115751,1,0,0:0:0:0:
448,192,115959,1,0,0:0:0:0:
192,192,115959,1,0,0:0:0:0:
64,192,115959,1,0,0:0:0:0:
192,192,116168,1,0,0:0:0:0:
320,192,116376,1,0,0:0:0:0:
64,192,116376,1,0,0:0:0:0:
448,192,116376,1,0,0:0:0:0:
320,192,116584,1,0,0:0:0:0:
192,192,116793,1,0,0:0:0:0:
64,192,116793,1,0,0:0:0:0:
448,192,116793,1,0,0:0:0:0:
448,192,117001,1,0,0:0:0:0:
320,192,117209,1,0,0:0:0:0:
192,192,117209,1,0,0:0:0:0:
64,192,117209,1,0,0:0:0:0:
448,192,117418,1,0,0:0:0:0:
64,192,117626,1,0,0:0:0:0:
320,192,117626,1,0,0:0:0:0:
448,192,117834,1,0,0:0:0:0:
192,192,118043,1,0,0:0:0:0:
448,192,118043,1,0,0:0:0:0:
320,192,118251,1,0,0:0:0:0:
320,192,118459,1,0,0:0:0:0:
64,192,118459,1,0,0:0:0:0:
192,192,118668,5,0,0:0:0:0:
192,192,118876,1,0,0:0:0:0:
448,192,118876,1,0,0:0:0:0:
64,192,119084,1,0,0:0:0:0:
64,192,119293,1,0,0:0:0:0:
192,192,119293,1,0,0:0:0:0:
320,192,119501,1,0,0:0:0:0:
448,192,119501,1,0,0:0:0:0:
320,192,119709,5,0,0:0:0:0:
448,192,119709,1,0,0:0:0:0:
192,192,119813,1,0,0:0:0:0:
64,192,119918,1,0,0:0:0:0:
448,192,119918,1,0,0:0:0:0:
320,192,120022,1,0,0:0:0:0:
64,192,120126,1,0,0:0:0:0:
192,192,120126,1,0,0:0:0:0:
448,192,120230,1,0,0:0:0:0:
192,192,120334,1,0,0:0:0:0:
64,192,120334,1,0,0:0:0:0:
320,192,120438,1,0,0:0:0:0:
448,192,120543,1,0,0:0:0:0:
192,192,120543,1,0,0:0:0:0:
320,192,120751,1,0,0:0:0:0:
448,192,120959,1,0,0:0:0:0:
64,192,120959,1,0,0:0:0:0:
192,192,120959,1,0,0:0:0:0:
192,192,121168,1,0,0:0:0:0:
448,192,121376,1,0,0:0:0:0:
320,192,121376,1,0,0:0:0:0:
64,192,121584,1,0,0:0:0:0:
320,192,121793,1,0,0:0:0:0:
448,192,121793,1,0,0:0:0:0:
192,192,121793,1,0,0:0:0:0:
64,192,122001,1,0,0:0:0:0:
192,192,122209,1,0,0:0:0:0:
320,192,122209,1,0,0:0:0:0:
192,192,122418,1,0,0:0:0:0:
64,192,122626,1,0,0:0:0:0:
448,192,122626,1,0,0:0:0:0:
320,192,122626,1,0,0:0:0:0:
192,192,122834,1,0,0:0:0:0:
64,192,123043,1,0,0:0:0:0:
448,192,123043,1,0,0:0:0:0:
320,192,123251,1,0,0:0:0:0:
192,192,123459,1,0,0:0:0:0:
64,192,123459,1,0,0:0:0:0:
448,192,123459,1,0,0:0:0:0:
320,192,123668,1,0,0:0:0:0:
192,192,123876,1,0,0:0:0:0:
64,192,123876,1,0,0:0:0:0:
448,192,124084,1,0,0:0:0:0:
64,192,124293,1,0,0:0:0:0:
320,192,124293,1,0,0:0:0:0:
192,192,124293,1,0,0:0:0:0:
448,192,124501,1,0,0:0:0:0:
320,192,124709,1,0,0:0:0:0:
64,192,124709,1,0,0:0:0:0:
192,192,124918,1,0,0:0:0:0:
320,192,125126,1,0,0:0:0:0:
448,192,125126,1,0,0:0:0:0:
64,192,125126,1,0,0:0:0:0:
192,192,125334,1,0,0:0:0:0:
320,192,125543,1,0,0:0:0:0:
448,192,125543,1,0,0:0:0:0:
64,192,125751,1,0,0:0:0:0:
320,192,125959,1,0,0:0:0:0:
448,192,125959,1,0,0:0:0:0:
192,192,125959,1,0,0:0:0:0:
64,192,126168,1,0,0:0:0:0:
192,192,126376,1,0,0:0:0:0:
448,192,126376,1,0,0:0:0:0:
320,192,126584,1,0,0:0:0:0:
192,192,126793,1,0,0:0:0:0:
64,192,126793,1,0,0:0:0:0:
320,192,126897,1,0,0:0:0:0:
448,192,127001,1,0,0:0:0:0:
64,192,127001,1,0,0:0:0:0:
192,192,127105,1,0,0:0:0:0:
320,192,127209,1,0,0:0:0:0:
448,192,127209,1,0,0:0:0:0:
192,192,127418,1,0,0:0:0:0:
448,192,127626,1,0,0:0:0:0:
64,192,127626,1,0,0:0:0:0:
320,192,127626,1,0,0:0:0:0:
192,192,127834,1,0,0:0:0:0:
64,192,128043,1,0,0:0:0:0:
448,192,128043,1,0,0:0:0:0:
320,192,128251,1,0,0:0:0:0:
448,192,128459,1,0,0:0:0:0:
192,192,128459,1,0,0:0:0:0:
64,192,128459,1,0,0:0:0:0:
320,192,128668,1,0,0:0:0:0:
64,192,128876,1,0,0:0:0:0:
192,192,128876,1,0,0:0:0:0:
320,192,129084,1,0,0:0:0:0:
448,192,129293,1,0,0:0:0:0:
192,192,129293,1,0,0:0:0:0:
64,192,129293,1,0,0:0:0:0:
320,192,129501,1,0,0:0:0:0:
64,192,129709,1,0,0:0:0:0:
448,192,129709,1,0,0:0:0:0:
192,192,129918,1,0,0:0:0:0:
320,192,130126,1,0,0:0:0:0:
64,192,130126,1,0,0:0:0:0:
448,192,130126,1,0,0:0:0:0:
192,192,130334,1,0,0:0:0:0:
320,192,130543,1,0,0:0:0:0:
448,192,130543,1,0,0:0:0:0:
64,192,130751,1,0,0:0:0:0:
448,192,130959,1,0,0:0:0:0:
320,192,130959,1,0,0:0:0:0:
192,192,130959,1,0,0:0:0:0:
64,192,131168,1,0,0:0:0:0:
192,192,131376,1,0,0:0:0:0:
448,192,131376,1,0,0:0:0:0:
320,192,131584,1,0,0:0:0:0:
448,192,131793,1,0,0:0:0:0:
192,192,131793,1,0,0:0:0:0:
64,192,131793,1,0,0:0:0:0:
320,192,132001,1,0,0:0:0:0:
64,192,132209,1,0,0:0:0:0:
192,192,132209,1,0,0:0:0:0:
320,192,132418,1,0,0:0:0:0:
192,192,132626,1,0,0:0:0:0:
64,192,132626,1,0,0:0:0:0:
448,192,132626,1,0,0:0:0:0:
320,192,132834,1,0,0:0:0:0:
64,192,133043,1,0,0:0:0:0:
448,192,133043,1,0,0:0:0:0:
192,192,133251,1,0,0:0:0:0:
320,192,133459,1,0,0:0:0:0:
448,192,133459,1,0,0:0:0:0:
192,192,133563,1,0,0:0:0:0:
64,192,133668,1,0,0:0:0:0:
448,192,133668,1,0,0:0:0:0:
320,192,133772,1,0,0:0:0:0:
64,192,133876,1,0,0:0:0:0:
192,192,133876,1,0,0:0:0:0:
64,192,134084,1,0,0:0:0:0:
192,192,134084,1,0,0:0:0:0:
