osu file format v14

[General]
AudioFilename: 03 Pierce The Veil - A Match Into Water.mp3
AudioLeadIn: 3000
PreviewTime: 58926
Countdown: 0
SampleSet: None
StackLeniency: 0.7
Mode: 3
LetterboxInBreaks: 0
SpecialStyle: 0
WidescreenStoryboard: 0

[Editor]
DistanceSpacing: 1.7
BeatDivisor: 4
GridSize: 4
TimelineZoom: 1.6

[Metadata]
Title:A Match Into Water
TitleUnicode:A Match Into Water
Artist:Pierce The Veil
ArtistUnicode:Pierce The Veil
Creator:puxtu
Version:HD
Source:
Tags:pxt pishifat milan- Heanday Bearizm PTV Collide With The Sky Vic Fuentes Equal Vision Fearless Records Post-hardcore Progressive Punk Alternative Rock
BeatmapID:808922
BeatmapSetID:368064

[Difficulty]
HPDrainRate:8
CircleSize:4
OverallDifficulty:8.5
ApproachRate:5
SliderMultiplier:1.4
SliderTickRate:1

[Events]
//Background and Video events
0,0,"Seafh.full.1327410.jpg",0,0
//Break Periods
//Storyboard Layer 0 (Background)
//Storyboard Layer 1 (Fail)
//Storyboard Layer 2 (Pass)
//Storyboard Layer 3 (Foreground)
//Storyboard Sound Samples

[TimingPoints]
151,306.122448979592,4,3,1,50,1,0
58926,-100,4,3,1,50,0,1
78518,-100,4,3,1,50,0,0
110355,-100,4,3,1,50,0,1
111579,-100,4,3,1,50,0,0
112804,-100,4,3,1,50,0,1
125048,-100,4,3,1,50,0,0
127497,-100,4,3,1,50,0,1
132089,-100,4,3,1,50,0,0

[HitObjects]
320,192,151,5,4,0:0:0:0:
320,192,304,1,4,0:0:0:0:
448,192,457,1,8,1:0:0:0:
64,192,457,1,8,0:0:0:0:
192,192,610,1,4,0:0:0:0:
320,192,916,1,4,0:0:0:0:
448,192,1069,1,8,1:0:0:0:
192,192,1069,1,8,0:0:0:0:
64,192,1222,1,4,0:0:0:0:
192,192,1528,1,4,0:0:0:0:
64,192,1681,1,8,0:0:0:0:
448,192,1681,1,8,1:0:0:0:
320,192,1834,1,4,0:0:0:0:
192,192,2140,1,4,0:0:0:0:
448,192,2293,1,8,1:0:0:0:
320,192,2293,1,8,0:0:0:0:
64,192,2446,1,4,0:0:0:0:
64,192,2599,1,4,0:0:0:0:
320,192,2753,1,4,0:0:0:0:
64,192,2906,1,8,0:0:0:0:
192,192,2906,1,8,1:0:0:0:
448,192,3059,1,0,0:0:0:0:
192,192,3365,1,4,0:0:0:0:
448,192,3518,1,8,1:0:0:0:
320,192,3518,1,8,0:0:0:0:
64,192,3671,1,4,0:0:0:0:
320,192,3977,1,4,0:0:0:0:
192,192,4130,1,8,0:0:0:0:
448,192,4130,1,8,1:0:0:0:
64,192,4283,1,4,0:0:0:0:
192,192,4589,1,8,1:0:0:0:
64,192,4589,1,8,0:0:0:0:
64,192,4742,1,8,0:0:0:0:
192,192,4742,1,8,1:0:0:0:
448,192,4895,5,4,0:0:0:0:
448,192,5048,5,4,0:0:0:0:
64,192,5202,1,4,0:0:0:0:
448,192,5355,1,8,0:0:0:0:
192,192,5355,1,8,1:0:0:0:
320,192,5508,1,4,0:0:0:0:
192,192,5814,1,4,0:0:0:0:
320,192,5967,1,8,0:0:0:0:
64,192,5967,1,8,1:0:0:0:
448,192,6120,1,4,0:0:0:0:
320,192,6426,1,4,0:0:0:0:
64,192,6579,1,8,1:0:0:0:
192,192,6579,1,8,0:0:0:0:
448,192,6732,1,4,0:0:0:0:
320,192,7038,1,4,0:0:0:0:
448,192,7191,1,8,0:0:0:0:
192,192,7191,1,8,1:0:0:0:
64,192,7344,1,4,0:0:0:0:
64,192,7497,1,4,0:0:0:0:
320,192,7651,1,4,0:0:0:0:
64,192,7804,1,8,1:0:0:0:
448,192,7804,1,8,0:0:0:0:
192,192,7957,1,4,0:0:0:0:
320,192,8263,1,4,0:0:0:0:
448,192,8416,1,8,0:0:0:0:
64,192,8416,1,8,1:0:0:0:
192,192,8569,1,0,0:0:0:0:
320,192,8569,1,4,0:0:0:0:
64,192,8569,1,4,2:0:0:0:
320,192,8875,1,4,0:0:0:0:
192,192,8875,1,0,0:0:0:0:
64,192,8875,1,4,2:0:0:0:
192,192,9181,1,4,0:0:0:0:
64,192,9181,1,0,0:0:0:0:
448,192,9181,1,4,2:0:0:0:
320,192,9487,1,4,0:0:0:0:
192,192,9640,1,8,0:0:0:0:
64,192,9640,128,4,9946:0:0:0:0:
448,192,9946,1,2,0:0:0:0:
320,192,9946,1,4,0:0:0:0:
192,192,9946,1,0,0:0:0:0:
64,192,10099,1,4,0:0:0:0:
448,192,10253,1,8,0:0:0:0:
192,192,10253,1,4,0:0:0:0:
320,192,10406,1,4,0:0:0:0:
192,192,10559,1,0,0:0:0:0:
320,192,10712,1,4,0:0:0:0:
192,192,10865,1,4,0:0:0:0:
64,192,10865,1,8,0:0:0:0:
448,192,11018,1,4,0:0:0:0:
64,192,11171,1,0,0:0:0:0:
320,192,11324,1,4,0:0:0:0:
448,192,11477,1,4,0:0:0:0:
192,192,11477,1,8,0:0:0:0:
64,192,11630,1,4,0:0:0:0:
320,192,11783,1,0,0:0:0:0:
448,192,11936,1,4,0:0:0:0:
192,192,12089,1,8,0:0:0:0:
64,192,12089,1,4,0:0:0:0:
320,192,12242,1,4,0:0:0:0:
192,192,12395,1,0,0:0:0:0:
448,192,12548,1,4,0:0:0:0:
320,192,12702,1,4,0:0:0:0:
64,192,12702,1,8,0:0:0:0:
448,192,12855,1,4,0:0:0:0:
192,192,13008,1,0,0:0:0:0:
320,192,13161,1,4,0:0:0:0:
64,192,13314,1,8,0:0:0:0:
448,192,13314,1,4,0:0:0:0:
192,192,13467,1,4,0:0:0:0:
448,192,13773,1,4,2:0:0:0:
320,192,13773,1,4,0:0:0:0:
64,192,13773,1,8,0:0:0:0:
64,192,14079,1,8,0:0:0:0:
320,192,14079,1,4,0:0:0:0:
448,192,14079,1,4,2:0:0:0:
192,192,14385,1,8,0:0:0:0:
64,192,14462,1,8,0:0:0:0:
448,192,14538,1,8,0:0:0:0:
320,192,14615,1,8,0:0:0:0:
64,192,14691,1,8,0:0:0:0:
192,192,14768,1,8,0:0:0:0:
320,192,14844,1,2,0:0:0:0:
448,192,14844,1,4,0:0:0:0:
64,192,14997,1,4,0:0:0:0:
192,192,15151,1,8,0:0:0:0:
448,192,15151,1,4,0:0:0:0:
320,192,15304,1,4,0:0:0:0:
192,192,15380,1,4,0:0:0:0:
448,192,15457,1,4,0:0:0:0:
64,192,15457,1,0,0:0:0:0:
320,192,15610,1,4,0:0:0:0:
64,192,15763,1,4,0:0:0:0:
192,192,15763,1,8,0:0:0:0:
448,192,15916,1,4,0:0:0:0:
320,192,15992,1,4,0:0:0:0:
192,192,16069,1,0,0:0:0:0:
64,192,16069,1,4,0:0:0:0:
448,192,16222,1,4,0:0:0:0:
320,192,16375,1,8,0:0:0:0:
64,192,16375,1,4,0:0:0:0:
192,192,16528,1,4,0:0:0:0:
320,192,16605,1,4,0:0:0:0:
64,192,16681,1,4,0:0:0:0:
448,192,16681,1,0,0:0:0:0:
192,192,16834,1,4,0:0:0:0:
448,192,16987,1,4,0:0:0:0:
320,192,16987,1,8,0:0:0:0:
192,192,17140,1,4,0:0:0:0:
64,192,17293,1,4,0:0:0:0:
448,192,17293,1,2,0:0:0:0:
320,192,17293,1,0,0:0:0:0:
192,192,17446,1,0,0:0:0:0:
64,192,17599,1,4,0:0:0:0:
448,192,17599,1,8,0:0:0:0:
320,192,17753,1,0,0:0:0:0:
448,192,17906,1,0,0:0:0:0:
64,192,17906,1,4,0:0:0:0:
192,192,18059,1,0,0:0:0:0:
320,192,18212,1,8,0:0:0:0:
448,192,18212,1,4,0:0:0:0:
448,192,18365,1,4,0:0:0:0:
64,192,18365,1,8,0:0:0:0:
192,192,18365,1,4,2:0:0:0:
192,192,18671,1,4,2:0:0:0:
64,192,18671,1,8,0:0:0:0:
448,192,18671,1,4,0:0:0:0:
448,192,18977,1,4,0:0:0:0:
320,192,18977,1,8,0:0:0:0:
64,192,18977,1,4,2:0:0:0:
192,192,19283,1,8,0:0:0:0:
320,192,19283,1,4,0:0:0:0:
64,192,19436,128,0,20355:0:0:0:0:
448,192,19436,1,4,0:0:0:0:
192,192,19589,1,4,0:0:0:0:
320,192,19742,1,4,0:0:0:0:
448,192,19895,1,0,0:0:0:0:
320,192,20048,1,0,2:0:0:0:
192,192,20048,1,0,0:0:0:0:
448,192,20202,1,0,0:0:0:0:
320,192,20355,1,0,0:0:0:0:
192,192,20508,1,0,0:0:0:0:
448,192,20661,1,0,2:0:0:0:
64,192,20661,1,0,0:0:0:0:
320,192,20814,1,0,0:0:0:0:
192,192,20967,1,0,0:0:0:0:
64,192,21120,1,0,0:0:0:0:
448,192,21273,1,0,2:0:0:0:
320,192,21273,1,0,0:0:0:0:
192,192,21426,1,0,0:0:0:0:
448,192,21579,1,0,0:0:0:0:
64,192,21732,1,0,0:0:0:0:
448,192,21885,1,0,2:0:0:0:
192,192,21885,1,0,0:0:0:0:
320,192,22038,1,0,0:0:0:0:
64,192,22191,1,0,0:0:0:0:
320,192,22344,1,0,0:0:0:0:
448,192,22497,1,0,2:0:0:0:
192,192,22497,1,0,0:0:0:0:
64,192,22651,1,0,0:0:0:0:
448,192,22804,1,0,0:0:0:0:
192,192,22957,1,0,0:0:0:0:
448,192,23110,1,0,2:0:0:0:
320,192,23110,1,0,0:0:0:0:
64,192,23263,1,0,0:0:0:0:
192,192,23416,1,0,0:0:0:0:
64,192,23569,1,0,0:0:0:0:
448,192,23722,1,0,2:0:0:0:
192,192,23722,1,0,0:0:0:0:
320,192,23875,1,0,0:0:0:0:
448,192,24028,1,0,0:0:0:0:
192,192,24181,1,0,0:0:0:0:
448,192,24334,1,0,2:0:0:0:
64,192,24334,1,0,0:0:0:0:
320,192,24487,1,0,0:0:0:0:
192,192,24640,1,0,0:0:0:0:
320,192,24793,1,0,0:0:0:0:
448,192,24946,1,0,2:0:0:0:
64,192,24946,1,0,0:0:0:0:
192,192,25099,1,0,0:0:0:0:
448,192,25253,1,0,0:0:0:0:
320,192,25406,1,0,0:0:0:0:
448,192,25559,1,0,2:0:0:0:
192,192,25559,1,0,0:0:0:0:
64,192,25712,1,0,0:0:0:0:
448,192,25865,1,0,0:0:0:0:
192,192,26018,1,0,0:0:0:0:
448,192,26171,1,0,2:0:0:0:
64,192,26171,1,0,0:0:0:0:
320,192,26324,1,0,0:0:0:0:
64,192,26477,1,0,0:0:0:0:
192,192,26630,1,0,0:0:0:0:
448,192,26783,1,0,2:0:0:0:
64,192,26783,1,0,0:0:0:0:
320,192,26936,1,0,0:0:0:0:
448,192,27089,1,0,0:0:0:0:
192,192,27242,1,0,0:0:0:0:
448,192,27395,1,0,2:0:0:0:
64,192,27395,1,0,0:0:0:0:
320,192,27548,1,0,0:0:0:0:
192,192,27702,1,0,0:0:0:0:
64,192,27855,1,0,0:0:0:0:
448,192,28008,1,0,2:0:0:0:
320,192,28008,1,0,0:0:0:0:
192,192,28161,1,0,0:0:0:0:
448,192,28314,1,0,0:0:0:0:
64,192,28467,1,0,0:0:0:0:
448,192,28620,1,0,2:0:0:0:
320,192,28620,1,0,0:0:0:0:
192,192,28773,1,0,0:0:0:0:
448,192,28926,1,0,0:0:0:0:
320,192,29079,1,0,0:0:0:0:
448,192,29232,1,0,2:0:0:0:
192,192,29232,1,0,0:0:0:0:
64,192,29385,1,0,0:0:0:0:
320,192,29385,128,0,29538:2:0:0:0:
192,192,29538,1,0,0:0:0:0:
448,192,29691,1,0,0:0:0:0:
64,192,29844,1,4,0:0:0:0:
320,192,29844,1,0,0:0:0:0:
192,192,29997,1,0,0:0:0:0:
320,192,30151,1,0,0:0:0:0:
448,192,30304,1,0,0:0:0:0:
64,192,30457,1,4,0:0:0:0:
192,192,30457,1,0,0:0:0:0:
320,192,30610,1,0,0:0:0:0:
192,192,30763,1,0,0:0:0:0:
448,192,30916,1,0,0:0:0:0:
64,192,31069,1,4,0:0:0:0:
320,192,31069,1,0,0:0:0:0:
192,192,31222,1,0,0:0:0:0:
64,192,31375,1,0,0:0:0:0:
320,192,31528,1,0,0:0:0:0:
64,192,31681,1,4,0:0:0:0:
448,192,31681,1,0,0:0:0:0:
192,192,31834,1,0,0:0:0:0:
320,192,31987,1,0,0:0:0:0:
192,192,32140,1,0,0:0:0:0:
64,192,32293,1,4,0:0:0:0:
448,192,32293,1,0,0:0:0:0:
320,192,32446,1,0,0:0:0:0:
192,192,32599,1,0,0:0:0:0:
320,192,32753,1,0,0:0:0:0:
64,192,32906,1,4,0:0:0:0:
192,192,32906,1,0,0:0:0:0:
448,192,33059,1,0,0:0:0:0:
192,192,33212,1,0,0:0:0:0:
320,192,33365,1,0,0:0:0:0:
64,192,33518,1,4,0:0:0:0:
448,192,33518,1,0,0:0:0:0:
192,192,33671,1,0,0:0:0:0:
320,192,33824,1,0,0:0:0:0:
448,192,33977,1,0,0:0:0:0:
64,192,34130,1,4,0:0:0:0:
320,192,34130,1,0,0:0:0:0:
192,192,34283,128,0,34436:0:0:0:0:
448,192,34436,1,4,0:0:0:0:
64,192,34589,1,0,0:0:0:0:
448,192,34742,1,0,0:0:0:0:
320,192,34742,1,0,0:0:0:0:
192,192,34895,1,0,0:0:0:0:
448,192,35048,1,0,0:0:0:0:
320,192,35202,1,0,0:0:0:0:
64,192,35355,1,4,0:0:0:0:
448,192,35355,1,0,0:0:0:0:
192,192,35508,1,0,0:0:0:0:
320,192,35661,1,0,0:0:0:0:
448,192,35814,1,0,0:0:0:0:
64,192,35967,1,4,0:0:0:0:
320,192,35967,1,0,0:0:0:0:
192,192,36120,1,0,0:0:0:0:
448,192,36273,1,0,0:0:0:0:
320,192,36426,1,0,0:0:0:0:
64,192,36579,1,4,0:0:0:0:
192,192,36579,1,0,0:0:0:0:
320,192,36732,1,0,0:0:0:0:
64,192,36885,1,0,0:0:0:0:
448,192,36885,128,2,39334:0:0:0:0:
192,192,36885,1,4,2:0:0:0:
320,192,39334,1,0,0:0:0:0:
64,192,39334,1,2,0:0:0:0:
192,192,39334,1,4,2:0:0:0:
192,192,39487,1,4,0:0:0:0:
448,192,39487,1,8,0:0:0:0:
320,192,39640,1,0,0:0:0:0:
64,192,39717,1,0,0:0:0:0:
448,192,39793,1,8,0:0:0:0:
192,192,39793,1,4,0:0:0:0:
320,192,39946,1,4,0:0:0:0:
192,192,40099,1,4,0:0:0:0:
64,192,40099,1,8,0:0:0:0:
320,192,40253,1,0,0:0:0:0:
448,192,40329,1,0,0:0:0:0:
64,192,40406,1,8,0:0:0:0:
192,192,40406,1,4,0:0:0:0:
320,192,40559,1,4,0:0:0:0:
64,192,40712,1,8,0:0:0:0:
448,192,40712,1,4,0:0:0:0:
192,192,40865,1,0,0:0:0:0:
64,192,40941,1,0,0:0:0:0:
448,192,41018,1,4,0:0:0:0:
320,192,41018,1,8,0:0:0:0:
192,192,41171,1,4,0:0:0:0:
320,192,41324,1,4,0:0:0:0:
64,192,41324,1,8,0:0:0:0:
448,192,41477,1,0,0:0:0:0:
320,192,41554,1,0,0:0:0:0:
64,192,41630,1,8,0:0:0:0:
192,192,41630,1,4,0:0:0:0:
448,192,41783,1,4,0:0:0:0:
320,192,41936,1,8,0:0:0:0:
192,192,41936,1,4,0:0:0:0:
64,192,42089,1,0,0:0:0:0:
320,192,42166,1,0,0:0:0:0:
192,192,42242,1,4,0:0:0:0:
64,192,42242,1,8,0:0:0:0:
448,192,42395,1,4,0:0:0:0:
64,192,42548,1,4,0:0:0:0:
320,192,42548,1,8,0:0:0:0:
192,192,42702,1,0,0:0:0:0:
448,192,42778,1,0,0:0:0:0:
64,192,42855,1,8,0:0:0:0:
320,192,42855,1,4,0:0:0:0:
192,192,43008,1,4,0:0:0:0:
448,192,43161,1,8,0:0:0:0:
320,192,43161,1,4,0:0:0:0:
192,192,43314,1,0,0:0:0:0:
64,192,43390,1,0,0:0:0:0:
448,192,43467,1,4,0:0:0:0:
320,192,43467,1,8,0:0:0:0:
192,192,43620,1,4,0:0:0:0:
64,192,43773,1,4,0:0:0:0:
320,192,43773,1,8,0:0:0:0:
192,192,43926,1,0,0:0:0:0:
320,192,44003,1,0,0:0:0:0:
64,192,44079,1,8,0:0:0:0:
448,192,44079,1,4,0:0:0:0:
320,192,44232,1,4,2:0:0:0:
192,192,44232,1,4,0:0:0:0:
448,192,44385,1,4,0:0:0:0:
64,192,44385,1,8,0:0:0:0:
192,192,44538,1,4,0:0:0:0:
320,192,44615,1,0,0:0:0:0:
64,192,44691,1,8,0:0:0:0:
192,192,44691,1,4,0:0:0:0:
448,192,44844,1,4,0:0:0:0:
192,192,44997,1,8,0:0:0:0:
320,192,44997,1,4,0:0:0:0:
64,192,45151,1,4,0:0:0:0:
192,192,45227,1,0,0:0:0:0:
448,192,45304,1,8,0:0:0:0:
320,192,45304,1,4,0:0:0:0:
192,192,45457,1,4,0:0:0:0:
64,192,45610,1,4,0:0:0:0:
320,192,45610,1,8,0:0:0:0:
448,192,45763,1,4,0:0:0:0:
320,192,45839,1,0,0:0:0:0:
192,192,45916,1,4,0:0:0:0:
64,192,45916,1,8,0:0:0:0:
448,192,46069,1,4,0:0:0:0:
192,192,46222,1,8,0:0:0:0:
64,192,46222,1,4,0:0:0:0:
320,192,46375,1,4,0:0:0:0:
448,192,46452,1,0,0:0:0:0:
192,192,46528,1,8,0:0:0:0:
320,192,46528,1,4,0:0:0:0:
192,192,46681,128,4,46987:2:0:0:0:
448,192,46681,1,4,0:0:0:0:
64,192,46681,1,0,0:0:0:0:
448,192,46987,128,4,47293:2:0:0:0:
320,192,46987,1,4,0:0:0:0:
64,192,46987,1,8,0:0:0:0:
320,192,47293,1,4,0:0:0:0:
64,192,47293,128,4,47599:2:0:0:0:
192,192,47293,1,0,0:0:0:0:
192,192,47599,1,8,0:0:0:0:
448,192,47599,1,4,0:0:0:0:
320,192,47599,128,4,47906:2:0:0:0:
64,192,47906,1,0,0:0:0:0:
192,192,47906,128,4,48212:2:0:0:0:
448,192,47906,1,4,0:0:0:0:
448,192,48212,128,4,48518:2:0:0:0:
320,192,48212,1,4,0:0:0:0:
64,192,48212,1,8,0:0:0:0:
320,192,48518,1,4,0:0:0:0:
64,192,48518,1,0,0:0:0:0:
192,192,48518,1,4,2:0:0:0:
448,192,48671,1,8,0:0:0:0:
320,192,48747,1,8,0:0:0:0:
64,192,48824,1,8,0:0:0:0:
192,192,48901,1,8,0:0:0:0:
448,192,48977,1,8,0:0:0:0:
320,192,49054,1,8,0:0:0:0:
64,192,49130,1,2,0:0:0:0:
192,192,49130,1,4,0:0:0:0:
448,192,49283,1,4,0:0:0:0:
320,192,49283,1,8,0:0:0:0:
64,192,49436,1,0,0:0:0:0:
192,192,49513,1,0,0:0:0:0:
320,192,49589,1,4,0:0:0:0:
448,192,49589,1,8,0:0:0:0:
64,192,49742,1,4,0:0:0:0:
192,192,49742,1,4,2:0:0:0:
192,192,49972,1,4,0:0:0:0:
320,192,49972,1,4,2:0:0:0:
320,192,50202,1,4,2:0:0:0:
448,192,50202,1,8,0:0:0:0:
64,192,50355,1,4,0:0:0:0:
192,192,50355,1,4,2:0:0:0:
64,192,50508,1,4,0:0:0:0:
448,192,50508,1,8,0:0:0:0:
192,192,50661,1,0,0:0:0:0:
320,192,50737,1,0,0:0:0:0:
64,192,50814,1,8,0:0:0:0:
192,192,50814,1,4,0:0:0:0:
448,192,50967,1,4,0:0:0:0:
192,192,51120,1,8,0:0:0:0:
320,192,51120,1,4,0:0:0:0:
448,192,51273,1,0,0:0:0:0:
192,192,51349,1,0,0:0:0:0:
320,192,51426,1,4,0:0:0:0:
64,192,51426,1,8,0:0:0:0:
192,192,51579,1,4,0:0:0:0:
64,192,51732,1,4,2:0:0:0:
320,192,51732,1,8,0:0:0:0:
448,192,51732,128,4,52038:0:0:0:0:
64,192,52038,1,8,0:0:0:0:
192,192,52038,1,4,0:0:0:0:
320,192,52191,1,4,0:0:0:0:
192,192,52344,1,8,0:0:0:0:
448,192,52344,1,4,0:0:0:0:
64,192,52344,128,4,52651:2:0:0:0:
448,192,52651,1,4,0:0:0:0:
192,192,52651,1,8,0:0:0:0:
320,192,52804,1,4,0:0:0:0:
64,192,52804,1,4,2:0:0:0:
448,192,52957,1,4,0:0:0:0:
192,192,52957,1,8,0:0:0:0:
320,192,53110,1,0,0:0:0:0:
448,192,53186,1,0,0:0:0:0:
64,192,53263,1,8,0:0:0:0:
192,192,53263,1,4,0:0:0:0:
320,192,53416,1,4,0:0:0:0:
64,192,53569,1,8,0:0:0:0:
448,192,53569,1,4,0:0:0:0:
320,192,53722,1,0,0:0:0:0:
192,192,53798,1,0,0:0:0:0:
448,192,53875,1,4,0:0:0:0:
64,192,53875,1,8,0:0:0:0:
192,192,54028,1,4,0:0:0:0:
320,192,54028,1,4,2:0:0:0:
64,192,54181,1,4,0:0:0:0:
448,192,54181,1,8,0:0:0:0:
192,192,54334,1,0,0:0:0:0:
448,192,54411,1,0,0:0:0:0:
64,192,54487,1,8,0:0:0:0:
320,192,54487,1,4,0:0:0:0:
192,192,54640,1,4,0:0:0:0:
448,192,54640,1,4,2:0:0:0:
320,192,54793,1,8,0:0:0:0:
64,192,54793,1,4,0:0:0:0:
448,192,54946,1,0,0:0:0:0:
320,192,55023,1,0,0:0:0:0:
64,192,55099,1,8,0:0:0:0:
192,192,55099,1,4,0:0:0:0:
448,192,55253,1,4,2:0:0:0:
320,192,55253,1,4,0:0:0:0:
448,192,55406,1,4,0:0:0:0:
64,192,55406,1,8,0:0:0:0:
320,192,55559,1,0,0:0:0:0:
192,192,55635,1,0,0:0:0:0:
448,192,55712,1,4,0:0:0:0:
64,192,55712,1,8,0:0:0:0:
192,192,55865,1,4,0:0:0:0:
320,192,55865,1,4,2:0:0:0:
64,192,56018,1,8,0:0:0:0:
448,192,56018,1,4,0:0:0:0:
192,192,56171,1,0,0:0:0:0:
320,192,56247,1,0,0:0:0:0:
64,192,56324,1,8,0:0:0:0:
192,192,56324,1,4,0:0:0:0:
448,192,56477,1,4,0:0:0:0:
320,192,56477,1,8,0:0:0:0:
192,192,56554,1,4,0:0:0:0:
64,192,56630,1,4,0:0:0:0:
320,192,56707,1,8,0:0:0:0:
192,192,56783,1,4,0:0:0:0:
448,192,56783,1,8,0:0:0:0:
64,192,56860,1,4,0:0:0:0:
320,192,56936,1,4,0:0:0:0:
448,192,57013,1,8,0:0:0:0:
192,192,57089,1,4,0:0:0:0:
64,192,57089,1,8,0:0:0:0:
320,192,57166,1,4,0:0:0:0:
448,192,57242,1,4,0:0:0:0:
64,192,57319,1,4,0:0:0:0:
192,192,57395,1,8,0:0:0:0:
448,192,57472,1,4,0:0:0:0:
320,192,57548,1,4,0:0:0:0:
64,192,57625,1,8,0:0:0:0:
448,192,57702,1,4,0:0:0:0:
192,192,57702,1,8,0:0:0:0:
320,192,57855,1,4,0:0:0:0:
448,192,58008,1,4,0:0:0:0:
64,192,58008,1,8,0:0:0:0:
192,192,58161,1,4,0:0:0:0:
448,192,58314,1,8,0:0:0:0:
320,192,58314,1,4,0:0:0:0:
192,192,58467,1,4,0:0:0:0:
448,192,58620,1,4,0:0:0:0:
64,192,58620,128,8,58926:0:0:0:0:
320,192,58773,1,4,0:0:0:0:
448,192,58926,1,2,0:0:0:0:
192,192,58926,1,4,0:0:0:0:
320,192,59079,1,4,0:0:0:0:
64,192,59232,1,8,0:0:0:0:
448,192,59232,1,4,0:0:0:0:
192,192,59385,1,4,0:0:0:0:
320,192,59538,1,0,0:0:0:0:
448,192,59691,1,4,0:0:0:0:
192,192,59844,1,8,0:0:0:0:
320,192,59844,1,4,0:0:0:0:
64,192,59997,1,4,0:0:0:0:
320,192,60151,1,0,0:0:0:0:
64,192,60304,1,4,0:0:0:0:
448,192,60457,1,8,0:0:0:0:
192,192,60457,1,4,0:0:0:0:
320,192,60610,1,4,0:0:0:0:
192,192,60763,1,0,0:0:0:0:
448,192,60916,1,4,0:0:0:0:
192,192,61069,1,4,0:0:0:0:
64,192,61069,1,8,0:0:0:0:
320,192,61222,1,4,0:0:0:0:
448,192,61375,1,4,0:0:0:0:
64,192,61375,1,2,0:0:0:0:
192,192,61528,1,4,0:0:0:0:
64,192,61681,1,4,0:0:0:0:
320,192,61681,1,8,0:0:0:0:
448,192,61834,1,4,0:0:0:0:
192,192,61987,1,0,0:0:0:0:
64,192,62140,1,4,0:0:0:0:
320,192,62293,1,8,0:0:0:0:
192,192,62293,1,4,0:0:0:0:
448,192,62446,1,4,0:0:0:0:
64,192,62599,1,0,0:0:0:0:
320,192,62753,1,4,0:0:0:0:
192,192,62906,1,4,0:0:0:0:
448,192,62906,1,8,0:0:0:0:
320,192,63059,1,4,0:0:0:0:
192,192,63212,1,2,0:0:0:0:
64,192,63212,1,4,0:0:0:0:
448,192,63365,1,8,0:0:0:0:
320,192,63441,1,8,0:0:0:0:
192,192,63518,1,8,0:0:0:0:
320,192,63594,1,8,0:0:0:0:
448,192,63671,1,8,0:0:0:0:
320,192,63747,1,8,0:0:0:0:
192,192,63824,1,4,0:0:0:0:
64,192,63824,1,2,0:0:0:0:
448,192,63977,1,4,0:0:0:0:
192,192,64130,1,4,0:0:0:0:
320,192,64130,1,8,0:0:0:0:
320,192,64283,1,8,0:0:0:0:
192,192,64283,1,4,0:0:0:0:
64,192,64436,1,0,0:0:0:0:
192,192,64589,1,4,0:0:0:0:
320,192,64742,1,8,0:0:0:0:
64,192,64742,1,4,0:0:0:0:
192,192,64895,1,4,0:0:0:0:
448,192,65048,1,0,0:0:0:0:
320,192,65202,1,4,0:0:0:0:
448,192,65355,1,4,0:0:0:0:
192,192,65355,1,8,0:0:0:0:
192,192,65508,1,4,0:0:0:0:
448,192,65508,1,8,0:0:0:0:
64,192,65661,1,0,0:0:0:0:
192,192,65814,1,4,0:0:0:0:
320,192,65967,1,4,0:0:0:0:
448,192,65967,1,8,0:0:0:0:
64,192,66120,1,4,0:0:0:0:
448,192,66273,1,0,0:0:0:0:
64,192,66426,1,4,0:0:0:0:
320,192,66579,1,4,0:0:0:0:
192,192,66579,1,8,0:0:0:0:
320,192,66732,1,8,0:0:0:0:
192,192,66732,1,4,0:0:0:0:
448,192,66885,1,0,0:0:0:0:
320,192,67038,1,4,0:0:0:0:
448,192,67191,1,4,0:0:0:0:
192,192,67191,1,8,0:0:0:0:
320,192,67344,1,4,2:0:0:0:
448,192,67344,1,4,0:0:0:0:
64,192,67344,1,0,0:0:0:0:
64,192,67651,1,0,0:0:0:0:
448,192,67651,1,4,0:0:0:0:
320,192,67651,1,4,2:0:0:0:
64,192,67957,1,0,0:0:0:0:
320,192,67957,1,4,2:0:0:0:
448,192,67957,1,4,0:0:0:0:
448,192,68263,1,8,0:0:0:0:
64,192,68339,1,8,0:0:0:0:
320,192,68416,1,8,0:0:0:0:
192,192,68492,1,8,0:0:0:0:
448,192,68569,1,8,0:0:0:0:
64,192,68645,1,8,0:0:0:0:
320,192,68722,1,4,0:0:0:0:
192,192,68722,1,2,0:0:0:0:
448,192,68875,1,4,0:0:0:0:
320,192,69028,1,4,0:0:0:0:
64,192,69028,1,8,0:0:0:0:
192,192,69181,1,4,0:0:0:0:
448,192,69334,1,0,0:0:0:0:
64,192,69487,1,4,0:0:0:0:
192,192,69640,1,4,0:0:0:0:
320,192,69640,1,8,0:0:0:0:
64,192,69793,1,4,0:0:0:0:
192,192,69946,1,0,0:0:0:0:
448,192,70099,1,4,0:0:0:0:
320,192,70253,1,4,0:0:0:0:
192,192,70253,1,8,0:0:0:0:
64,192,70406,1,4,0:0:0:0:
320,192,70559,1,0,0:0:0:0:
64,192,70712,1,4,0:0:0:0:
320,192,70865,1,4,0:0:0:0:
448,192,70865,1,8,0:0:0:0:
192,192,71018,1,4,0:0:0:0:
448,192,71171,1,2,0:0:0:0:
64,192,71171,1,4,0:0:0:0:
320,192,71171,1,4,2:0:0:0:
192,192,71324,1,4,0:0:0:0:
448,192,71477,1,8,0:0:0:0:
64,192,71477,1,4,0:0:0:0:
320,192,71630,1,4,0:0:0:0:
192,192,71783,1,0,0:0:0:0:
448,192,71936,1,4,0:0:0:0:
192,192,72089,1,8,0:0:0:0:
320,192,72089,1,4,0:0:0:0:
64,192,72242,1,4,0:0:0:0:
320,192,72395,1,0,0:0:0:0:
192,192,72548,1,4,0:0:0:0:
448,192,72548,1,4,2:0:0:0:
64,192,72548,1,8,0:0:0:0:
320,192,72702,1,4,0:0:0:0:
192,192,72855,1,4,0:0:0:0:
448,192,72855,1,4,2:0:0:0:
64,192,72855,1,8,0:0:0:0:
320,192,73008,1,4,0:0:0:0:
64,192,73161,1,8,0:0:0:0:
448,192,73161,1,4,2:0:0:0:
192,192,73161,1,4,0:0:0:0:
320,192,73467,1,4,0:0:0:0:
448,192,73467,1,4,2:0:0:0:
64,192,73467,1,8,0:0:0:0:
320,192,73773,1,4,0:0:0:0:
64,192,73926,1,4,0:0:0:0:
192,192,73926,1,8,0:0:0:0:
192,192,74079,1,8,0:0:0:0:
64,192,74079,1,4,0:0:0:0:
448,192,74232,1,0,0:0:0:0:
64,192,74385,1,4,0:0:0:0:
320,192,74538,1,8,0:0:0:0:
448,192,74538,1,4,0:0:0:0:
192,192,74691,1,4,0:0:0:0:
64,192,74844,1,0,0:0:0:0:
320,192,74997,1,4,0:0:0:0:
192,192,75151,1,4,0:0:0:0:
448,192,75151,1,8,0:0:0:0:
448,192,75304,1,4,0:0:0:0:
192,192,75304,1,8,0:0:0:0:
320,192,75457,1,0,0:0:0:0:
64,192,75610,1,4,0:0:0:0:
448,192,75763,1,4,0:0:0:0:
192,192,75763,1,8,0:0:0:0:
320,192,75916,1,4,0:0:0:0:
64,192,76069,1,2,0:0:0:0:
448,192,76069,1,4,0:0:0:0:
192,192,76222,1,4,0:0:0:0:
448,192,76375,1,4,0:0:0:0:
64,192,76375,1,8,0:0:0:0:
320,192,76528,1,4,0:0:0:0:
448,192,76681,1,4,0:0:0:0:
192,192,76681,1,8,0:0:0:0:
320,192,76834,1,4,0:0:0:0:
64,192,76987,1,8,0:0:0:0:
192,192,76987,1,4,0:0:0:0:
320,192,77140,1,4,0:0:0:0:
448,192,77140,1,4,2:0:0:0:
448,192,78059,1,8,0:0:0:0:
64,192,78059,1,4,0:0:0:0:
320,192,78212,1,4,0:0:0:0:
192,192,78365,1,4,0:0:0:0:
448,192,78518,5,4,0:0:0:0:
64,192,78518,1,2,0:0:0:0:
320,192,78518,1,0,0:0:0:0:
192,192,78671,1,4,0:0:0:0:
448,192,78824,1,8,0:0:0:0:
64,192,78824,1,8,1:0:0:0:
320,192,78977,1,4,0:0:0:0:
192,192,79283,1,4,0:0:0:0:
64,192,79436,1,8,1:0:0:0:
320,192,79436,1,8,0:0:0:0:
448,192,79589,1,4,0:0:0:0:
320,192,79895,1,4,0:0:0:0:
448,192,80048,1,8,0:0:0:0:
192,192,80048,1,8,1:0:0:0:
64,192,80202,1,4,0:0:0:0:
64,192,80508,1,4,0:0:0:0:
448,192,80661,1,8,0:0:0:0:
320,192,80661,1,8,1:0:0:0:
192,192,80814,1,4,0:0:0:0:
192,192,80967,1,4,0:0:0:0:
320,192,81120,1,4,0:0:0:0:
64,192,81273,1,8,1:0:0:0:
448,192,81273,1,8,0:0:0:0:
192,192,81426,1,4,0:0:0:0:
448,192,81732,1,4,0:0:0:0:
64,192,81885,1,8,1:0:0:0:
192,192,81885,1,8,0:0:0:0:
320,192,82038,1,4,0:0:0:0:
64,192,82344,1,4,0:0:0:0:
448,192,82497,1,8,0:0:0:0:
320,192,82497,1,8,1:0:0:0:
192,192,82651,1,4,0:0:0:0:
64,192,82804,1,8,2:0:0:0:
448,192,82957,1,8,0:0:0:0:
320,192,82957,1,8,1:0:0:0:
192,192,83110,1,8,0:0:0:0:
64,192,83110,1,8,1:0:0:0:
448,192,83263,1,8,2:0:0:0:
320,192,83416,5,4,0:0:0:0:
320,192,83569,1,4,0:0:0:0:
192,192,83722,1,8,0:0:0:0:
448,192,83722,1,8,1:0:0:0:
64,192,83875,1,4,0:0:0:0:
192,192,84181,1,4,0:0:0:0:
448,192,84334,1,8,1:0:0:0:
64,192,84334,1,8,0:0:0:0:
320,192,84487,1,4,0:0:0:0:
192,192,84793,1,4,0:0:0:0:
448,192,84946,1,8,1:0:0:0:
320,192,84946,1,8,0:0:0:0:
64,192,85099,1,4,0:0:0:0:
320,192,85406,1,4,0:0:0:0:
448,192,85559,1,8,1:0:0:0:
64,192,85559,1,8,0:0:0:0:
192,192,85712,1,4,0:0:0:0:
192,192,85865,1,4,0:0:0:0:
320,192,86018,1,4,0:0:0:0:
64,192,86171,1,8,0:0:0:0:
448,192,86171,1,8,1:0:0:0:
192,192,86324,1,4,0:0:0:0:
320,192,86630,1,4,0:0:0:0:
448,192,86783,1,8,1:0:0:0:
64,192,86783,1,8,0:0:0:0:
192,192,86936,1,4,0:0:0:0:
320,192,87089,1,8,0:0:0:0:
448,192,87089,1,4,0:0:0:0:
192,192,87166,1,4,0:0:0:0:
64,192,87242,1,4,0:0:0:0:
448,192,87319,1,8,0:0:0:0:
192,192,87395,1,8,0:0:0:0:
320,192,87395,1,4,0:0:0:0:
64,192,87472,1,4,0:0:0:0:
448,192,87548,1,4,0:0:0:0:
320,192,87625,1,8,0:0:0:0:
64,192,87702,1,4,0:0:0:0:
192,192,87702,1,8,0:0:0:0:
448,192,87778,1,4,0:0:0:0:
320,192,87855,1,4,0:0:0:0:
64,192,87931,1,8,0:0:0:0:
192,192,88008,1,4,0:0:0:0:
448,192,88008,1,8,0:0:0:0:
320,192,88084,1,4,0:0:0:0:
64,192,88161,1,4,0:0:0:0:
192,192,88237,1,8,0:0:0:0:
448,192,88314,1,12,0:0:0:0:
320,192,88314,1,2,0:0:0:0:
192,192,88467,1,4,0:0:0:0:
64,192,88467,1,8,0:0:0:0:
448,192,88620,1,0,0:0:0:0:
320,192,88696,1,0,0:0:0:0:
192,192,88773,1,4,0:0:0:0:
64,192,88773,1,8,0:0:0:0:
448,192,88926,1,4,0:0:0:0:
64,192,89079,1,4,0:0:0:0:
320,192,89079,1,8,0:0:0:0:
192,192,89232,1,0,0:0:0:0:
64,192,89309,1,0,0:0:0:0:
448,192,89385,1,8,0:0:0:0:
320,192,89385,1,4,0:0:0:0:
192,192,89538,1,4,0:0:0:0:
64,192,89691,1,4,0:0:0:0:
320,192,89691,1,8,0:0:0:0:
192,192,89844,1,0,0:0:0:0:
448,192,89921,1,0,0:0:0:0:
320,192,89997,1,4,0:0:0:0:
64,192,89997,1,8,0:0:0:0:
192,192,90151,1,4,0:0:0:0:
64,192,90304,1,4,0:0:0:0:
448,192,90304,1,8,0:0:0:0:
320,192,90457,1,0,0:0:0:0:
192,192,90533,1,0,0:0:0:0:
448,192,90610,1,8,0:0:0:0:
64,192,90610,1,4,0:0:0:0:
192,192,90763,1,4,0:0:0:0:
320,192,90916,1,4,0:0:0:0:
64,192,90916,1,8,0:0:0:0:
448,192,91069,1,0,0:0:0:0:
192,192,91145,1,0,0:0:0:0:
320,192,91222,1,4,0:0:0:0:
448,192,91222,1,8,0:0:0:0:
192,192,91375,1,4,0:0:0:0:
448,192,91528,1,8,0:0:0:0:
64,192,91528,1,4,0:0:0:0:
320,192,91681,1,0,0:0:0:0:
64,192,91758,1,0,0:0:0:0:
192,192,91834,1,4,0:0:0:0:
448,192,91834,1,8,0:0:0:0:
320,192,91987,1,4,0:0:0:0:
192,192,92140,1,4,0:0:0:0:
64,192,92140,1,8,0:0:0:0:
320,192,92293,1,0,0:0:0:0:
448,192,92370,1,0,0:0:0:0:
192,192,92446,1,8,0:0:0:0:
320,192,92446,1,4,0:0:0:0:
448,192,92599,1,4,0:0:0:0:
64,192,92753,1,8,0:0:0:0:
320,192,92753,1,4,0:0:0:0:
192,192,92906,1,0,0:0:0:0:
64,192,92982,1,0,0:0:0:0:
320,192,93059,1,4,0:0:0:0:
448,192,93059,1,8,0:0:0:0:
64,192,93212,1,4,0:0:0:0:
192,192,93212,1,2,0:0:0:0:
448,192,93365,1,8,0:0:0:0:
320,192,93365,1,4,0:0:0:0:
192,192,93518,1,0,0:0:0:0:
64,192,93594,1,0,0:0:0:0:
448,192,93671,1,8,0:0:0:0:
320,192,93671,1,4,0:0:0:0:
192,192,93824,1,4,0:0:0:0:
64,192,93977,1,8,0:0:0:0:
448,192,93977,1,4,0:0:0:0:
320,192,94130,1,0,0:0:0:0:
192,192,94207,1,0,0:0:0:0:
448,192,94283,1,8,0:0:0:0:
64,192,94283,1,4,0:0:0:0:
320,192,94436,1,4,0:0:0:0:
448,192,94589,1,4,0:0:0:0:
192,192,94589,1,8,0:0:0:0:
64,192,94742,1,0,0:0:0:0:
192,192,94819,1,0,0:0:0:0:
320,192,94895,1,4,0:0:0:0:
448,192,94895,1,8,0:0:0:0:
192,192,95048,1,4,0:0:0:0:
64,192,95202,1,8,0:0:0:0:
320,192,95202,1,4,0:0:0:0:
192,192,95355,1,0,0:0:0:0:
320,192,95431,1,0,0:0:0:0:
64,192,95508,1,8,0:0:0:0:
448,192,95508,1,4,0:0:0:0:
320,192,95661,128,4,95967:2:0:0:0:
192,192,95661,1,4,0:0:0:0:
448,192,95967,1,8,0:0:0:0:
192,192,95967,1,4,0:0:0:0:
64,192,95967,128,4,96273:2:0:0:0:
448,192,96273,128,4,96579:2:0:0:0:
320,192,96273,1,4,0:0:0:0:
320,192,96579,1,8,0:0:0:0:
64,192,96579,1,4,0:0:0:0:
192,192,96579,128,4,96885:2:0:0:0:
320,192,96885,128,4,97191:2:0:0:0:
448,192,96885,1,4,0:0:0:0:
448,192,97191,1,8,0:0:0:0:
64,192,97191,128,4,97497:2:0:0:0:
192,192,97191,1,4,0:0:0:0:
448,192,97497,1,4,0:0:0:0:
320,192,97497,1,4,2:0:0:0:
192,192,97651,1,8,0:0:0:0:
320,192,97727,1,8,0:0:0:0:
64,192,97804,1,8,0:0:0:0:
448,192,97880,1,8,0:0:0:0:
192,192,97957,1,8,0:0:0:0:
320,192,98033,1,8,0:0:0:0:
448,192,98110,1,4,0:0:0:0:
64,192,98110,128,2,100406:0:0:0:0:
320,192,100406,1,4,0:0:0:0:
192,192,100406,1,8,0:0:0:0:
64,192,100559,1,4,0:0:0:0:
448,192,100559,1,2,0:0:0:0:
192,192,100712,1,4,0:0:0:0:
320,192,100712,1,8,0:0:0:0:
448,192,100865,1,0,0:0:0:0:
192,192,100941,1,0,0:0:0:0:
64,192,101018,1,4,0:0:0:0:
320,192,101018,1,8,0:0:0:0:
448,192,101171,1,4,0:0:0:0:
192,192,101324,1,4,0:0:0:0:
64,192,101324,1,8,0:0:0:0:
448,192,101477,1,0,0:0:0:0:
320,192,101554,1,0,0:0:0:0:
64,192,101630,1,8,0:0:0:0:
192,192,101630,1,4,0:0:0:0:
448,192,101783,1,4,0:0:0:0:
64,192,101936,1,4,0:0:0:0:
320,192,101936,1,8,0:0:0:0:
192,192,102089,1,0,0:0:0:0:
320,192,102166,1,0,0:0:0:0:
192,192,102242,1,4,0:0:0:0:
448,192,102242,1,8,0:0:0:0:
64,192,102395,1,4,0:0:0:0:
320,192,102548,1,4,0:0:0:0:
192,192,102548,1,8,0:0:0:0:
448,192,102702,1,0,0:0:0:0:
320,192,102778,1,0,0:0:0:0:
64,192,102855,1,8,0:0:0:0:
192,192,102855,1,4,0:0:0:0:
320,192,103008,1,4,0:0:0:0:
448,192,103008,1,2,0:0:0:0:
192,192,103161,1,4,0:0:0:0:
448,192,103161,1,8,0:0:0:0:
64,192,103314,1,0,0:0:0:0:
320,192,103390,1,0,0:0:0:0:
192,192,103467,1,4,0:0:0:0:
64,192,103467,1,8,0:0:0:0:
320,192,103620,1,4,0:0:0:0:
64,192,103773,1,8,0:0:0:0:
448,192,103773,1,4,0:0:0:0:
192,192,103926,1,0,0:0:0:0:
448,192,104003,1,0,0:0:0:0:
192,192,104079,1,4,0:0:0:0:
64,192,104079,1,8,0:0:0:0:
320,192,104232,1,4,0:0:0:0:
64,192,104385,1,4,0:0:0:0:
448,192,104385,1,8,0:0:0:0:
320,192,104538,1,0,0:0:0:0:
192,192,104615,1,0,0:0:0:0:
320,192,104691,1,8,0:0:0:0:
448,192,104691,1,4,0:0:0:0:
192,192,104844,1,4,0:0:0:0:
64,192,104997,1,4,0:0:0:0:
448,192,104997,1,8,0:0:0:0:
320,192,105151,1,0,0:0:0:0:
448,192,105227,1,0,0:0:0:0:
192,192,105304,1,4,0:0:0:0:
64,192,105304,1,8,0:0:0:0:
448,192,105457,1,4,0:0:0:0:
64,192,105610,1,8,0:0:0:0:
320,192,105610,1,4,0:0:0:0:
448,192,105763,1,0,0:0:0:0:
320,192,105839,1,0,0:0:0:0:
64,192,105916,1,8,0:0:0:0:
192,192,105916,1,4,0:0:0:0:
320,192,106069,1,4,0:0:0:0:
448,192,106222,1,8,0:0:0:0:
64,192,106222,1,4,0:0:0:0:
192,192,106375,1,0,0:0:0:0:
320,192,106452,1,0,0:0:0:0:
64,192,106528,1,8,0:0:0:0:
448,192,106528,1,4,0:0:0:0:
320,192,106681,1,4,0:0:0:0:
64,192,106834,1,8,0:0:0:0:
448,192,106834,1,4,0:0:0:0:
320,192,106987,1,0,0:0:0:0:
192,192,107064,1,0,0:0:0:0:
320,192,107140,1,4,0:0:0:0:
64,192,107140,1,8,0:0:0:0:
448,192,107293,1,4,0:0:0:0:
64,192,107446,1,8,0:0:0:0:
192,192,107523,1,8,0:0:0:0:
448,192,107599,1,8,0:0:0:0:
320,192,107676,1,8,0:0:0:0:
64,192,107753,1,8,0:0:0:0:
192,192,107829,1,8,0:0:0:0:
320,192,107906,1,4,0:0:0:0:
448,192,107906,1,0,0:0:0:0:
64,192,108059,128,0,108212:0:0:0:0:
320,192,108365,128,0,108518:0:0:0:0:
192,192,108671,128,0,108824:0:0:0:0:
448,192,108977,128,0,109130:0:0:0:0:
320,192,109283,128,0,109436:0:0:0:0:
192,192,109589,128,0,109742:0:0:0:0:
64,192,109895,1,4,0:0:0:0:
448,192,109895,1,8,0:0:0:0:
320,192,109972,1,4,0:0:0:0:
192,192,110048,1,4,0:0:0:0:
320,192,110202,1,0,0:0:0:0:
448,192,110202,1,4,0:0:0:0:
64,192,110355,128,2,111579:0:0:0:0:
192,192,110355,1,4,0:0:0:0:
448,192,110355,1,4,2:0:0:0:
320,192,111579,1,8,0:0:0:0:
192,192,111579,1,4,0:0:0:0:
448,192,111656,1,8,0:0:0:0:
320,192,111732,1,4,0:0:0:0:
64,192,111809,1,4,0:0:0:0:
192,192,111885,1,4,0:0:0:0:
448,192,111885,1,8,0:0:0:0:
320,192,111962,1,8,0:0:0:0:
64,192,112038,1,4,0:0:0:0:
192,192,112115,1,4,0:0:0:0:
320,192,112191,1,4,0:0:0:0:
448,192,112191,1,8,0:0:0:0:
64,192,112268,1,8,0:0:0:0:
192,192,112344,1,4,0:0:0:0:
448,192,112421,1,4,0:0:0:0:
320,192,112497,1,4,0:0:0:0:
64,192,112497,1,8,0:0:0:0:
192,192,112574,1,8,0:0:0:0:
448,192,112651,1,4,0:0:0:0:
320,192,112727,1,4,0:0:0:0:
192,192,112804,1,2,0:0:0:0:
64,192,112804,1,4,0:0:0:0:
448,192,112957,1,4,0:0:0:0:
64,192,113110,1,8,0:0:0:0:
320,192,113110,1,4,0:0:0:0:
64,192,113263,1,8,0:0:0:0:
320,192,113263,1,4,0:0:0:0:
192,192,113416,1,0,0:0:0:0:
320,192,113569,1,4,0:0:0:0:
448,192,113722,1,4,0:0:0:0:
192,192,113722,1,8,0:0:0:0:
320,192,113875,1,4,0:0:0:0:
64,192,114028,1,0,0:0:0:0:
192,192,114181,1,4,0:0:0:0:
448,192,114334,1,4,0:0:0:0:
64,192,114334,1,8,0:0:0:0:
448,192,114487,1,4,0:0:0:0:
64,192,114487,1,8,0:0:0:0:
320,192,114640,1,0,0:0:0:0:
64,192,114793,1,4,0:0:0:0:
448,192,114946,1,8,0:0:0:0:
192,192,114946,1,4,0:0:0:0:
320,192,115099,1,4,0:0:0:0:
64,192,115253,1,0,0:0:0:0:
448,192,115406,1,4,0:0:0:0:
320,192,115559,1,8,0:0:0:0:
64,192,115559,1,4,0:0:0:0:
320,192,115712,1,4,0:0:0:0:
64,192,115712,1,8,0:0:0:0:
192,192,115865,1,0,0:0:0:0:
320,192,116018,1,4,0:0:0:0:
448,192,116171,1,8,0:0:0:0:
64,192,116171,1,4,0:0:0:0:
192,192,116324,1,4,0:0:0:0:
64,192,116324,1,4,2:0:0:0:
320,192,116324,1,0,0:0:0:0:
320,192,116630,1,0,0:0:0:0:
64,192,116630,1,4,2:0:0:0:
192,192,116630,1,4,0:0:0:0:
448,192,116936,1,0,0:0:0:0:
64,192,116936,1,4,0:0:0:0:
192,192,116936,1,4,2:0:0:0:
64,192,117242,1,8,0:0:0:0:
448,192,117319,1,8,0:0:0:0:
192,192,117395,1,8,0:0:0:0:
320,192,117472,1,8,0:0:0:0:
64,192,117548,1,8,0:0:0:0:
448,192,117625,1,8,0:0:0:0:
192,192,117702,1,4,0:0:0:0:
64,192,117702,1,2,0:0:0:0:
320,192,117855,1,4,0:0:0:0:
192,192,118008,1,8,0:0:0:0:
64,192,118008,1,4,0:0:0:0:
320,192,118161,1,4,0:0:0:0:
192,192,118314,1,0,0:0:0:0:
448,192,118467,1,4,0:0:0:0:
320,192,118620,1,4,0:0:0:0:
192,192,118620,1,8,0:0:0:0:
64,192,118773,1,4,0:0:0:0:
320,192,118926,1,0,0:0:0:0:
64,192,119079,1,4,0:0:0:0:
192,192,119232,1,4,0:0:0:0:
448,192,119232,1,8,0:0:0:0:
320,192,119385,1,4,0:0:0:0:
192,192,119538,1,0,0:0:0:0:
64,192,119691,1,4,0:0:0:0:
192,192,119844,1,4,0:0:0:0:
448,192,119844,1,8,0:0:0:0:
320,192,119997,1,4,0:0:0:0:
448,192,120151,1,4,0:0:0:0:
64,192,120151,1,2,0:0:0:0:
192,192,120151,1,4,2:0:0:0:
320,192,120304,1,4,0:0:0:0:
64,192,120457,1,8,0:0:0:0:
448,192,120457,1,4,0:0:0:0:
192,192,120610,1,4,0:0:0:0:
320,192,120763,1,0,0:0:0:0:
64,192,120916,1,4,0:0:0:0:
192,192,121069,1,4,0:0:0:0:
320,192,121069,1,8,0:0:0:0:
448,192,121222,1,4,0:0:0:0:
192,192,121375,1,0,0:0:0:0:
320,192,121528,1,4,0:0:0:0:
448,192,121528,1,8,0:0:0:0:
64,192,121528,1,4,2:0:0:0:
192,192,121681,1,4,0:0:0:0:
448,192,121834,1,8,0:0:0:0:
64,192,121834,1,4,2:0:0:0:
320,192,121834,1,4,0:0:0:0:
192,192,121987,1,4,0:0:0:0:
64,192,122140,1,4,2:0:0:0:
448,192,122140,1,8,0:0:0:0:
320,192,122140,1,4,0:0:0:0:
448,192,122446,1,8,0:0:0:0:
192,192,122446,1,4,0:0:0:0:
64,192,122446,1,4,2:0:0:0:
192,192,122753,1,4,0:0:0:0:
320,192,122906,1,4,0:0:0:0:
64,192,122906,1,8,0:0:0:0:
64,192,123059,1,4,0:0:0:0:
320,192,123059,1,8,0:0:0:0:
448,192,123212,1,0,0:0:0:0:
64,192,123365,1,4,0:0:0:0:
320,192,123518,1,8,0:0:0:0:
448,192,123518,1,4,0:0:0:0:
192,192,123671,1,4,0:0:0:0:
448,192,123824,1,0,0:0:0:0:
320,192,123977,1,4,0:0:0:0:
192,192,124130,1,4,0:0:0:0:
448,192,124130,1,8,0:0:0:0:
192,192,124283,1,4,0:0:0:0:
448,192,124283,1,8,0:0:0:0:
64,192,124436,1,0,0:0:0:0:
448,192,124589,1,4,0:0:0:0:
64,192,124742,1,8,0:0:0:0:
192,192,124819,1,8,0:0:0:0:
448,192,124895,1,8,0:0:0:0:
320,192,124972,1,8,0:0:0:0:
192,192,125048,1,4,0:0:0:0:
64,192,125048,1,0,0:0:0:0:
448,192,125048,1,2,0:0:0:0:
320,192,125508,1,8,0:0:0:0:
192,192,125508,1,4,0:0:0:0:
320,192,126120,1,8,0:0:0:0:
192,192,126120,1,4,0:0:0:0:
192,192,126732,1,4,0:0:0:0:
320,192,126732,1,8,0:0:0:0:
320,192,127191,1,4,0:0:0:0:
448,192,127191,1,8,0:0:0:0:
64,192,127191,1,0,0:0:0:0:
192,192,127497,1,4,0:0:0:0:
64,192,127497,1,0,0:0:0:0:
448,192,127497,1,2,0:0:0:0:
320,192,127651,1,4,0:0:0:0:
192,192,127804,1,4,0:0:0:0:
320,192,127957,1,4,0:0:0:0:
448,192,127957,1,0,0:0:0:0:
64,192,127957,1,8,0:0:0:0:
320,192,128263,1,0,0:0:0:0:
64,192,128263,1,4,0:0:0:0:
192,192,128416,1,4,0:0:0:0:
64,192,128569,1,4,0:0:0:0:
320,192,128569,1,0,0:0:0:0:
448,192,128569,1,8,0:0:0:0:
192,192,128875,1,4,0:0:0:0:
64,192,128875,1,0,0:0:0:0:
320,192,129028,1,4,0:0:0:0:
448,192,129181,1,8,0:0:0:0:
64,192,129181,1,0,0:0:0:0:
192,192,129181,1,4,0:0:0:0:
192,192,129487,1,0,0:0:0:0:
448,192,129487,1,4,0:0:0:0:
320,192,129640,1,0,0:0:0:0:
448,192,129793,1,4,0:0:0:0:
192,192,129793,1,0,0:0:0:0:
64,192,129793,1,8,0:0:0:0:
320,192,129946,1,4,0:0:0:0:
64,192,129946,1,2,0:0:0:0:
448,192,130099,1,4,0:0:0:0:
192,192,130253,1,4,0:0:0:0:
320,192,130406,1,4,0:0:0:0:
448,192,130406,1,8,0:0:0:0:
64,192,130406,1,0,0:0:0:0:
448,192,130712,1,4,0:0:0:0:
64,192,130712,1,0,0:0:0:0:
320,192,130865,1,4,0:0:0:0:
64,192,131018,1,8,0:0:0:0:
448,192,131018,1,4,0:0:0:0:
192,192,131018,1,0,0:0:0:0:
64,192,131324,1,4,0:0:0:0:
448,192,131324,1,8,0:0:0:0:
448,192,131477,1,8,0:0:0:0:
64,192,131477,1,4,0:0:0:0:
320,192,131630,1,4,0:0:0:0:
192,192,131783,1,4,0:0:0:0:
320,192,131834,1,4,0:0:0:0:
448,192,131885,1,4,0:0:0:0:
64,192,131987,1,4,0:0:0:0:
448,192,132089,128,4,132395:0:0:0:0:
320,192,132089,1,8,0:0:0:0:
64,192,132395,1,4,0:0:0:0:
320,192,132395,1,4,2:0:0:0:
192,192,132395,1,0,0:0:0:0:
448,192,132548,1,0,0:0:0:0:
448,192,132702,1,0,0:0:0:0:
192,192,132855,1,0,0:0:0:0:
320,192,133008,1,4,2:0:0:0:
448,192,133008,1,4,0:0:0:0:
64,192,133161,1,0,0:0:0:0:
64,192,133314,1,0,0:0:0:0:
320,192,133467,1,0,0:0:0:0:
448,192,133620,1,4,0:0:0:0:
64,192,133620,1,4,2:0:0:0:
192,192,133620,1,8,0:0:0:0:
320,192,133773,1,0,0:0:0:0:
320,192,133926,1,0,0:0:0:0:
192,192,134079,1,0,0:0:0:0:
320,192,134232,1,4,0:0:0:0:
64,192,134232,1,4,2:0:0:0:
448,192,134385,1,0,0:0:0:0:
448,192,134538,1,0,0:0:0:0:
320,192,134691,1,0,0:0:0:0:
448,192,134844,1,4,0:0:0:0:
64,192,134844,1,4,2:0:0:0:
192,192,134844,1,0,0:0:0:0:
320,192,134997,1,0,0:0:0:0:
320,192,135151,1,0,0:0:0:0:
192,192,135304,1,0,0:0:0:0:
64,192,135457,1,4,2:0:0:0:
448,192,135457,1,4,0:0:0:0:
320,192,135610,1,0,0:0:0:0:
320,192,135763,1,0,0:0:0:0:
192,192,135916,1,0,0:0:0:0:
448,192,136069,1,4,0:0:0:0:
64,192,136069,1,4,2:0:0:0:
320,192,136069,1,8,0:0:0:0:
192,192,136222,1,0,0:0:0:0:
192,192,136375,1,0,0:0:0:0:
64,192,136528,1,0,0:0:0:0:
448,192,136681,1,0,0:0:0:0:
192,192,136834,1,0,0:0:0:0:
320,192,136987,128,0,137293:0:0:0:0:
64,192,137293,1,4,2:0:0:0:
448,192,137293,1,4,0:0:0:0:
192,192,137293,1,0,0:0:0:0:
