osu file format v14

[General]
AudioFilename: audio.mp3
AudioLeadIn: 0
PreviewTime: 97880
Countdown: 0
SampleSet: Soft
StackLeniency: 0.7
Mode: 2
LetterboxInBreaks: 0
WidescreenStoryboard: 1

[Editor]
Bookmarks: 19436,29538,39334,42395,43008,43620,57319
DistanceSpacing: 3.5
BeatDivisor: 4
GridSize: 8
TimelineZoom: 4.099998

[Metadata]
Title:A Match Into Water
TitleUnicode:A Match Into Water
Artist:Pierce The Veil
ArtistUnicode:Pierce The Veil
Creator:AJamez
Version:Rew's Salad
Source:
Tags:PTV Collide With The Sky Vic Fuentes Equal Vision Fearless Records Post-hardcore Progressive Punk Alternative Rock Crowley Hi_Hello Luminate- rew0825 Xazax
BeatmapID:1468966
BeatmapSetID:694311

[Difficulty]
HPDrainRate:3
CircleSize:3
OverallDifficulty:7
ApproachRate:7
SliderMultiplier:1.28
SliderTickRate:1

[Events]
//Background and Video events
0,0,"traitor.jpg",0,0
//Break Periods
2,78718,86189
//Storyboard Layer 0 (Background)
//Storyboard Layer 1 (Fail)
//Storyboard Layer 2 (Pass)
//Storyboard Layer 3 (Foreground)
//Storyboard Sound Samples

[TimingPoints]
151,306.122448979592,4,2,54,60,1,0
19742,-100,4,2,54,20,0,0
26783,-100,4,2,54,20,0,0
29538,-100,4,2,54,40,0,0
58926,-100,4,2,54,70,0,1
68722,-100,4,2,54,70,0,1
78518,-100,4,2,54,40,0,0
87089,-100,4,2,54,60,0,0
111273,-100,4,2,54,5,0,0
111579,-100,4,2,54,60,0,0
112804,-100,4,2,54,70,0,1
125048,-100,4,2,54,50,0,0
127497,-100,4,2,54,60,0,1
132089,-100,4,2,54,50,0,0

[Colours]
Combo1 : 128,0,128
Combo2 : 0,0,128
Combo3 : 128,128,255

[HitObjects]
160,192,151,6,0,L|72:192,2,64,2|2|8,0:0|0:0|0:0,0:0:0:0:
256,192,610,1,2,0:0:0:0:
384,192,916,2,0,L|448:192,1,64,2|8,0:0|0:0,0:0:0:0:
352,192,1222,1,2,0:0:0:0:
224,192,1528,6,0,L|144:192,1,64,2|8,0:0|0:0,0:0:0:0:
256,192,1834,1,2,0:0:0:0:
128,192,2140,2,0,L|128:128,1,64,2|8,0:0|0:0,0:0:0:0:
384,192,2599,6,0,L|472:192,2,64,2|2|8,0:0|0:0|0:0,0:0:0:0:
288,192,3058,1,2,0:0:0:0:
160,192,3364,2,0,L|96:192,1,64,2|8,0:0|0:0,0:0:0:0:
192,192,3670,1,2,0:0:0:0:
320,192,3977,6,0,L|400:192,1,64,2|8,0:0|0:0,0:0:0:0:
288,192,4282,1,2,0:0:0:0:
416,192,4589,2,0,L|416:128,1,64,8|8,0:0|0:0,0:0:0:0:
352,128,4895,1,2,0:0:0:0:
192,128,5048,6,0,L|104:128,2,64,6|2|8,0:0|0:0|0:0,0:0:0:0:
288,128,5508,1,2,0:0:0:0:
416,192,5814,2,0,L|328:192,1,64,2|8,0:0|0:0,0:0:0:0:
256,192,6120,1,2,0:0:0:0:
128,256,6426,6,0,L|216:256,1,64,2|8,0:0|0:0,0:0:0:0:
288,256,6732,1,2,0:0:0:0:
128,256,7038,2,0,L|128:184,1,64,2|8,0:0|0:0,0:0:0:0:
384,192,7497,6,0,L|456:192,2,64,2|2|8,0:0|0:0|0:0,0:0:0:0:
288,192,7957,1,2,0:0:0:0:
160,192,8263,2,0,L|160:264,1,64,2|8,0:0|0:0,0:0:0:0:
320,256,8569,5,4,0:0:0:0:
448,256,8875,1,4,0:0:0:0:
288,256,9181,1,4,0:0:0:0:
480,256,9640,1,8,0:0:0:0:
224,256,9946,6,0,L|144:256,2,64,6|2|8,0:0|0:0|0:0,0:0:0:0:
320,256,10406,1,2,0:0:0:0:
192,192,10712,2,0,L|112:192,1,64,2|8,0:0|0:0,0:0:0:0:
224,192,11018,1,2,0:0:0:0:
352,192,11324,6,0,L|432:192,1,64,2|8,0:0|0:0,0:0:0:0:
320,192,11630,1,2,0:0:0:0:
192,256,11936,2,0,L|192:192,1,64,2|8,0:0|0:0,0:0:0:0:
448,192,12395,6,0,L|480:136,2,64,2|2|8,0:0|0:0|0:0,0:0:0:0:
352,192,12855,1,2,0:0:0:0:
224,192,13161,2,0,L|192:136,1,64,2|8,0:0|0:0,0:0:0:0:
352,136,13467,5,4,0:0:0:0:
480,136,13773,1,4,0:0:0:0:
320,136,14079,1,4,0:0:0:0:
160,192,14385,2,0,L|96:192,2,64,10|8|8,0:0|0:0|0:0,0:0:0:0:
256,192,14844,5,2,0:0:0:0:
128,192,15151,2,0,L|208:192,1,64,8|2,0:0|0:0,0:0:0:0:
320,192,15610,2,0,L|240:192,1,64,2|8,0:0|0:0,0:0:0:0:
160,192,15916,1,2,0:0:0:0:
32,192,16222,6,0,L|112:192,1,64,2|8,0:0|0:0,0:0:0:0:
192,192,16528,1,2,0:0:0:0:
320,192,16834,2,0,L|320:120,1,64,2|8,0:0|0:0,0:0:0:0:
64,192,17293,6,0,L|64:112,1,64,6|0,0:0|0:0,0:0:0:0:
160,128,17599,2,0,L|224:128,1,64,8|0,0:0|0:0,0:0:0:0:
320,128,17906,2,0,L|320:200,1,64,2|2,0:0|0:0,0:0:0:0:
224,192,18212,1,0,0:0:0:0:
64,192,18365,5,4,0:0:0:0:
192,192,18671,1,4,0:0:0:0:
352,192,18977,1,4,0:0:0:0:
192,192,19283,2,0,L|120:192,2,64,8|8|2,0:0|0:0|0:0,0:0:0:0:
352,192,19742,6,0,L|488:192,1,128,4|2,0:0|0:0,0:0:0:0:
320,192,20355,2,0,L|168:192,1,128,0|2,0:0|0:0,0:0:0:0:
32,192,20967,6,0,L|176:192,1,128,0|2,0:0|0:0,0:0:0:0:
320,192,21579,2,0,L|168:192,1,128,0|2,0:0|0:0,0:0:0:0:
448,192,22191,6,0,L|448:320,1,128,0|2,0:0|0:0,0:0:0:0:
288,320,22804,2,0,L|432:320,1,128,0|2,0:0|0:0,0:0:0:0:
256,320,23416,6,0,L|256:184,1,128,0|2,0:0|0:0,0:0:0:0:
416,192,24028,2,0,L|288:192,1,128,0|2,0:0|0:0,0:0:0:0:
40,192,24640,6,0,L|104:192,1,64
192,192,24946,2,0,L|336:192,2,128,2|0|2,0:0|0:0|0:0,0:0:0:0:
352,256,25865,6,0,L|480:256,1,128,0|2,0:0|0:0,0:0:0:0:
320,256,26477,2,0,B|192:256|192:256|328:256,1,256
480,192,27396,6,0,L|408:192,1,64,2|0,0:0|0:0,0:0:0:0:
320,192,27702,2,0,L|176:192,2,128,0|2|0,0:0|0:0|0:0,0:0:0:0:
160,192,28620,5,2,0:0:0:0:
320,192,28926,2,0,L|176:192,1,128,0|8,0:0|0:0,0:0:0:0:
128,192,29385,1,8,0:0:0:0:
288,64,29538,6,0,P|352:64|408:120,1,128,4|2,0:0|0:0,0:0:0:0:
272,120,30151,2,0,P|208:120|152:176,1,128,0|2,0:0|0:0,0:0:0:0:
320,160,30763,6,0,L|448:160,1,128,0|2,0:0|0:0,0:0:0:0:
320,160,31375,2,0,L|184:160,1,128,0|2,0:0|0:0,0:0:0:0:
128,160,31834,1,0,0:0:0:0:
64,176,31987,6,0,P|112:224|176:224,1,128,4|2,0:0|0:0,0:0:0:0:
296,224,32599,2,0,L|432:224,1,128,0|2,0:0|0:0,0:0:0:0:
264,224,33212,6,0,L|128:224,1,128,0|2,0:0|0:0,0:0:0:0:
296,224,33824,2,0,P|360:224|408:176,1,128,0|2,0:0|0:0,0:0:0:0:
344,152,34283,1,0,0:0:0:0:
184,152,34436,6,0,L|56:152,1,128,4|2,0:0|0:0,0:0:0:0:
216,152,35048,2,0,L|352:152,1,128,0|2,0:0|0:0,0:0:0:0:
472,152,35661,6,0,B|344:152|344:152|480:152,1,256
344,152,36579,1,2,0:0:0:0:
256,192,36885,12,0,39028,0:0:0:0:
88,152,39334,6,0,L|88:224,1,64,4|8,0:0|0:0,0:0:0:0:
152,216,39640,1,2,0:0:0:0:
248,216,39793,2,0,L|384:216,2,128,8|8|8,0:0|0:0|0:0,0:0:0:0:
152,216,40559,6,0,L|88:216,1,64,2|8,0:0|0:0,0:0:0:0:
184,216,40865,2,0,L|256:216,1,64,2|8,0:0|0:0,0:0:0:0:
408,216,41171,2,0,P|480:144|384:48,1,256,2|2,0:0|0:0,0:0:0:0:
296,48,41936,6,0,L|232:48,1,64,8|2,0:0|0:0,0:0:0:0:
296,48,42242,1,8,0:0:0:0:
392,120,42395,2,0,L|248:120,1,128,2|2,0:0|0:0,0:0:0:0:
136,120,43008,6,0,L|48:120,1,64,0|8,0:0|0:0,0:0:0:0:
168,120,43314,1,2,0:0:0:0:
424,120,43620,2,0,P|472:168|360:280,1,256,2|6,0:0|0:0,0:0:0:0:
312,288,44385,5,8,0:0:0:0:
216,288,44538,2,0,L|216:224,1,64,2|8,0:0|0:0,0:0:0:0:
152,224,44844,2,0,L|152:160,1,64,2|8,0:0|0:0,0:0:0:0:
248,160,45151,2,0,L|248:96,1,64,2|8,0:0|0:0,0:0:0:0:
408,96,45457,6,0,L|264:96,1,128,2|2,0:0|0:0,0:0:0:0:
120,96,46069,2,0,L|264:96,1,128,2|2,0:0|0:0,0:0:0:0:
408,96,46681,5,6,0:0:0:0:
248,96,46987,1,8,0:0:0:0:
88,96,47293,1,2,0:0:0:0:
248,96,47599,1,8,0:0:0:0:
408,96,47906,5,2,0:0:0:0:
240,96,48212,1,8,0:0:0:0:
416,96,48518,1,2,0:0:0:0:
352,96,48671,1,8,0:0:0:0:
424,160,48824,1,8,0:0:0:0:
344,160,48977,1,8,0:0:0:0:
168,160,49130,6,0,L|80:160,2,64,6|8|2,0:0|0:0|0:0,0:0:0:0:
264,160,49589,1,8,0:0:0:0:
360,160,49742,2,0,L|360:280,1,96,2|0,0:0|0:0,0:0:0:0:
232,256,50202,1,8,0:0:0:0:
72,256,50355,6,0,L|136:256,1,64,6|8,0:0|0:0,0:0:0:0:
232,256,50661,2,0,L|168:256,1,64,2|8,0:0|0:0,0:0:0:0:
72,184,50967,2,0,L|200:184,1,128,2|2,0:0|0:0,0:0:0:0:
360,184,51579,6,0,L|272:184,1,64,2|8,0:0|0:0,0:0:0:0:
136,184,52038,2,0,L|136:120,1,64,8|2,0:0|0:0,0:0:0:0:
200,120,52344,1,8,0:0:0:0:
136,120,52497,1,2,0:0:0:0:
392,120,52804,6,0,B|456:120|456:120|456:248|456:248|376:248,1,256,6|2,0:0|0:0,0:0:0:0:
120,248,54028,6,0,L|24:248,2,96,6|0|8,0:0|0:0|0:0,0:0:0:0:
216,248,54640,2,0,L|352:248,1,128,2|2,0:0|0:0,0:0:0:0:
184,192,55253,6,0,L|80:192,2,96,6|0|8,0:0|0:0|0:0,0:0:0:0:
280,192,55865,2,0,L|424:192,1,128,2|2,0:0|0:0,0:0:0:0:
256,192,56477,12,2,58620,0:0:0:0:
256,192,58926,5,4,0:0:0:0:
160,192,59079,2,0,L|304:192,1,128,2|2,0:0|0:0,0:0:0:0:
416,224,59691,1,2,0:0:0:0:
288,256,59997,6,0,L|144:256,1,128,2|2,0:0|0:0,0:0:0:0:
320,224,60610,1,2,0:0:0:0:
160,192,60916,2,0,L|88:192,2,64,2|8|2,0:0|0:0|0:0,0:0:0:0:
320,192,61375,1,6,0:0:0:0:
416,192,61528,6,0,B|480:192|480:192|400:192,1,128,2|2,0:0|0:0,0:0:0:0:
288,192,62140,1,2,0:0:0:0:
160,192,62446,6,0,B|96:192|96:192|168:192,1,128,2|2,0:0|0:0,0:0:0:0:
240,192,62906,1,8,0:0:0:0:
320,192,63059,2,0,B|384:192|384:192|304:192,1,128,2|2,0:0|0:0,0:0:0:0:
240,192,63518,1,2,0:0:0:0:
160,192,63671,1,2,0:0:0:0:
320,128,63824,6,0,L|400:128,2,64,6|0|8,0:0|0:0|0:0,0:0:0:0:
224,128,64283,1,2,0:0:0:0:
384,128,64589,2,0,L|384:200,1,64,2|8,0:0|0:0,0:0:0:0:
224,192,65048,6,0,L|144:192,2,64,2|0|8,0:0|0:0|0:0,0:0:0:0:
320,192,65508,1,8,0:0:0:0:
160,192,65813,2,0,L|160:264,1,64,2|8,0:0|0:0,0:0:0:0:
320,256,66273,6,0,L|384:256,1,64,2|2,0:0|0:0,0:0:0:0:
288,256,66579,2,0,L|288:192,1,64,8|8,0:0|0:0,0:0:0:0:
384,192,66885,2,0,L|384:128,1,64,2|2,0:0|0:0,0:0:0:0:
288,128,67191,1,8,0:0:0:0:
128,128,67344,5,4,0:0:0:0:
256,128,67651,1,4,0:0:0:0:
96,128,67957,1,4,0:0:0:0:
288,128,68263,2,0,L|368:128,2,64,8|8|2,0:0|0:0|0:0,0:0:0:0:
128,128,68722,5,6,0:0:0:0:
32,128,68875,2,0,L|168:128,1,128,2|2,0:0|0:0,0:0:0:0:
320,128,69487,2,0,L|192:128,1,128,2|2,0:0|0:0,0:0:0:0:
352,128,70099,6,0,L|480:128,1,128,2|2,0:0|0:0,0:0:0:0:
320,128,70712,1,2,0:0:0:0:
256,128,70865,1,8,0:0:0:0:
320,128,71018,1,2,0:0:0:0:
480,128,71171,6,0,L|480:272,1,128,6|8,0:0|0:0,0:0:0:0:
320,256,71783,1,2,0:0:0:0:
384,256,71936,1,2,0:0:0:0:
448,256,72089,1,8,0:0:0:0:
288,256,72395,1,6,0:0:0:0:
192,256,72548,6,0,L|48:256,2,128,2|8|8,0:0|0:0|0:0,0:0:0:0:
448,256,73467,6,0,L|304:256,1,128,6|2,0:0|0:0,0:0:0:0:
256,256,73926,1,8,0:0:0:0:
320,256,74079,2,0,L|464:256,1,128,8|2,0:0|0:0,0:0:0:0:
288,256,74691,6,0,L|160:256,1,128,2|2,0:0|0:0,0:0:0:0:
96,256,75151,1,8,0:0:0:0:
160,256,75304,2,0,L|296:256,1,128,8|2,0:0|0:0,0:0:0:0:
352,256,75763,1,8,0:0:0:0:
288,256,75916,1,2,0:0:0:0:
192,256,76069,5,6,0:0:0:0:
352,192,76375,2,0,L|488:192,2,128,8|8|2,0:0|0:0|0:0,0:0:0:0:
192,192,77140,1,14,0:0:0:0:
128,192,78059,2,0,L|48:192,2,64,8|2|2,0:0|0:0|0:0,0:0:0:0:
288,192,78518,1,14,0:0:0:0:
416,192,87089,6,0,L|288:192,1,128,8|8,0:0|0:0,0:0:0:0:
128,192,87702,1,8,0:0:0:0:
192,192,87855,1,8,0:0:0:0:
120,128,88008,1,8,0:0:0:0:
200,128,88161,1,8,0:0:0:0:
376,128,88314,6,0,B|440:128|440:128|368:128,1,128,4|2,0:0|0:0,0:0:0:0:
296,128,88773,1,8,0:0:0:0:
216,128,88926,2,0,B|152:128|152:128|224:128,1,128,2|2,0:0|0:0,0:0:0:0:
376,192,89538,6,0,L|440:192,2,64,2|8|2,0:0|0:0|0:0,0:0:0:0:
280,192,89997,1,8,0:0:0:0:
120,192,90304,2,0,L|120:120,1,64,8|2,0:0|0:0,0:0:0:0:
216,128,90610,1,8,0:0:0:0:
376,128,90763,6,0,B|432:160|432:160|360:128,1,128,6|2,0:0|0:0,0:0:0:0:
216,128,91375,2,0,L|352:128,1,128,2|2,0:0|0:0,0:0:0:0:
88,128,91987,6,0,B|32:160|32:160|104:128,1,128,2|2,0:0|0:0,0:0:0:0:
184,128,92446,1,8,0:0:0:0:
280,128,92599,2,0,L|280:192,1,64,2|8,0:0|0:0,0:0:0:0:
184,192,92906,2,0,L|184:272,1,64,2|8,0:0|0:0,0:0:0:0:
344,256,93212,6,0,B|472:256|472:256|328:256,1,256,6|2,0:0|0:0,0:0:0:0:
184,256,94130,1,2,0:0:0:0:
344,256,94436,6,0,P|392:208|304:120,1,192,2|8,0:0|0:0,0:0:0:0:
240,120,95048,2,0,L|112:120,1,128,2|2,0:0|0:0,0:0:0:0:
368,120,95661,5,6,0:0:0:0:
240,120,95967,1,8,0:0:0:0:
400,120,96273,1,2,0:0:0:0:
240,120,96579,1,8,0:0:0:0:
80,120,96885,5,2,0:0:0:0:
208,120,97191,1,8,0:0:0:0:
48,120,97497,1,2,0:0:0:0:
208,120,97803,1,8,0:0:0:0:
464,120,98110,6,0,P|464:184|336:312,1,256,6|0,0:0|0:0,0:0:0:0:
48,264,99334,6,0,P|48:200|176:72,1,256
400,72,100406,2,0,L|432:128,1,64,8|6,0:0|0:0,0:0:0:0:
272,72,100712,6,0,L|144:72,1,128,8|8,0:0|0:0,0:0:0:0:
304,72,101324,2,0,P|304:144|247:200,1,128,8|8,0:0|0:0,0:0:0:0:
192,192,101783,1,2,0:0:0:0:
112,192,101936,6,0,P|112:264|168:320,1,128,8|8,0:0|0:0,0:0:0:0:
304,312,102548,2,0,L|368:312,2,64,8|2|8,0:0|0:0|0:0,0:0:0:0:
144,312,103008,6,0,L|16:312,1,128,6|2,0:0|0:0,0:0:0:0:
176,312,103620,2,0,L|304:312,1,128,2|2,0:0|0:0,0:0:0:0:
144,312,104232,6,0,P|96:264|96:208,1,128,2|2,0:0|0:0,0:0:0:0:
168,192,104691,1,8,0:0:0:0:
328,192,104997,2,0,L|264:192,1,64,8|2,0:0|0:0,0:0:0:0:
88,192,105457,6,0,L|216:192,1,128,6|2,0:0|0:0,0:0:0:0:
376,192,106069,2,0,L|248:192,1,128,2|2,0:0|0:0,0:0:0:0:
88,192,106681,6,0,P|88:264|136:312,1,128,2|2,0:0|0:0,0:0:0:0:
216,312,107140,1,8,0:0:0:0:
304,312,107293,2,0,L|368:312,1,64,2|8,0:0|0:0,0:0:0:0:
320,248,107599,2,0,L|232:248,1,64,2|8,0:0|0:0,0:0:0:0:
96,248,107906,5,4,0:0:0:0:
384,256,109895,6,0,L|448:256,2,64,8|8|2,0:0|0:0|0:0,0:0:0:0:
224,256,110355,6,0,P|160:256|232:64,1,384,4|0,0:0|0:0,0:0:0:0:
256,192,111579,12,0,112497,0:0:0:0:
352,64,112804,6,0,L|424:64,2,64,6|0|8,0:0|0:0|0:0,0:0:0:0:
192,64,113263,2,0,B|128:64|128:64|200:64,1,128,8|2,0:0|0:0,0:0:0:0:
288,64,113722,1,8,0:0:0:0:
128,192,114028,6,0,L|56:192,2,64,2|0|8,0:0|0:0|0:0,0:0:0:0:
288,192,114487,2,0,B|352:192|352:192|280:192,1,128,8|2,0:0|0:0,0:0:0:0:
192,192,114946,1,8,0:0:0:0:
352,192,115253,6,0,L|424:192,1,64,2|2,0:0|0:0,0:0:0:0:
320,192,115559,2,0,L|256:192,1,64,8|8,0:0|0:0,0:0:0:0:
160,192,115865,2,0,L|160:256,1,64,2|2,0:0|0:0,0:0:0:0:
256,256,116171,1,8,0:0:0:0:
416,256,116324,6,0,L|280:256,2,128,4|4|4,0:0|0:0|0:0,0:0:0:0:
256,256,117242,2,0,L|184:256,2,64,8|8|8,0:0|0:0|0:0,0:0:0:0:
352,256,117702,6,0,L|352:192,1,64,4|2,0:0|0:0,0:0:0:0:
256,192,118008,1,8,0:0:0:0:
96,192,118161,2,0,L|224:192,1,128,2|2,0:0|0:0,0:0:0:0:
384,192,118773,6,0,L|240:192,1,128,2|2,0:0|0:0,0:0:0:0:
416,192,119385,2,0,L|416:328,1,128,2|2,0:0|0:0,0:0:0:0:
352,320,119844,1,8,0:0:0:0:
256,320,119997,1,2,0:0:0:0:
96,320,120151,6,0,P|48:272|160:160,1,256,6|2,0:0|0:0,0:0:0:0:
304,160,121069,1,8,0:0:0:0:
368,160,121222,1,2,0:0:0:0:
432,160,121375,1,2,0:0:0:0:
368,160,121528,5,8,0:0:0:0:
216,160,121834,1,2,0:0:0:0:
56,160,122140,1,8,0:0:0:0:
312,160,122446,6,0,P|376:160|424:208,1,128,4|2,0:0|0:0,0:0:0:0:
360,200,122906,1,8,0:0:0:0:
296,200,123059,2,0,P|232:200|184:248,1,128,2|2,0:0|0:0,0:0:0:0:
448,240,123671,6,0,L|448:368,1,128,2|2,0:0|0:0,0:0:0:0:
384,368,124130,1,8,0:0:0:0:
320,240,124283,2,0,L|320:368,1,128,8|2,0:0|0:0,0:0:0:0:
256,368,124742,2,0,L|176:368,1,64,8|0,0:0|0:0,0:0:0:0:
352,192,125048,6,0,B|416:192|416:192|336:192,1,128,6|0,0:0|0:0,0:0:0:0:
256,192,125508,2,0,P|192:248|272:304,1,192,2|0,0:0|0:0,0:0:0:0:
96,192,126273,6,0,B|32:192|32:192|112:192,1,128,2|0,0:0|0:0,0:0:0:0:
192,192,126732,2,0,P|256:248|176:304,1,192,2|10,0:0|0:0,0:0:0:0:
352,312,127497,6,0,L|416:312,2,64,6|2|2,0:0|0:0|0:0,0:0:0:0:
192,312,127957,1,8,0:0:0:0:
352,312,128263,2,0,L|352:248,1,64,2|2,0:0|0:0,0:0:0:0:
256,248,128569,1,8,0:0:0:0:
96,248,128875,6,0,L|96:184,1,64,2|2,0:0|0:0,0:0:0:0:
192,184,129181,1,8,0:0:0:0:
352,184,129487,2,0,L|352:112,1,64,2|2,0:0|0:0,0:0:0:0:
272,120,129793,1,8,0:0:0:0:
192,312,129946,6,0,L|128:312,2,64,2|2|2,0:0|0:0|0:0,0:0:0:0:
352,312,130406,1,8,0:0:0:0:
192,312,130712,2,0,L|192:248,1,64,2|2,0:0|0:0,0:0:0:0:
288,248,131018,1,8,0:0:0:0:
448,248,131324,6,0,L|448:184,1,64,8|8,0:0|0:0,0:0:0:0:
352,184,131630,2,0,L|280:184,1,64,0|8,0:0|0:0,0:0:0:0:
192,184,131936,2,0,L|192:112,1,64,2|4,0:0|0:0,0:0:0:0:
448,120,132395,6,0,L|312:120,1,128,2|0,0:0|0:0,0:0:0:0:
160,120,133008,2,0,L|288:120,1,128,4|0,0:0|0:0,0:0:0:0:
32,120,133620,6,0,L|32:256,1,128,8|0,0:0|0:0,0:0:0:0:
192,120,134232,2,0,L|64:120,1,128,4|0,0:0|0:0,0:0:0:0:
320,120,134844,6,0,L|448:120,1,128,2|0,0:0|0:0,0:0:0:0:
288,120,135457,2,0,L|288:256,1,128,4|0,0:0|0:0,0:0:0:0:
32,248,136069,5,8,0:0:0:0:
256,248,137293,5,14,0:0:0:0:
