osu file format v14

[General]
AudioFilename: audio.mp3
AudioLeadIn: 0
PreviewTime: 97880
Countdown: 0
SampleSet: Soft
StackLeniency: 0.7
Mode: 2
LetterboxInBreaks: 0
WidescreenStoryboard: 1

[Editor]
Bookmarks: 19436,29538,87089
DistanceSpacing: 3.5
BeatDivisor: 4
GridSize: 16
TimelineZoom: 4.099998

[Metadata]
Title:A Match Into Water
TitleUnicode:A Match Into Water
Artist:Pierce The Veil
ArtistUnicode:Pierce The Veil
Creator:AJamez
Version:Lumi's Platter
Source:
Tags:PTV Collide With The Sky Vic Fuentes Equal Vision Fearless Records Post-hardcore Progressive Punk Alternative Rock Crowley Hi_Hello Luminate- rew0825 Xazax
BeatmapID:1468937
BeatmapSetID:694311

[Difficulty]
HPDrainRate:4
CircleSize:3.5
OverallDifficulty:8
ApproachRate:8
SliderMultiplier:1.9
SliderTickRate:1

[Events]
//Background and Video events
0,0,"traitor.jpg",0,0
//Break Periods
2,78718,85865
//Storyboard Layer 0 (Background)
//Storyboard Layer 1 (Fail)
//Storyboard Layer 2 (Pass)
//Storyboard Layer 3 (Foreground)
//Storyboard Sound Samples

[TimingPoints]
151,306.122448979592,4,2,54,60,1,0
20355,-142.857142857143,4,2,54,30,0,0
29844,-111.111111111111,4,2,54,45,0,0
32293,-111.111111111111,4,2,54,55,0,0
39334,-111.111111111111,4,2,54,60,0,0
58926,-111.111111111111,4,2,54,60,0,1
78518,-111.111111111111,4,2,54,40,0,0
100712,-111.111111111111,4,2,54,60,0,0
109895,-111.111111111111,4,3,1,60,0,0
110048,-153.846153846154,4,3,1,60,0,0
111579,-111.111111111111,4,2,54,60,0,0
112804,-111.111111111111,4,2,54,70,0,1
125048,-100,4,2,54,50,0,0
127497,-111.111111111111,4,2,54,60,0,1
132089,-142.857142857143,4,2,54,50,0,0
132395,-142.857142857143,4,2,54,50,0,0

[Colours]
Combo1 : 128,0,128
Combo2 : 0,0,128
Combo3 : 128,128,255

[HitObjects]
160,256,151,5,0,0:0:0:0:
64,208,304,1,0,0:0:0:0:
160,176,457,1,8,0:0:0:0:
320,112,610,2,0,L|480:240,1,190
336,240,1069,1,8,0:0:0:0:
240,240,1222,2,0,L|80:128,1,190
224,128,1681,1,8,0:0:0:0:
320,128,1834,2,0,L|480:256,1,190
320,240,2293,1,8,0:0:0:0:
96,240,2599,6,2,L|80:144,1,95
192,144,2906,1,8,0:0:0:0:
336,144,3059,2,0,P|384:208|304:304,1,190
208,288,3518,1,8,0:0:0:0:
320,272,3671,2,0,L|432:272,1,95,2|0,0:0|0:0,0:0:0:0:
288,224,3977,2,0,L|160:224,1,95,2|0,0:0|0:0,0:0:0:0:
304,192,4283,2,0,P|400:144|448:64,1,190,2|0,0:0|0:0,0:0:0:0:
304,80,4742,1,8,0:0:0:0:
96,112,5048,6,0,L|84:206,1,95
192,208,5355,1,8,0:0:0:0:
336,208,5508,2,0,L|496:64,1,190
336,80,5967,1,8,0:0:0:0:
240,80,6120,2,0,L|99:207,1,190
208,208,6579,1,8,0:0:0:0:
336,208,6732,2,0,L|479:81,1,190
352,80,7191,1,8,0:0:0:0:
176,80,7497,5,2,0:0:0:0:
80,112,7650,1,2,0:0:0:0:
176,160,7804,1,8,0:0:0:0:
288,160,7957,2,0,L|432:288,1,190
320,288,8416,1,8,0:0:0:0:
48,288,8569,5,2,0:0:0:0:
256,288,8875,1,2,0:0:0:0:
48,256,9181,2,0,P|80:176|288:96,1,285,2|8,0:0|0:0,0:0:0:0:
96,112,9946,6,0,L|80:320,1,190,2|8,0:0|0:0,0:0:0:0:
288,240,10559,2,0,L|384:240,2,95,0|0|8,0:0|0:0|0:0,0:0:0:0:
176,240,11018,1,0,0:0:0:0:
288,176,11171,2,0,L|464:48,1,190,0|8,0:0|0:0,0:0:0:0:
256,64,11783,6,0,L|144:64,2,95,0|0|8,0:0|0:0|0:0,0:0:0:0:
368,64,12242,1,0,0:0:0:0:
256,128,12395,2,0,L|96:256,1,190,0|8,0:0|0:0,0:0:0:0:
352,240,13008,6,0,L|240:240,1,95
128,176,13314,2,0,L|32:240,2,95,8|0|0,0:0|0:0|0:0,0:0:0:0:
256,176,13773,1,0,0:0:0:0:
96,176,14079,2,0,L|286:304,1,190,4|0,0:0|0:0,0:0:0:0:
416,272,14538,6,0,L|320:208,1,95
240,208,14844,1,2,0:0:0:0:
144,144,14997,2,0,L|240:208,2,95,0|8|0,0:0|0:0|0:0,0:0:0:0:
400,112,15610,2,0,L|304:176,2,95,0|8|0,0:0|0:0|0:0,0:0:0:0:
144,96,16222,2,0,L|240:160,2,95,0|8|0,0:0|0:0|0:0,0:0:0:0:
304,96,16681,2,0,L|208:160,1,95
64,192,16987,6,0,P|64:256|192:304,1,190,8|0,0:0|0:0,0:0:0:0:
272,304,17446,1,0,0:0:0:0:
384,304,17599,1,8,0:0:0:0:
272,256,17753,1,0,0:0:0:0:
160,256,17906,1,0,0:0:0:0:
272,208,18059,1,0,0:0:0:0:
384,208,18212,1,8,0:0:0:0:
272,208,18365,6,0,L|112:80,1,190,2|0,0:0|0:0,0:0:0:0:
304,80,18977,2,0,L|480:208,1,190,2|0,0:0|0:0,0:0:0:0:
336,192,19436,2,0,L|208:192,1,95,2|0,0:0|0:0,0:0:0:0:
384,272,19742,1,0,0:0:0:0:
160,272,20048,5,0,0:0:0:0:
384,272,20355,2,0,L|288:272,1,66.4999979705811
224,208,20661,2,0,L|304:208,1,66.4999979705811,2|0,0:0|0:0,0:0:0:0:
384,144,20967,2,0,L|304:144,1,66.4999979705811
208,144,21273,2,0,L|112:144,1,66.4999979705811,2|0,0:0|0:0,0:0:0:0:
288,96,21579,6,0,L|208:96,1,66.4999979705811
112,96,21885,2,0,L|16:96,1,66.4999979705811,2|0,0:0|0:0,0:0:0:0:
192,192,22191,2,0,P|256:192|320:224,1,132.999995941162,0|2,0:0|0:0,0:0:0:0:
128,272,22804,6,0,L|208:272,1,66.4999979705811
288,272,23110,2,0,L|384:272,1,66.4999979705811,2|0,0:0|0:0,0:0:0:0:
208,224,23416,2,0,L|288:224,1,66.4999979705811
368,224,23722,2,0,L|448:224,1,66.4999979705811,2|0,0:0|0:0,0:0:0:0:
320,176,24028,6,0,L|224:176,3,66.4999979705811,0|0|2|0,0:0|0:0|0:0|0:0,0:0:0:0:
352,112,24640,2,0,L|432:112,1,66.4999979705811
272,112,24946,2,0,L|192:112,1,66.4999979705811,2|0,0:0|0:0,0:0:0:0:
352,176,25253,2,0,L|272:176,1,66.4999979705811
192,176,25559,2,0,L|96:176,1,66.4999979705811,2|0,0:0|0:0,0:0:0:0:
272,224,25865,6,0,L|176:224,1,66.4999979705811
112,224,26171,2,0,L|32:224,1,66.4999979705811,2|0,0:0|0:0,0:0:0:0:
192,176,26477,2,0,P|304:144|336:128,1,132.999995941162,0|2,0:0|0:0,0:0:0:0:
160,112,27089,6,0,L|64:112,1,66.4999979705811
208,160,27395,2,0,L|288:160,1,66.4999979705811,2|0,0:0|0:0,0:0:0:0:
160,224,27702,2,0,L|80:224,3,66.4999979705811,0|0|2|0,0:0|0:0|0:0|0:0,0:0:0:0:
224,224,28314,6,0,L|304:224,1,66.4999979705811
144,176,28620,2,0,L|224:176,1,66.4999979705811,2|0,0:0|0:0,0:0:0:0:
304,176,28926,2,0,L|384:176,1,66.4999979705811
208,128,29232,2,0,P|128:112|64:80,1,132.999995941162,2|0,0:0|0:0,0:0:0:0:
320,96,29844,6,0,B|384:144|384:144|304:224,1,170.999994781494,2|0,0:0|0:0,0:0:0:0:
160,96,30457,2,0,B|96:144|96:144|160:208,1,170.999994781494,2|0,0:0|0:0,0:0:0:0:
400,96,31069,2,0,B|464:160|464:160|384:240,1,170.999994781494,2|0,0:0|0:0,0:0:0:0:
160,96,31681,2,0,B|96:160|96:160|176:240,1,170.999994781494,2|0,0:0|0:0,0:0:0:0:
400,224,32293,6,0,L|224:336,1,170.999994781494,2|0,0:0|0:0,0:0:0:0:
64,256,32906,2,0,L|208:160,1,170.999994781494,2|0,0:0|0:0,0:0:0:0:
416,256,33518,2,0,L|272:160,1,170.999994781494,2|0,0:0|0:0,0:0:0:0:
64,256,34130,2,0,L|224:144,1,170.999994781494,2|0,0:0|0:0,0:0:0:0:
400,160,34742,6,0,L|288:160,1,85.4999973907472,2|0,0:0|0:0,0:0:0:0:
208,160,35048,2,0,L|96:160,1,85.4999973907472
208,208,35355,2,0,L|304:208,1,85.4999973907472,2|0,0:0|0:0,0:0:0:0:
144,320,35661,2,0,L|144:208,1,85.4999973907472
272,176,35967,2,0,L|384:176,1,85.4999973907472,2|0,0:0|0:0,0:0:0:0:
208,128,36273,2,0,L|304:128,1,85.4999973907472
416,128,36579,2,0,L|304:128,1,85.4999973907472,2|0,0:0|0:0,0:0:0:0:
80,128,36885,1,4,0:0:0:0:
256,192,37038,12,0,39181,0:0:0:0:
256,240,39334,6,0,L|448:240,1,170.999994781494,4|0,0:0|0:0,0:0:0:0:
304,192,39793,2,0,L|192:192,1,85.4999973907472,8|0,0:0|0:0,0:0:0:0:
353,196,40099,2,0,L|426:239,2,85.4999973907472,8|0|8,0:0|0:0|0:0,0:0:0:0:
208,144,40559,2,0,L|304:144,1,85.4999973907472,2|0,0:0|0:0,0:0:0:0:
400,96,40865,2,0,L|304:96,1,85.4999973907472,0|8,0:0|0:0,0:0:0:0:
96,272,41171,6,0,P|48:208|112:128,1,170.999994781494,2|0,0:0|0:0,0:0:0:0:
192,128,41630,1,8,0:0:0:0:
368,128,41783,1,0,0:0:0:0:
272,192,41936,2,0,L|176:128,2,85.4999973907472,8|0|8,0:0|0:0|0:0,0:0:0:0:
416,208,42395,2,0,L|304:208,1,85.4999973907472,0|8,0:0|0:0,0:0:0:0:
224,208,42702,2,0,L|128:176,1,85.4999973907472,0|8,0:0|0:0,0:0:0:0:
272,144,43008,2,0,L|208:80,1,85.4999973907472,0|8,0:0|0:0,0:0:0:0:
352,80,43314,2,0,L|432:144,1,85.4999973907472,0|8,0:0|0:0,0:0:0:0:
272,128,43620,6,0,L|112:240,1,170.999994781494,2|0,0:0|0:0,0:0:0:0:
240,224,44079,1,8,0:0:0:0:
464,224,44232,1,0,0:0:0:0:
352,224,44385,1,0,0:0:0:0:
240,176,44538,6,0,L|128:176,2,85.4999973907472,0|8|2,0:0|0:0|0:0,0:0:0:0:
384,176,44997,2,0,L|480:176,2,85.4999973907472,8|0|8,0:0|0:0|0:0,0:0:0:0:
160,176,45457,2,0,L|48:176,1,85.4999973907472,0|8,0:0|0:0,0:0:0:0:
192,208,45763,2,0,L|288:208,1,85.4999973907472,0|8,0:0|0:0,0:0:0:0:
160,256,46069,2,0,L|64:256,1,85.4999973907472,0|8,0:0|0:0,0:0:0:0:
288,240,46375,2,0,L|384:192,1,85.4999973907472,0|8,0:0|0:0,0:0:0:0:
144,64,46681,6,0,L|48:64,1,85.4999973907472
144,112,46987,2,0,L|240:112,1,85.4999973907472,8|0,0:0|0:0,0:0:0:0:
368,112,47293,2,0,L|272:112,1,85.4999973907472
176,176,47599,2,0,L|288:176,1,85.4999973907472,8|0,0:0|0:0,0:0:0:0:
384,176,47906,2,0,L|288:176,1,85.4999973907472
176,176,48212,2,0,L|64:176,1,85.4999973907472,8|0,0:0|0:0,0:0:0:0:
224,288,48518,6,0,L|384:176,1,170.999994781494,2|0,0:0|0:0,0:0:0:0:
272,192,48977,1,2,0:0:0:0:
48,192,49130,6,0,P|48:144|176:96,1,170.999994781494,4|0,0:0|0:0,0:0:0:0:
256,80,49589,1,0,0:0:0:0:
400,96,49742,2,0,L|288:160,1,113.999996520996,4|0,0:0|0:0,0:0:0:0:
144,144,50125,1,2,0:0:0:0:
304,208,50355,6,0,L|400:208,1,85.4999973907472,4|0,0:0|0:0,0:0:0:0:
240,272,50661,2,0,L|96:272,1,113.999996520996
208,224,50967,2,0,L|336:224,1,113.999996520996,4|0,0:0|0:0,0:0:0:0:
240,176,51349,1,0,0:0:0:0:
384,160,51579,6,0,L|272:160,1,85.4999973907472,2|8,0:0|0:0,0:0:0:0:
176,160,51885,2,0,L|80:160,1,85.4999973907472
224,240,52191,2,0,L|336:240,1,85.4999973907472,2|8,0:0|0:0,0:0:0:0:
160,288,52497,2,0,L|272:288,1,85.4999973907472
368,288,52804,6,0,P|448:256|512:192,1,170.999994781494,4|0,0:0|0:0,0:0:0:0:
384,192,53263,1,2,0:0:0:0:
160,192,53416,2,0,P|64:160|16:96,1,170.999994781494,4|0,0:0|0:0,0:0:0:0:
128,112,53875,1,2,0:0:0:0:
352,112,54028,6,0,P|432:128|496:192,1,170.999994781494,4|0,0:0|0:0,0:0:0:0:
400,192,54487,2,0,L|304:192,1,85.4999973907472
224,240,54793,2,0,L|320:240,1,85.4999973907472,2|0,0:0|0:0,0:0:0:0:
416,240,55099,1,8,0:0:0:0:
192,304,55253,6,0,L|48:192,1,170.999994781494,4|0,0:0|0:0,0:0:0:0:
192,192,55712,2,0,L|304:192,1,85.4999973907472
176,128,56018,2,0,L|80:128,1,85.4999973907472,2|0,0:0|0:0,0:0:0:0:
192,80,56324,1,8,0:0:0:0:
336,176,56477,5,2,0:0:0:0:
384,208,56554,1,0,0:0:0:0:
400,256,56630,1,0,0:0:0:0:
384,304,56707,1,0,0:0:0:0:
336,336,56783,1,2,0:0:0:0:
288,336,56860,1,0,0:0:0:0:
240,304,56936,1,0,0:0:0:0:
224,256,57013,1,0,0:0:0:0:
240,208,57089,5,2,0:0:0:0:
288,176,57166,1,0,0:0:0:0:
336,176,57242,1,0,0:0:0:0:
384,144,57319,1,0,0:0:0:0:
400,96,57395,5,2,0:0:0:0:
368,48,57472,1,0,0:0:0:0:
320,48,57548,1,0,0:0:0:0:
192,48,57702,2,0,L|96:48,1,85.4999973907472,2|0,0:0|0:0,0:0:0:0:
320,128,58008,2,0,L|432:128,1,85.4999973907472,2|0,0:0|0:0,0:0:0:0:
192,208,58314,5,8,0:0:0:0:
288,256,58467,1,0,0:0:0:0:
192,320,58620,1,8,0:0:0:0:
416,208,58926,5,2,0:0:0:0:
304,208,59079,2,0,L|192:208,1,85.4999973907472,0|8,0:0|0:0,0:0:0:0:
304,144,59385,2,0,L|400:144,1,85.4999973907472,8|0,0:0|0:0,0:0:0:0:
144,144,59691,2,0,L|128:256,1,85.4999973907472,0|8,0:0|0:0,0:0:0:0:
256,272,59997,2,0,L|368:272,1,85.4999973907472
208,224,60304,2,0,L|192:112,1,85.4999973907472,0|8,0:0|0:0,0:0:0:0:
320,128,60610,2,0,L|416:128,1,85.4999973907472,8|0,0:0|0:0,0:0:0:0:
288,96,60916,1,0,0:0:0:0:
176,96,61069,6,0,P|64:144|32:208,1,170.999994781494,2|0,0:0|0:0,0:0:0:0:
176,208,61528,2,0,L|272:208,1,85.4999973907472,0|8,0:0|0:0,0:0:0:0:
368,160,61834,2,0,L|256:160,1,85.4999973907472
144,160,62140,2,0,L|112:48,1,85.4999973907472,0|8,0:0|0:0,0:0:0:0:
256,80,62446,2,0,L|368:80,1,85.4999973907472
224,256,62753,2,0,L|192:160,1,85.4999973907472,0|8,0:0|0:0,0:0:0:0:
336,160,63059,2,0,P|400:176|480:256,1,170.999994781494,0|8,0:0|0:0,0:0:0:0:
336,176,63518,5,2,0:0:0:0:
288,196,63594,1,0,0:0:0:0:
272,256,63671,1,0,0:0:0:0:
288,304,63747,1,0,0:0:0:0:
336,320,63824,1,2,0:0:0:0:
448,320,63977,1,0,0:0:0:0:
336,320,64130,6,0,L|240:320,1,85.4999973907472,8|8,0:0|0:0,0:0:0:0:
384,256,64436,2,0,L|288:256,1,85.4999973907472
80,240,64742,2,0,P|32:160|112:112,1,170.999994781494,8|0,0:0|0:0,0:0:0:0:
192,112,65202,1,0,0:0:0:0:
304,80,65355,6,0,L|208:80,1,85.4999973907472,8|8,0:0|0:0,0:0:0:0:
128,144,65661,2,0,L|224:144,1,85.4999973907472
432,224,65967,2,0,P|480:144|400:96,1,170.999994781494,8|0,0:0|0:0,0:0:0:0:
320,96,66426,1,0,0:0:0:0:
208,96,66579,6,0,L|96:96,2,85.4999973907472,8|8|0,0:0|0:0|0:0,0:0:0:0:
336,160,67038,2,0,L|432:160,1,85.4999973907472,0|8,0:0|0:0,0:0:0:0:
208,208,67344,6,0,P|128:240|80:288,1,128.249996086121
160,272,67651,2,0,L|304:272,1,128.249996086121
224,224,67957,2,0,P|176:176|240:96,1,170.999994781494,0|8,0:0|0:0,0:0:0:0:
304,96,68339,1,8,0:0:0:0:
352,96,68416,1,0,0:0:0:0:
384,128,68492,1,0,0:0:0:0:
400,176,68569,1,0,0:0:0:0:
384,224,68645,1,0,0:0:0:0:
336,240,68722,1,0,0:0:0:0:
224,240,68875,6,0,L|112:240,1,85.4999973907472,0|8,0:0|0:0,0:0:0:0:
272,144,69181,2,0,L|368:144,1,85.4999973907472,8|0,0:0|0:0,0:0:0:0:
208,208,69487,2,0,L|176:320,1,85.4999973907472,0|8,0:0|0:0,0:0:0:0:
320,288,69792,2,0,L|416:288,1,85.4999973907472
272,288,70099,2,0,L|240:192,1,85.4999973907472,0|8,0:0|0:0,0:0:0:0:
384,208,70406,2,0,L|496:208,1,85.4999973907472,8|0,0:0|0:0,0:0:0:0:
176,192,70712,6,0,L|80:192,2,85.4999973907472,0|8|0,0:0|0:0|0:0,0:0:0:0:
320,304,71171,6,0,P|400:272|464:208,1,170.999994781494,0|8,0:0|0:0,0:0:0:0:
336,208,71630,1,0,0:0:0:0:
96,208,71783,2,0,B|0:160|96:80|144:96,1,170.999994781494,0|8,0:0|0:0,0:0:0:0:
240,96,72242,1,0,0:0:0:0:
352,96,72395,1,0,0:0:0:0:
240,192,72548,6,0,L|144:192,1,85.4999973907472,8|0,0:0|0:0,0:0:0:0:
288,256,72855,2,0,L|384:256,1,85.4999973907472
240,320,73161,2,0,L|128:320,1,85.4999973907472,8|0,0:0|0:0,0:0:0:0:
400,304,73467,2,0,P|448:272|400:192,1,170.999994781494
288,192,73926,5,8,0:0:0:0:
192,128,74079,2,0,L|304:128,1,85.4999973907472,8|0,0:0|0:0,0:0:0:0:
384,128,74385,1,0,0:0:0:0:
160,160,74538,2,0,P|64:208|16:272,1,170.999994781494,8|0,0:0|0:0,0:0:0:0:
224,256,75151,5,8,0:0:0:0:
320,192,75304,2,0,L|208:192,1,85.4999973907472,8|0,0:0|0:0,0:0:0:0:
128,192,75610,1,0,0:0:0:0:
352,256,75763,2,0,P|448:224|512:144,1,170.999994781494,8|0,0:0|0:0,0:0:0:0:
368,160,76222,1,0,0:0:0:0:
256,160,76375,5,8,0:0:0:0:
144,160,76528,1,0,0:0:0:0:
256,128,76681,1,8,0:0:0:0:
144,128,76834,1,0,0:0:0:0:
368,112,76987,2,0,L|384:224,1,85.4999973907472,8|0,0:0|0:0,0:0:0:0:
176,128,78059,5,8,0:0:0:0:
304,128,78212,2,0,L|320:240,1,85.4999973907472
96,208,78518,1,4,0:0:0:0:
176,240,87089,6,0,L|80:240,1,85.4999973907472,2|0,0:0|0:0,0:0:0:0:
144,192,87319,1,0,0:0:0:0:
208,192,87395,1,0,0:0:0:0:
352,144,87548,2,0,L|400:144,2,42.7499986953736,0|0|2,0:0|0:0|0:0,0:0:0:0:
208,128,87855,2,0,L|160:128,2,42.7499986953736,0|0|2,0:0|0:0|0:0,0:0:0:0:
320,128,88161,1,2,0:0:0:0:
432,128,88314,6,0,P|464:176|368:256,1,170.999994781494,4|0,0:0|0:0,0:0:0:0:
272,256,88773,2,0,L|176:256,1,85.4999973907472,8|0,0:0|0:0,0:0:0:0:
320,192,89079,2,0,L|208:192,1,85.4999973907472,8|0,0:0|0:0,0:0:0:0:
128,192,89385,1,8,0:0:0:0:
240,144,89538,6,0,L|336:144,1,85.4999973907472,0|8,0:0|0:0,0:0:0:0:
192,176,89844,2,0,L|176:288,1,85.4999973907472,0|8,0:0|0:0,0:0:0:0:
304,256,90151,2,0,L|400:256,2,85.4999973907472,0|8|0,0:0|0:0|0:0,0:0:0:0:
192,256,90610,1,0,0:0:0:0:
304,256,90763,2,0,L|320:144,1,85.4999973907472,0|8,0:0|0:0,0:0:0:0:
192,160,91069,6,0,L|106:160,1,85.4999973907472,0|8,0:0|0:0,0:0:0:0:
224,224,91375,2,0,L|138:224,1,85.4999973907472,0|8,0:0|0:0,0:0:0:0:
352,224,91681,2,0,L|437:224,1,85.4999973907472,0|8,0:0|0:0,0:0:0:0:
320,288,91987,2,0,L|496:288,1,170.999994781494,0|2,0:0|0:0,0:0:0:0:
272,224,92446,6,0,L|160:224,1,85.4999973907472,8|0,0:0|0:0,0:0:0:0:
304,160,92753,2,0,L|208:160,1,85.4999973907472,8|0,0:0|0:0,0:0:0:0:
112,160,93059,1,8,0:0:0:0:
224,96,93212,6,0,P|320:128|368:192,1,170.999994781494,4|0,0:0|0:0,0:0:0:0:
240,192,93671,2,0,L|128:192,1,85.4999973907472,8|0,0:0|0:0,0:0:0:0:
272,240,93977,2,0,L|368:240,1,85.4999973907472,8|0,0:0|0:0,0:0:0:0:
240,288,94283,2,0,L|128:288,1,85.4999973907472,8|0,0:0|0:0,0:0:0:0:
288,272,94589,2,0,L|304:160,1,85.4999973907472,8|0,0:0|0:0,0:0:0:0:
176,176,94895,2,0,L|80:128,1,85.4999973907472,8|0,0:0|0:0,0:0:0:0:
336,128,95202,2,0,L|448:128,2,85.4999973907472,8|0|8,0:0|0:0|0:0,0:0:0:0:
176,128,95661,6,0,P|64:192|32:240,1,170.999994781494,4|0,0:0|0:0,0:0:0:0:
240,208,96273,2,0,P|128:272|80:320,1,170.999994781494,4|0,0:0|0:0,0:0:0:0:
288,304,96885,2,0,P|384:256|448:192,1,170.999994781494,4|0,0:0|0:0,0:0:0:0:
240,192,97497,2,0,L|128:192,1,85.4999973907472,4|0,0:0|0:0,0:0:0:0:
112,192,97727,1,0,0:0:0:0:
96,144,97804,1,0,0:0:0:0:
112,96,97880,1,2,0:0:0:0:
144,80,97957,1,2,0:0:0:0:
192,80,98033,1,2,0:0:0:0:
240,80,98110,6,0,P|320:128|192:304,1,341.999989562989,4|0,0:0|0:0,0:0:0:0:
400,320,99334,6,0,P|464:256|304:128,1,341.999989562989
144,128,100253,2,0,L|256:128,1,85.4999973907472,0|8,0:0|0:0,0:0:0:0:
336,128,100559,1,0,0:0:0:0:
432,176,100712,6,0,L|448:288,1,85.4999973907472,8|0,0:0|0:0,0:0:0:0:
336,272,101018,2,0,L|224:272,1,85.4999973907472,8|0,0:0|0:0,0:0:0:0:
128,208,101324,2,0,L|240:208,1,85.4999973907472,8|0,0:0|0:0,0:0:0:0:
320,208,101630,2,0,L|416:208,1,85.4999973907472,8|0,0:0|0:0,0:0:0:0:
272,160,101936,2,0,L|160:160,1,85.4999973907472,8|0,0:0|0:0,0:0:0:0:
304,112,102242,2,0,L|400:112,1,85.4999973907472,8|0,0:0|0:0,0:0:0:0:
176,224,102548,2,0,L|64:224,2,85.4999973907472,8|0|8,0:0|0:0|0:0,0:0:0:0:
400,272,103008,6,0,P|448:208|384:128,1,170.999994781494,4|0,0:0|0:0,0:0:0:0:
288,128,103467,2,0,L|176:128,1,85.4999973907472,8|0,0:0|0:0,0:0:0:0:
96,192,103773,2,0,L|208:192,1,85.4999973907472,8|0,0:0|0:0,0:0:0:0:
288,256,104079,2,0,L|192:256,1,85.4999973907472,8|0,0:0|0:0,0:0:0:0:
96,304,104385,2,0,L|192:304,1,85.4999973907472,8|0,0:0|0:0,0:0:0:0:
400,224,104691,2,0,L|512:224,2,85.4999973907472,8|0|8,0:0|0:0|0:0,0:0:0:0:
288,224,105151,2,0,L|176:224,1,85.4999973907472,0|8,0:0|0:0,0:0:0:0:
336,144,105457,6,0,L|432:144,1,85.4999973907472,4|8,0:0|0:0,0:0:0:0:
272,160,105763,2,0,L|256:256,1,85.4999973907472,0|8,0:0|0:0,0:0:0:0:
384,256,106069,2,0,L|496:256,1,85.4999973907472,0|8,0:0|0:0,0:0:0:0:
256,304,106375,2,0,L|160:304,1,85.4999973907472,0|8,0:0|0:0,0:0:0:0:
288,256,106681,6,0,L|384:256,1,85.4999973907472,0|8,0:0|0:0,0:0:0:0:
128,256,106987,2,0,L|16:256,2,85.4999973907472,0|8|0,0:0|0:0|0:0,0:0:0:0:
256,256,107446,5,8,0:0:0:0:
304,240,107523,1,8,0:0:0:0:
320,208,107599,1,8,0:0:0:0:
304,160,107676,1,8,0:0:0:0:
256,144,107753,1,8,0:0:0:0:
208,144,107829,1,8,0:0:0:0:
160,144,107906,1,0,0:0:0:0:
288,96,108059,6,0,L|400:144,1,85.4999973907472
208,192,108365,2,0,L|192:288,1,85.4999973907472
320,272,108671,2,0,L|400:304,1,85.4999973907472
240,288,108977,2,0,L|224:192,1,85.4999973907472
368,192,109283,2,0,L|352:96,1,85.4999973907472
192,112,109589,2,0,L|80:112,1,85.4999973907472
224,192,109895,1,8,0:0:0:0:
336,192,110048,2,0,P|368:192|432:224,1,92.6249957599642,8|0,0:0|0:0,0:0:0:0:
448,256,110355,6,0,P|384:176|96:272,1,432.249980213166
224,256,111579,5,2,0:0:0:0:
272,256,111656,1,0,0:0:0:0:
320,256,111732,1,0,0:0:0:0:
192,176,111885,2,0,L|128:176,2,42.7499986953736,2|0|0,0:0|0:0|0:0,0:0:0:0:
320,112,112191,2,0,L|368:112,2,42.7499986953736,2|0|0,0:0|0:0|0:0,0:0:0:0:
192,112,112497,5,2,0:0:0:0:
144,128,112574,1,0,0:0:0:0:
128,176,112651,1,0,0:0:0:0:
144,224,112727,1,0,0:0:0:0:
192,240,112804,1,2,0:0:0:0:
304,240,112957,1,0,0:0:0:0:
416,288,113110,6,0,L|304:288,1,85.4999973907472,8|8,0:0|0:0,0:0:0:0:
192,256,113416,2,0,L|288:256,1,85.4999973907472
400,256,113722,2,0,P|448:176|368:128,1,170.999994781494,8|0,0:0|0:0,0:0:0:0:
304,128,114182,1,0,0:0:0:0:
192,48,114335,6,0,L|277:48,1,85.4999973907472,8|8,0:0|0:0,0:0:0:0:
384,96,114641,2,0,L|298:96,1,85.4999973907472
160,240,114947,2,0,P|112:160|192:112,1,170.999994781494,8|0,0:0|0:0,0:0:0:0:
256,112,115406,1,0,0:0:0:0:
352,112,115559,6,0,L|464:112,2,85.4999973907472,8|8|0,0:0|0:0|0:0,0:0:0:0:
240,176,116018,2,0,L|144:176,1,85.4999973907472,0|8,0:0|0:0,0:0:0:0:
304,224,116324,6,0,P|384:256|432:304,1,128.249996086121
352,288,116631,2,0,L|208:288,1,128.249996086121
288,240,116937,2,0,P|336:192|272:112,1,170.999994781494,0|8,0:0|0:0,0:0:0:0:
208,112,117319,1,8,0:0:0:0:
160,112,117396,1,0,0:0:0:0:
128,144,117472,1,0,0:0:0:0:
112,192,117549,1,0,0:0:0:0:
128,240,117625,1,0,0:0:0:0:
176,256,117702,1,0,0:0:0:0:
288,256,117855,6,0,L|400:256,1,85.4999973907472,0|8,0:0|0:0,0:0:0:0:
240,160,118161,2,0,L|144:160,1,85.4999973907472,8|0,0:0|0:0,0:0:0:0:
288,208,118467,2,0,L|320:320,1,85.4999973907472,0|8,0:0|0:0,0:0:0:0:
176,288,118772,2,0,L|80:288,1,85.4999973907472
224,288,119079,2,0,L|256:192,1,85.4999973907472,0|8,0:0|0:0,0:0:0:0:
112,208,119386,2,0,L|0:208,1,85.4999973907472,8|0,0:0|0:0,0:0:0:0:
320,192,119692,6,0,L|416:192,2,85.4999973907472,0|8|0,0:0|0:0|0:0,0:0:0:0:
176,304,120151,6,0,P|96:272|32:208,1,170.999994781494,0|8,0:0|0:0,0:0:0:0:
160,208,120610,1,0,0:0:0:0:
400,208,120763,2,0,B|496:160|400:80|352:96,1,170.999994781494,0|8,0:0|0:0,0:0:0:0:
256,96,121222,1,0,0:0:0:0:
144,96,121375,1,0,0:0:0:0:
256,192,121528,6,0,L|352:192,1,85.4999973907472,8|0,0:0|0:0,0:0:0:0:
208,256,121835,2,0,L|112:256,1,85.4999973907472
256,320,122141,2,0,L|368:320,1,85.4999973907472,8|0,0:0|0:0,0:0:0:0:
112,304,122446,2,0,P|64:272|112:192,1,170.999994781494
224,192,122905,5,8,0:0:0:0:
320,128,123058,2,0,L|208:128,1,85.4999973907472,8|0,0:0|0:0,0:0:0:0:
128,128,123364,1,0,0:0:0:0:
352,160,123517,2,0,P|448:208|496:272,1,170.999994781494,8|0,0:0|0:0,0:0:0:0:
288,256,124130,5,8,0:0:0:0:
192,192,124283,2,0,L|304:192,1,85.4999973907472,8|0,0:0|0:0,0:0:0:0:
384,192,124589,1,0,0:0:0:0:
160,256,124742,2,0,P|64:224|0:144,1,170.999994781494,8|0,0:0|0:0,0:0:0:0:
256,192,125202,12,0,127191,0:0:0:0:
288,272,127497,6,0,L|464:176,1,170.999994781494,4|0,0:0|0:0,0:0:0:0:
288,192,127957,2,0,L|144:80,1,170.999994781494
272,80,128416,1,2,0:0:0:0:
416,80,128569,2,0,P|464:144|400:224,1,170.999994781494
320,208,129028,1,2,0:0:0:0:
96,304,129181,6,0,P|48:256|112:176,1,170.999994781494
192,176,129640,1,2,0:0:0:0:
288,176,129793,1,0,0:0:0:0:
176,272,129946,2,0,L|80:272,2,85.4999973907472,0|2|2,0:0|0:0|0:0,0:0:0:0:
304,272,130406,6,0,P|352:208|288:144,1,170.999994781494
192,144,130865,1,2,0:0:0:0:
80,144,131018,2,0,P|32:208|96:288,1,170.999994781494,0|8,0:0|0:0,0:0:0:0:
192,272,131477,1,2,0:0:0:0:
304,272,131630,1,0,0:0:0:0:
416,272,131783,1,0,0:0:0:0:
304,208,131936,1,0,0:0:0:0:
192,208,132089,6,0,L|64:112,1,132.999995941162,8|0,0:0|0:0,0:0:0:0:
368,128,133008,5,2,0:0:0:0:
176,128,133620,1,2,0:0:0:0:
384,224,134232,1,2,0:0:0:0:
160,224,134844,1,2,0:0:0:0:
400,304,135457,1,2,0:0:0:0:
176,304,136069,1,8,0:0:0:0:
240,288,136222,5,0,0:0:0:0:
304,256,136375,1,0,0:0:0:0:
336,192,136528,1,0,0:0:0:0:
304,128,136681,1,0,0:0:0:0:
240,96,136834,1,0,0:0:0:0:
176,96,136987,1,0,0:0:0:0:
432,96,137293,5,2,0:0:0:0:
