osu file format v14

[General]
AudioFilename: audio.mp3
AudioLeadIn: 0
PreviewTime: 97880
Countdown: 0
SampleSet: Soft
StackLeniency: 0.7
Mode: 2
LetterboxInBreaks: 0
WidescreenStoryboard: 0

[Editor]
DistanceSpacing: 1.7
BeatDivisor: 4
GridSize: 8
TimelineZoom: 3.499999

[Metadata]
Title:A Match Into Water
TitleUnicode:A Match Into Water
Artist:Pierce The Veil
ArtistUnicode:Pierce The Veil
Creator:AJamez
Version:The Candle Still Flickers in my Heart
Source:
Tags:PTV Collide With The Sky Vic Fuentes Equal Vision Fearless Records Post-hardcore Progressive Punk Alternative Rock Crowley Hi_Hello Luminate- rew0825 Xazax
BeatmapID:1468939
BeatmapSetID:694311

[Difficulty]
HPDrainRate:6.5
CircleSize:2.5
OverallDifficulty:9.6
ApproachRate:9.6
SliderMultiplier:1.9
SliderTickRate:2

[Events]
//Background and Video events
0,0,"traitor.jpg",0,0
//Break Periods
//Storyboard Layer 0 (Background)
//Storyboard Layer 1 (Fail)
//Storyboard Layer 2 (Pass)
//Storyboard Layer 3 (Foreground)
//Storyboard Sound Samples

[TimingPoints]
151,306.122448979592,4,2,54,60,1,0
151,-142.857142857143,4,2,54,60,0,0
2753,-166.666666666667,4,2,54,60,0,0
3059,-111.111111111111,4,2,54,60,0,0
3365,-90.9090909090909,4,2,54,60,0,0
3671,-142.857142857143,4,2,54,60,0,0
4283,-83.3333333333334,4,2,54,60,0,0
4589,-142.857142857143,4,2,0,60,0,0
4895,-142.857142857143,4,2,54,60,0,0
7038,-83.3333333333334,4,2,54,60,0,0
7344,-142.857142857143,4,2,54,60,0,0
8569,-83.3333333333333,4,2,54,60,0,0
9181,-76.9230769230769,4,2,54,60,0,0
9640,-66.6666666666667,4,2,54,60,0,0
9946,-100,4,2,54,60,0,0
19436,-125,4,2,54,60,0,0
20355,-100,4,2,54,40,0,0
29538,-142.857142857143,4,2,54,40,0,0
36273,-100,4,2,54,40,0,0
36579,-200,4,2,54,40,0,0
36962,-200,4,2,54,5,0,0
37497,-200,4,2,54,40,0,0
37651,-200,4,2,54,5,0,0
38110,-200,4,2,54,40,0,0
38263,-200,4,2,54,5,0,0
38722,-200,4,2,54,40,0,0
39334,-90.9090909090909,4,2,54,60,0,0
41783,-95.2380952380952,4,2,54,60,0,0
44232,-117.64705882353,4,2,54,60,0,0
48671,-117.64705882353,4,2,54,45,0,0
49130,-95.2380952380952,4,2,54,60,0,0
49742,-133.333333333333,4,2,54,60,0,0
49972,-111.111111111111,4,2,54,60,0,0
50202,-90.9090909090908,4,2,54,60,0,0
50355,-95.2380952380952,4,2,54,60,0,0
51732,-153.846153846154,4,2,54,60,0,0
52804,-95.2380952380952,4,2,54,60,0,0
54028,-100,4,2,54,60,0,0
56477,-142.857142857143,4,2,54,60,0,0
56554,-142.857142857143,4,2,54,30,0,0
56783,-142.857142857143,4,2,54,60,0,0
56860,-142.857142857143,4,2,54,30,0,0
57089,-142.857142857143,4,2,54,60,0,0
57166,-142.857142857143,4,2,54,30,0,0
57395,-142.857142857143,4,2,54,60,0,0
57472,-142.857142857143,4,2,54,30,0,0
57702,-142.857142857143,4,2,54,60,0,0
58620,-175.438596491228,4,2,54,60,0,0
58926,-100,4,2,54,70,0,1
60763,-142.857142857143,4,2,54,70,0,1
61069,-66.6666666666667,4,2,54,70,0,1
61375,-100,4,2,54,70,0,1
63365,-100,4,2,54,50,0,1
63824,-100,4,2,54,70,0,1
67344,-133.333333333333,4,2,54,70,0,1
68263,-133.333333333333,4,2,54,50,0,1
68722,-100,4,2,54,70,0,1
75916,-100,4,2,54,70,0,0
78518,-100,4,2,54,40,0,0
87089,-142.857142857143,4,2,54,60,0,0
87166,-142.857142857143,4,2,54,30,0,0
87395,-142.857142857143,4,2,54,60,0,0
87472,-142.857142857143,4,2,54,30,0,0
87702,-142.857142857143,4,2,54,60,0,0
87778,-142.857142857143,4,2,54,30,0,0
88008,-142.857142857143,4,2,54,60,0,0
88084,-142.857142857143,4,2,54,30,0,0
88314,-90.9090909090909,4,2,54,60,0,0
89538,-95.2380952380952,4,2,54,60,0,0
95661,-153.846153846154,4,2,54,60,0,0
97651,-153.846153846154,4,2,54,45,0,0
98110,-153.846153846154,4,2,54,60,0,0
100253,-153.846153846154,4,2,54,5,0,0
100406,-153.846153846154,4,2,54,60,0,0
100559,-95.2380952380952,4,2,54,60,0,0
107446,-95.2380952380952,4,2,54,50,0,0
107906,-95.2380952380952,4,2,54,60,0,0
108059,-95.2380952380952,4,2,54,40,0,0
109895,-95.2380952380952,4,3,1,60,0,0
110355,-285.714285714286,4,2,54,50,0,0
111579,-142.857142857143,4,2,54,60,0,0
111656,-142.857142857143,4,2,54,30,0,0
111885,-142.857142857143,4,2,54,60,0,0
111962,-142.857142857143,4,2,54,30,0,0
112191,-142.857142857143,4,2,54,60,0,0
112268,-142.857142857143,4,2,54,30,0,0
112497,-142.857142857143,4,2,54,50,0,0
112804,-100,4,2,54,70,0,1
117242,-133.333333333333,4,2,54,50,0,1
117702,-100,4,2,54,70,0,1
124742,-100,4,2,54,55,0,1
125048,-100,4,2,54,50,0,0
127191,-125,4,2,54,50,0,0
127497,-100,4,2,54,50,0,0
128110,-125,4,2,54,50,0,0
128569,-111.111111111111,4,2,54,50,0,0
129028,-100,4,2,54,50,0,0
130406,-111.111111111111,4,2,54,50,0,0
130865,-125,4,2,54,50,0,0
131171,-100,4,2,54,50,0,0
136069,-100,4,2,54,40,0,0
136375,-100,4,2,54,25,0,0
136681,-100,4,2,54,40,0,0
137293,-100,4,2,54,60,0,0

[Colours]
Combo1 : 128,0,128
Combo2 : 0,0,128
Combo3 : 128,128,255

[HitObjects]
142,200,151,6,0,L|49:200,2,66.4999979705811,2|0|8,0:0|0:0|0:0,0:0:0:0:
438,265,610,2,0,P|467:203|417:138,1,132.999995941162,2|2,0:0|0:0,0:0:0:0:
142,200,1069,1,8,0:0:0:0:
371,265,1222,6,0,L|451:265,1,66.4999979705811
207,200,1528,2,0,L|111:200,1,66.4999979705811,2|8,0:0|0:0,0:0:0:0:
372,149,1834,2,0,L|452:149,1,66.4999979705811
141,200,2140,2,0,L|64:201,2,66.4999979705811,2|8|2,0:0|0:0|0:0,0:0:0:0:
400,208,2599,1,2,0:0:0:0:
119,236,2753,6,0,L|59:188,1,56.9999982604981,2|8,0:0|0:0,0:0:0:0:
304,256,3059,2,0,L|224:192,1,85.4999973907472
464,240,3365,2,0,L|464:96,1,104.500003189087,2|8,0:0|0:0,0:0:0:0:
208,192,3671,2,0,L|300:191,1,66.4999979705811
16,272,3977,2,0,L|100:270,1,66.4999979705811,2|8,0:0|0:0,0:0:0:0:
400,320,4283,6,0,L|375:188,1,113.999996520996
82,270,4589,2,0,L|168:270,2,66.4999979705811,8|8|2,0:0|0:0|0:0,0:0:0:0:
416,272,5048,2,0,L|336:272,2,66.4999979705811,6|2|8,0:0|0:0|0:0,0:0:0:0:
128,288,5508,2,0,L|48:288,1,66.4999979705811
312,207,5814,2,0,L|392:207,1,66.4999979705811,2|8,0:0|0:0,0:0:0:0:
96,128,6120,2,0,L|192:128,1,66.4999979705811
432,240,6426,6,0,L|352:240,1,66.4999979705811,2|8,0:0|0:0,0:0:0:0:
128,160,6732,2,0,L|208:160,1,66.4999979705811
464,288,7038,2,0,L|424:160,1,113.999996520996,2|8,0:0|0:0,0:0:0:0:
160,224,7344,2,0,L|64:224,2,66.4999979705811,0|2|2,0:0|0:0|0:0,0:0:0:0:
384,240,7804,1,8,0:0:0:0:
120,256,7957,6,0,L|54:256,1,66.4999979705811,2|0,0:0|0:0,0:0:0:0:
280,320,8263,2,0,L|184:320,1,66.4999979705811,2|0,0:0|0:0,0:0:0:0:
440,328,8569,2,0,B|560:264|392:264,1,170.999994781494
128,264,8875,2,0,B|8:200|176:200,1,170.999994781494
416,264,9181,2,0,L|150:264,1,246.999988693238
424,336,9640,2,0,P|488:272|400:200,1,213.750008153916,2|0,0:0|0:0,0:0:0:0:
88,264,9946,5,4,0:0:0:0:
216,240,10099,2,0,L|344:240,1,95,0|8,0:0|0:0,0:0:0:0:
72,328,10405,2,0,L|48:232,1,95
288,264,10711,2,0,L|192:264,1,95,2|8,0:0|0:0,0:0:0:0:
424,168,11017,2,0,L|329:168,1,95,0|0,0:0|0:0,0:0:0:0:
72,128,11323,6,0,L|184:128,1,95,2|8,0:0|0:0,0:0:0:0:
400,192,11629,2,0,L|305:192,1,95
448,272,11935,1,2,0:0:0:0:
104,304,12088,2,0,L|136:208,1,95,8|2,0:0|0:0,0:0:0:0:
424,224,12395,6,0,L|304:240,2,95,2|2|8,0:0|0:0|0:0,0:0:0:0:
160,312,12854,2,0,L|32:328,1,95,0|2,0:0|0:0,0:0:0:0:
408,200,13160,2,0,L|296:200,1,95,2|8,0:0|0:0,0:0:0:0:
64,200,13466,1,2,0:0:0:0:
464,256,13773,5,2,0:0:0:0:
80,216,14079,1,2,0:0:0:0:
320,192,14385,6,0,L|384:192,1,47.5,8|10,0:0|0:0,0:0:0:0:
320,192,14538,2,8,L|272:192,1,47.5
112,208,14691,2,8,L|65:208,1,47.5
336,288,14844,6,0,L|464:288,1,95,2|2,0:0|0:0,0:0:0:0:
320,224,15151,1,8,0:0:0:0:
96,256,15304,2,0,L|48:256,1,47.5,2|2,0:0|0:0,0:0:0:0:
96,256,15457,2,0,L|143:256,1,47.5,2|0,0:0|0:0,0:0:0:0:
400,320,15610,2,0,L|272:320,1,95,0|8,0:0|0:0,0:0:0:0:
160,272,15916,6,0,L|113:272,1,47.5,2|2,0:0|0:0,0:0:0:0:
160,272,16069,2,0,L|208:272,1,47.5,2|0,0:0|0:0,0:0:0:0:
416,288,16222,2,0,L|496:208,1,95,0|8,0:0|0:0,0:0:0:0:
192,160,16528,6,0,L|112:160,1,47.5,2|2,0:0|0:0,0:0:0:0:
192,160,16681,2,0,L|240:160,1,47.5,2|0,0:0|0:0,0:0:0:0:
463,256,16834,2,0,L|368:256,2,95,0|8|2,0:0|0:0|0:0,0:0:0:0:
64,176,17293,5,6,0:0:0:0:
106,154,17369,1,0,0:0:0:0:
368,176,17446,1,0,0:0:0:0:
328,149,17522,1,0,0:0:0:0:
144,176,17600,1,8,0:0:0:0:
106,147,17676,1,2,0:0:0:0:
448,176,17753,1,2,0:0:0:0:
487,149,17829,1,0,0:0:0:0:
208,176,17906,1,6,0:0:0:0:
168,149,17982,1,0,0:0:0:0:
368,176,18059,1,2,0:0:0:0:
407,149,18135,1,0,0:0:0:0:
128,192,18212,1,8,0:0:0:0:
86,170,18288,1,4,0:0:0:0:
352,176,18365,6,0,L|496:144,1,142.5,2|0,0:0|0:0,0:0:0:0:
160,176,18671,2,0,L|16:144,1,142.5,2|0,0:0|0:0,0:0:0:0:
256,304,18977,6,0,P|240:208|144:192,1,190,2|8,0:0|0:0,0:0:0:0:
56,240,19436,1,8,0:0:0:0:
304,224,19589,1,8,0:0:0:0:
80,216,19742,2,0,P|88:144|168:104,1,152,2|4,0:0|0:0,0:0:0:0:
416,208,20355,6,0,L|528:208,2,95,0|2|0,0:0|0:0|0:0,0:0:0:0:
272,200,20814,1,0,0:0:0:0:
144,256,20967,2,0,L|16:256,1,95
128,144,21273,1,2,0:0:0:0:
240,112,21426,1,0,0:0:0:0:
480,256,21579,2,0,L|352:256,1,95
144,224,21885,2,0,L|256:224,1,95,2|0,0:0|0:0,0:0:0:0:
464,304,22191,6,0,L|352:304,2,95,0|0|2,0:0|0:0|0:0,0:0:0:0:
224,304,22651,1,0,0:0:0:0:
64,304,22804,1,0,0:0:0:0:
144,208,22957,1,0,0:0:0:0:
368,240,23110,2,0,L|463:240,1,95,2|0,0:0|0:0,0:0:0:0:
224,176,23416,2,0,L|416:176,1,190,0|2,0:0|0:0,0:0:0:0:
320,144,23875,1,0,0:0:0:0:
80,304,24028,2,0,P|16:240|64:128,1,190,0|2,0:0|0:0,0:0:0:0:
336,176,24487,1,0,0:0:0:0:
112,320,24640,6,0,L|16:320,2,95,0|0|2,0:0|0:0|0:0,0:0:0:0:
368,208,25099,1,0,0:0:0:0:
256,288,25253,1,0,0:0:0:0:
144,208,25406,2,0,L|32:208,1,95,0|2,0:0|0:0,0:0:0:0:
384,240,25712,2,0,L|480:240,1,95
224,176,26018,2,0,L|129:176,1,95,0|2,0:0|0:0,0:0:0:0:
432,272,26324,2,0,L|336:272,1,95
192,144,26630,2,0,L|80:144,1,95,0|2,0:0|0:0,0:0:0:0:
384,256,26936,2,0,L|479:256,1,95
160,192,27242,6,0,L|65:192,1,95,0|2,0:0|0:0,0:0:0:0:
112,176,27548,1,0,0:0:0:0:
336,224,27702,2,0,L|431:224,1,95
384,192,28008,1,2,0:0:0:0:
160,144,28161,1,0,0:0:0:0:
416,160,28314,2,0,L|528:160,1,95
176,240,28620,2,0,L|64:240,1,95,2|0,0:0|0:0,0:0:0:0:
128,192,28926,1,0,0:0:0:0:
368,272,29079,1,0,0:0:0:0:
144,304,29232,2,0,L|49:304,1,95,2|4,0:0|0:0,0:0:0:0:
320,96,29538,5,0,0:0:0:0:
394,163,29691,1,0,0:0:0:0:
320,230,29844,1,2,0:0:0:0:
199,228,29997,1,0,0:0:0:0:
432,224,30151,5,0,0:0:0:0:
506,157,30304,1,0,0:0:0:0:
432,90,30457,1,2,0:0:0:0:
311,92,30610,1,0,0:0:0:0:
79,110,30763,5,0,0:0:0:0:
189,110,30916,1,0,0:0:0:0:
79,110,31069,1,2,0:0:0:0:
189,110,31222,1,0,0:0:0:0:
433,110,31375,5,0,0:0:0:0:
323,110,31528,1,0,0:0:0:0:
433,110,31681,1,2,0:0:0:0:
323,110,31834,1,0,0:0:0:0:
85,120,31987,6,0,L|6:118,2,66.4999979705811,0|0|2,0:0|0:0|0:0,0:0:0:0:
222,119,32446,1,0,0:0:0:0:
391,120,32599,6,0,L|470:118,2,66.4999979705811,0|0|2,0:0|0:0|0:0,0:0:0:0:
254,119,33058,1,0,0:0:0:0:
496,119,33212,2,0,L|429:120,2,66.4999979705811,0|0|2,0:0|0:0|0:0,0:0:0:0:
392,123,33671,1,0,0:0:0:0:
150,115,33824,2,0,L|217:116,2,66.4999979705811,0|0|2,0:0|0:0|0:0,0:0:0:0:
254,119,34283,1,0,0:0:0:0:
491,285,34436,5,0,0:0:0:0:
361,255,34589,1,0,0:0:0:0:
264,170,34742,1,2,0:0:0:0:
411,163,34895,1,0,0:0:0:0:
172,281,35048,5,0,0:0:0:0:
302,251,35201,1,0,0:0:0:0:
399,166,35354,1,2,0:0:0:0:
252,159,35507,1,0,0:0:0:0:
477,163,35661,6,0,L|381:163,2,66.4999979705811,0|0|2,0:0|0:0|0:0,0:0:0:0:
364,164,36120,1,0,0:0:0:0:
123,163,36273,6,0,L|23:160,2,95,0|0|2,0:0|0:0|0:0,0:0:0:0:
9,160,36732,1,2,0:0:0:0:
253,357,36885,6,0,B|466:288|466:288|287:209|287:209|431:113|431:113|463:273,1,736.25,4|0,0:0|0:0,0:0:0:0:
144,336,39334,1,6,0:0:0:0:
99,310,39410,1,2,0:0:0:0:
78,263,39487,1,8,0:0:0:0:
90,213,39563,1,2,0:0:0:0:
288,208,39640,1,2,0:0:0:0:
335,188,39716,1,2,0:0:0:0:
354,141,39793,1,8,0:0:0:0:
333,95,39869,1,2,0:0:0:0:
128,160,39946,6,0,L|75:160,1,52.2500015945435,2|0,0:0|0:0,0:0:0:0:
333,95,40099,2,0,L|385:95,1,52.2500015945435,10|0,0:0|0:0,0:0:0:0:
144,320,40253,1,2,0:0:0:0:
105,286,40329,1,2,0:0:0:0:
96,235,40406,1,8,0:0:0:0:
121,190,40482,1,2,0:0:0:0:
368,320,40559,1,2,0:0:0:0:
407,286,40635,1,2,0:0:0:0:
416,235,40712,1,8,0:0:0:0:
391,190,40788,1,2,0:0:0:0:
80,256,40865,5,2,0:0:0:0:
133,256,40941,1,2,0:0:0:0:
185,256,41018,1,8,0:0:0:0:
237,256,41094,1,2,0:0:0:0:
464,208,41171,5,2,0:0:0:0:
411,208,41247,1,2,0:0:0:0:
359,208,41324,1,8,0:0:0:0:
307,208,41400,1,2,0:0:0:0:
133,256,41477,5,2,0:0:0:0:
87,235,41553,1,2,0:0:0:0:
70,187,41630,1,8,0:0:0:0:
92,141,41706,1,2,0:0:0:0:
368,112,41783,6,0,L|432:112,1,49.8749984779358,2|2,0:0|0:0,0:0:0:0:
256,112,41936,2,0,L|176:112,1,49.8749984779358,8|2,0:0|0:0,0:0:0:0:
64,112,42089,2,0,L|114:112,1,49.8749984779358,2|2,0:0|0:0,0:0:0:0:
397,289,42242,1,8,0:0:0:0:
443,272,42318,1,2,0:0:0:0:
473,233,42395,1,2,0:0:0:0:
479,184,42471,1,2,0:0:0:0:
458,140,42548,1,8,0:0:0:0:
417,113,42624,1,2,0:0:0:0:
172,164,42702,6,0,L|108:132,1,49.8749984779358,2|2,0:0|0:0,0:0:0:0:
304,272,42855,2,0,L|368:304,1,49.8749984779358,8|2,0:0|0:0,0:0:0:0:
128,272,43008,1,2,0:0:0:0:
80,256,43084,1,2,0:0:0:0:
49,218,43161,1,8,0:0:0:0:
46,168,43237,1,2,0:0:0:0:
84,118,43314,2,0,L|160:160,1,49.8749984779358,2|2,0:0|0:0,0:0:0:0:
304,144,43467,2,0,L|256:160,1,49.8749984779358,8|0,0:0|0:0,0:0:0:0:
416,192,43620,6,0,L|449:256,1,49.8749984779358,2|2,0:0|0:0,0:0:0:0:
176,272,43773,2,0,L|144:320,1,49.8749984779358,8|0,0:0|0:0,0:0:0:0:
400,320,43926,2,0,L|449:320,1,49.8749984779358,2|0,0:0|0:0,0:0:0:0:
128,192,44079,2,0,L|78:192,1,49.8749984779358,8|2,0:0|0:0,0:0:0:0:
400,320,44232,6,0,P|448:256|408:186,1,161.500003080368,6|2,0:0|0:0,0:0:0:0:
135,160,44691,2,0,L|176:160,1,40.375000770092,8|0,0:0|0:0,0:0:0:0:
328,160,44844,2,0,L|288:160,1,40.375000770092,2|0,0:0|0:0,0:0:0:0:
127,256,44997,2,0,L|63:256,1,40.375000770092,8|0,0:0|0:0,0:0:0:0:
368,256,45151,2,0,L|328:256,1,40.375000770092,2|0,0:0|0:0,0:0:0:0:
46,256,45304,2,0,L|87:256,1,40.375000770092,8|0,0:0|0:0,0:0:0:0:
391,258,45457,6,0,L|231:258,1,121.125002310276,6|0,0:0|0:0,0:0:0:0:
80,208,45763,2,0,L|224:208,1,121.125002310276,2|0,0:0|0:0,0:0:0:0:
432,208,46069,2,0,L|256:208,1,161.500003080368,2|2,0:0|0:0,0:0:0:0:
416,160,46528,1,8,0:0:0:0:
64,304,46681,6,0,L|64:160,1,121.125002310276,2|0,0:0|0:0,0:0:0:0:
464,304,46987,2,0,L|464:176,1,121.125002310276,8|0,0:0|0:0,0:0:0:0:
160,304,47293,2,0,L|128:160,1,121.125002310276,2|0,0:0|0:0,0:0:0:0:
352,304,47599,2,0,L|384:160,1,121.125002310276,8|0,0:0|0:0,0:0:0:0:
80,336,47906,6,8,L|48:208,1,121.125002310276,2|0,0:0|0:0,0:0:0:0:
432,336,48212,2,8,L|464:208,1,121.125002310276,8|0,0:0|0:0,0:0:0:0:
176,304,48518,5,8,0:0:0:0:
160,288,48594,1,8,0:0:0:0:
336,304,48671,1,8,0:0:0:0:
352,288,48747,1,8,0:0:0:0:
96,320,48824,1,8,0:0:0:0:
68,304,48900,1,8,0:0:0:0:
416,304,48977,1,8,0:0:0:0:
444,288,49053,1,8,0:0:0:0:
64,320,49130,6,8,L|64:176,1,99.7499969558717,2|8,0:0|0:0,0:0:0:0:
288,336,49436,2,8,L|416:336,1,99.7499969558717,2|8,0:0|0:0,0:0:0:0:
64,320,49742,2,8,L|64:224,1,71.2500027179719,2|8,0:0|0:0,0:0:0:0:
416,336,49972,5,0,0:0:0:0:
453,317,50048,1,2,0:0:0:0:
477,282,50125,1,2,0:0:0:0:
479,240,50201,1,8,0:0:0:0:
460,202,50278,1,2,0:0:0:0:
416,176,50355,6,0,L|336:176,1,49.8749984779358,2|0,0:0|0:0,0:0:0:0:
64,336,50508,2,0,L|176:256,1,99.7499969558717,8|2,0:0|0:0,0:0:0:0:
368,272,50814,6,0,L|240:272,1,99.7499969558717,8|2,0:0|0:0,0:0:0:0:
496,176,51120,2,0,L|368:176,1,99.7499969558717,8|2,0:0|0:0,0:0:0:0:
128,224,51426,6,0,L|128:96,1,99.7499969558717,8|2,0:0|0:0,0:0:0:0:
352,224,51732,1,8,0:0:0:0:
80,224,51885,6,0,L|80:144,1,61.7499971733095,2|8,0:0|0:0,0:0:0:0:
384,224,52191,1,8,0:0:0:0:
32,224,52344,6,0,L|32:144,1,61.7499971733095,8|2,0:0|0:0,0:0:0:0:
320,224,52651,1,8,0:0:0:0:
96,282,52804,5,2,0:0:0:0:
57,249,52880,1,2,0:0:0:0:
52,201,52957,1,8,0:0:0:0:
80,162,53033,1,2,0:0:0:0:
400,224,53110,1,2,0:0:0:0:
447,216,53186,1,2,0:0:0:0:
465,172,53263,1,8,0:0:0:0:
438,133,53339,1,2,0:0:0:0:
384,112,53416,2,0,L|335:125,1,49.8749984779358,2|0,0:0|0:0,0:0:0:0:
160,208,53569,2,0,L|96:224,1,49.8749984779358,8|2,0:0|0:0,0:0:0:0:
416,240,53722,2,0,L|465:228,1,49.8749984779358,2|0,0:0|0:0,0:0:0:0:
288,304,53875,2,0,L|240:317,1,49.8749984779358,8|2,0:0|0:0,0:0:0:0:
46,331,54028,6,0,P|-2:251|62:171,1,190,6|2,0:0|0:0,0:0:0:0:
160,144,54487,1,8,0:0:0:0:
448,224,54640,2,0,L|528:224,1,47.5,2|0,0:0|0:0,0:0:0:0:
351,224,54793,2,0,L|271:224,1,47.5,8|0,0:0|0:0,0:0:0:0:
160,224,54946,2,0,L|80:224,1,47.5,2|0,0:0|0:0,0:0:0:0:
304,224,55099,2,0,L|368:224,1,47.5,8|0,0:0|0:0,0:0:0:0:
112,304,55253,6,0,L|0:304,1,95,6|8,0:0|0:0,0:0:0:0:
329,270,55559,1,2,0:0:0:0:
96,208,55712,2,0,L|0:144,1,95,8|2,0:0|0:0,0:0:0:0:
288,256,56018,2,0,L|160:256,1,95,8|2,0:0|0:0,0:0:0:0:
416,176,56324,2,0,L|512:128,1,95,8|2,0:0|0:0,0:0:0:0:
144,288,56554,5,8,0:0:0:0:
128,272,56630,1,8,0:0:0:0:
128,256,56707,1,8,0:0:0:0:
144,240,56783,1,8,0:0:0:0:
368,288,56860,5,8,0:0:0:0:
384,272,56936,1,8,0:0:0:0:
384,256,57013,1,8,0:0:0:0:
368,240,57089,1,8,0:0:0:0:
48,288,57166,5,8,0:0:0:0:
20,272,57242,1,8,0:0:0:0:
20,255,57319,1,8,0:0:0:0:
48,240,57395,1,8,0:0:0:0:
464,288,57472,5,8,0:0:0:0:
492,272,57548,1,8,0:0:0:0:
493,256,57625,1,8,0:0:0:0:
493,240,57701,1,8,0:0:0:0:
461,224,57778,1,8,0:0:0:0:
144,240,57855,6,0,L|128:192,1,33.2499989852906,8|0,0:0|0:0,0:0:0:0:
304,240,58008,2,8,L|352:208,1,33.2499989852906
96,240,58161,2,0,L|64:192,1,33.2499989852906,8|0,0:0|0:0,0:0:0:0:
352,240,58314,2,8,L|384:208,1,33.2499989852906
48,240,58467,2,0,L|32:208,1,33.2499989852906,8|0,0:0|0:0,0:0:0:0:
448,240,58620,6,0,P|480:192|432:160,1,108.299998677979,6|2,0:0|0:0,0:0:0:0:
192,160,59079,2,0,L|80:160,1,95,2|8,0:0|0:0,0:0:0:0:
320,240,59385,2,0,L|417:239,1,95
144,208,59691,2,0,L|32:208,1,95,2|8,0:0|0:0,0:0:0:0:
304,272,59997,2,0,P|368:208|304:176,1,190,0|2,0:0|0:0,0:0:0:0:
192,192,60457,1,8,0:0:0:0:
416,320,60610,2,0,L|512:320,1,95
416,288,60916,1,2,0:0:0:0:
80,320,61069,2,0,P|16:224|128:96,1,285.000010871888,8|6,0:0|0:0,0:0:0:0:
368,160,61528,5,2,0:0:0:0:
144,272,61681,2,0,L|48:272,1,95,8|2,0:0|0:0,0:0:0:0:
336,208,61987,2,0,L|448:208,1,95
336,208,62293,1,8,0:0:0:0:
112,240,62446,2,0,P|48:208|96:112,1,190,0|2,0:0|0:0,0:0:0:0:
192,160,62906,1,8,0:0:0:0:
448,240,63059,2,0,L|320:240,1,95,2|0,0:0|0:0,0:0:0:0:
112,240,63365,5,8,0:0:0:0:
66,229,63441,1,8,0:0:0:0:
36,193,63518,1,8,0:0:0:0:
34,146,63594,1,8,0:0:0:0:
59,108,63671,1,8,0:0:0:0:
103,92,63747,1,8,0:0:0:0:
352,192,63824,6,0,L|448:192,1,95,4|2,0:0|0:0,0:0:0:0:
352,112,64130,1,8,0:0:0:0:
96,272,64283,2,0,P|32:208|96:112,1,190,2|2,0:0|0:0,0:0:0:0:
208,128,64742,1,8,0:0:0:0:
432,224,64895,2,0,L|320:224,1,95,2|0,0:0|0:0,0:0:0:0:
80,288,65202,2,0,L|176:288,1,95,2|8,0:0|0:0,0:0:0:0:
400,272,65508,5,8,0:0:0:0:
439,245,65584,1,2,0:0:0:0:
461,204,65661,1,2,0:0:0:0:
462,157,65737,1,2,0:0:0:0:
441,114,65814,1,2,0:0:0:0:
404,86,65890,1,2,0:0:0:0:
208,112,65967,2,0,L|128:112,1,47.5,8|0,0:0|0:0,0:0:0:0:
416,176,66120,2,0,L|496:176,1,47.5,2|0,0:0|0:0,0:0:0:0:
176,224,66273,2,0,L|80:224,1,95,2|2,0:0|0:0,0:0:0:0:
384,176,66580,6,0,L|336:176,1,47.5,8|0,0:0|0:0,0:0:0:0:
144,176,66733,2,0,L|192:176,1,47.5,8|0,0:0|0:0,0:0:0:0:
384,256,66886,2,0,L|432:256,1,47.5,2|0,0:0|0:0,0:0:0:0:
144,256,67039,2,0,L|96:256,1,47.5,2|0,0:0|0:0,0:0:0:0:
432,256,67192,1,8,0:0:0:0:
467,223,67268,1,2,0:0:0:0:
483,179,67345,1,2,0:0:0:0:
464,128,67421,1,2,0:0:0:0:
416,96,67498,5,8,0:0:0:0:
120,112,67651,1,2,0:0:0:0:
384,256,67804,1,2,0:0:0:0:
128,320,67957,2,0,L|32:320,1,71.2500027179719,2|0,0:0|0:0,0:0:0:0:
352,224,68263,5,8,0:0:0:0:
384,224,68339,1,8,0:0:0:0:
384,192,68416,1,2,0:0:0:0:
352,192,68492,1,2,0:0:0:0:
112,192,68569,5,2,0:0:0:0:
80,192,68645,1,2,0:0:0:0:
80,224,68722,1,2,0:0:0:0:
112,224,68798,1,2,0:0:0:0:
400,256,68875,6,0,L|464:144,1,95,2|8,0:0|0:0,0:0:0:0:
176,256,69181,2,0,L|80:256,1,95
352,256,69487,2,0,L|480:256,1,95,2|8,0:0|0:0,0:0:0:0:
80,176,69793,2,0,L|272:176,1,190,2|2,0:0|0:0,0:0:0:0:
128,128,70253,1,8,0:0:0:0:
400,256,70406,2,0,P|464:176|400:128,1,190,0|2,0:0|0:0,0:0:0:0:
32,224,70865,1,8,0:0:0:0:
416,272,71171,6,0,P|480:192|432:128,1,190,6|8,0:0|0:0,0:0:0:0:
344,120,71630,1,2,0:0:0:0:
96,208,71783,2,0,L|288:208,1,190,2|8,0:0|0:0,0:0:0:0:
144,144,72242,1,2,0:0:0:0:
408,144,72395,1,0,0:0:0:0:
184,280,72548,2,0,L|64:280,1,95,8|0,0:0|0:0,0:0:0:0:
432,328,72855,2,0,L|440:224,1,95,2|0,0:0|0:0,0:0:0:0:
216,184,73161,2,0,L|40:168,1,142.5,12|0,0:0|0:0,0:0:0:0:
408,256,73467,6,0,P|488:160|440:96,1,190,4|2,0:0|0:0,0:0:0:0:
376,136,73926,1,8,0:0:0:0:
144,208,74079,2,0,L|49:208,2,95
384,288,74538,2,0,L|480:288,1,95,8|2,0:0|0:0,0:0:0:0:
192,240,74844,2,0,L|97:240,1,95,0|2,0:0|0:0,0:0:0:0:
416,240,75151,2,0,L|512:240,2,95,8|8|2,0:0|0:0|0:0,0:0:0:0:
112,320,75610,6,0,P|64:240|144:160,1,190,2|0,0:0|0:0,0:0:0:0:
384,192,76069,1,2,0:0:0:0:
272,192,76222,1,2,0:0:0:0:
512,192,76375,1,8,0:0:0:0:
144,192,76528,1,2,0:0:0:0:
448,288,76681,2,0,L|352:288,2,95,8|2|8,0:0|0:0|0:0,0:0:0:0:
64,288,77140,5,14,0:0:0:0:
448,224,78059,5,8,0:0:0:0:
288,224,78212,1,2,0:0:0:0:
375,226,78365,1,2,0:0:0:0:
80,240,78518,6,0,L|192:232,2,95,14|0|8,0:0|0:0|0:0,0:0:0:0:
256,288,78977,2,0,P|289:221|229:124,1,190,0|2,0:0|0:0,0:0:0:0:
82,128,79436,1,8,0:0:0:0:
375,277,79589,2,0,P|353:203|242:173,1,190,0|2,0:0|0:0,0:0:0:0:
377,149,80048,1,8,0:0:0:0:
86,281,80202,2,0,P|108:207|219:177,1,190,0|2,0:0|0:0,0:0:0:0:
336,164,80661,1,8,0:0:0:0:
464,165,80814,1,2,0:0:0:0:
159,179,80967,2,0,L|63:172,2,95,0|0|8,0:0|0:0|0:0,0:0:0:0:
311,185,81426,1,2,0:0:0:0:
131,190,81579,6,0,L|44:117,2,95,0|0|8,0:0|0:0|0:0,0:0:0:0:
22,202,82038,1,0,0:0:0:0:
301,197,82191,2,0,L|348:76,1,95
174,197,82497,2,0,L|221:76,1,95,8|0,0:0|0:0,0:0:0:0:
486,190,82804,2,0,L|439:69,1,95,0|8,0:0|0:0,0:0:0:0:
290,95,83110,1,8,0:0:0:0:
412,101,83263,1,2,0:0:0:0:
139,105,83416,5,2,0:0:0:0:
25,111,83569,1,2,0:0:0:0:
278,141,83722,2,0,L|391:134,2,95,8|0|0,0:0|0:0|0:0,0:0:0:0:
155,149,84181,1,0,0:0:0:0:
400,131,84334,2,0,L|513:124,2,95,8|0|0,0:0|0:0|0:0,0:0:0:0:
495,125,84793,1,0,0:0:0:0:
225,138,84946,2,0,L|112:131,2,95,8|0|0,0:0|0:0|0:0,0:0:0:0:
354,146,85406,1,0,0:0:0:0:
482,138,85559,1,8,0:0:0:0:
394,143,85712,1,0,0:0:0:0:
96,240,85865,6,0,L|80:144,1,95
176,176,86171,1,8,0:0:0:0:
416,304,86324,2,0,P|480:224|416:192,1,190
160,208,86783,1,8,0:0:0:0:
417,224,86936,1,2,0:0:0:0:
112,224,87089,6,8,L|64:224,1,33.2499989852906,8|8,0:0|0:0,0:0:0:0:
112,224,87242,2,8,L|160:224,1,33.2499989852906,8|8,0:0|0:0,0:0:0:0:
384,224,87395,2,8,L|418:224,1,33.2499989852906
384,224,87548,2,8,L|336:224,1,33.2499989852906
96,256,87702,5,8,0:0:0:0:
68,240,87778,1,8,0:0:0:0:
68,208,87855,1,8,0:0:0:0:
95,192,87931,1,8,0:0:0:0:
416,256,88008,1,8,0:0:0:0:
443,240,88084,1,8,0:0:0:0:
443,208,88161,1,8,0:0:0:0:
416,192,88237,1,8,0:0:0:0:
128,240,88314,6,0,L|16:208,1,104.500003189087,6|8,0:0|0:0,0:0:0:0:
176,144,88620,2,0,L|240:144,1,52.2500015945435,2|0,0:0|0:0,0:0:0:0:
443,240,88773,2,0,L|435:128,1,104.500003189087,8|2,0:0|0:0,0:0:0:0:
208,192,89079,2,0,L|96:192,1,104.500003189087,8|2,0:0|0:0,0:0:0:0:
352,128,89385,1,8,0:0:0:0:
80,240,89538,6,0,L|64:112,1,99.7499969558717,2|8,0:0|0:0,0:0:0:0:
304,288,89844,1,2,0:0:0:0:
253,248,89921,1,2,0:0:0:0:
203,209,89997,1,8,0:0:0:0:
429,191,90151,2,0,L|337:134,1,99.7499969558717,2|8,0:0|0:0,0:0:0:0:
175,159,90457,1,2,0:0:0:0:
247,159,90533,1,2,0:0:0:0:
319,159,90610,1,8,0:0:0:0:
56,344,90763,6,0,L|56:232,1,99.7499969558717,2|8,0:0|0:0,0:0:0:0:
280,248,91069,1,2,0:0:0:0:
348,248,91145,1,2,0:0:0:0:
280,200,91222,1,8,0:0:0:0:
56,344,91375,2,0,L|155:344,1,99.7499969558717,2|8,0:0|0:0,0:0:0:0:
296,248,91681,1,2,0:0:0:0:
224,248,91757,1,2,0:0:0:0:
160,248,91834,1,8,0:0:0:0:
406,288,91987,6,0,L|398:176,1,99.7499969558717,2|8,0:0|0:0,0:0:0:0:
224,256,92293,1,2,0:0:0:0:
275,216,92370,1,2,0:0:0:0:
325,177,92446,1,8,0:0:0:0:
104,272,92599,1,2,0:0:0:0:
32,248,92753,1,8,0:0:0:0:
320,208,92906,1,8,0:0:0:0:
248,208,92983,1,2,0:0:0:0:
176,208,93059,1,2,0:0:0:0:
424,312,93212,6,0,L|408:200,1,99.7499969558717,2|8,0:0|0:0,0:0:0:0:
240,256,93518,1,2,0:0:0:0:
172,256,93594,1,2,0:0:0:0:
240,208,93671,1,8,0:0:0:0:
464,176,93824,2,0,L|364:168,1,99.7499969558717,2|8,0:0|0:0,0:0:0:0:
88,240,94130,5,2,0:0:0:0:
95,190,94206,1,2,0:0:0:0:
102,141,94283,1,8,0:0:0:0:
344,200,94436,1,2,0:0:0:0:
216,208,94589,1,8,0:0:0:0:
464,144,94742,1,2,0:0:0:0:
399,134,94818,1,2,0:0:0:0:
335,125,94895,1,8,0:0:0:0:
64,296,95048,5,2,0:0:0:0:
288,256,95201,1,8,0:0:0:0:
40,176,95355,1,2,0:0:0:0:
105,166,95431,1,2,0:0:0:0:
169,157,95508,1,8,0:0:0:0:
432,224,95661,6,0,L|299:231,1,123.499994346619,2|8,0:0|0:0,0:0:0:0:
424,152,96120,1,0,0:0:0:0:
86,167,96273,2,0,P|51:201|110:252,1,123.499994346619,2|8,0:0|0:0,0:0:0:0:
174,216,96732,1,0,0:0:0:0:
448,272,96885,2,0,L|449:121,1,123.499994346619,2|8,0:0|0:0,0:0:0:0:
352,208,97344,1,0,0:0:0:0:
80,208,97497,6,0,L|111:208,1,30.8749985866547,2|0,0:0|0:0,0:0:0:0:
352,256,97651,1,8,0:0:0:0:
368,240,97728,1,6,0:0:0:0:
368,224,97804,1,2,0:0:0:0:
352,208,97881,1,6,0:0:0:0:
79,208,97957,2,4,L|49:208,1,30.8749985866547,2|0,0:0|0:0,0:0:0:0:
256,184,98110,5,6,0:0:0:0:
256,192,98263,12,0,100253,0:0:0:0:
169,265,100406,6,0,L|167:223,1,30.8749985866547,8|0,0:0|0:0,0:0:0:0:
348,231,100559,6,0,L|445:195,1,99.7499969558717,6|8,0:0|0:0,0:0:0:0:
137,205,100865,2,0,L|64:206,2,49.8749984779358,2|0|8,0:0|0:0|0:0,0:0:0:0:
390,190,101171,2,0,L|291:188,1,99.7499969558717,2|8,0:0|0:0,0:0:0:0:
118,188,101477,2,0,L|45:189,2,49.8749984779358,2|0|8,0:0|0:0|0:0,0:0:0:0:
246,191,101783,1,2,0:0:0:0:
116,185,101936,1,8,0:0:0:0:
382,194,102089,2,0,L|455:195,2,49.8749984779358,2|0|8,0:0|0:0|0:0,0:0:0:0:
252,200,102395,1,2,0:0:0:0:
382,194,102548,1,8,0:0:0:0:
95,236,102702,5,2,0:0:0:0:
36,212,102778,1,2,0:0:0:0:
52,148,102855,1,8,0:0:0:0:
115,133,102931,1,2,0:0:0:0:
303,126,103008,6,0,L|187:127,1,99.7499969558717,6|8,0:0|0:0,0:0:0:0:
438,127,103314,2,0,L|501:130,2,49.8749984779358,2|0|8,0:0|0:0|0:0,0:0:0:0:
306,124,103620,2,0,L|422:125,1,99.7499969558717,2|8,0:0|0:0,0:0:0:0:
158,125,103926,2,0,L|95:128,2,49.8749984779358,2|0|8,0:0|0:0|0:0,0:0:0:0:
407,153,104232,6,0,L|524:112,1,99.7499969558717,2|8,0:0|0:0,0:0:0:0:
240,192,104538,1,2,0:0:0:0:
168,167,104614,1,2,0:0:0:0:
240,128,104691,1,8,0:0:0:0:
463,167,104844,2,0,L|330:171,1,99.7499969558717,2|8,0:0|0:0,0:0:0:0:
105,256,105151,1,2,0:0:0:0:
60,238,105227,1,2,0:0:0:0:
43,192,105304,1,8,0:0:0:0:
64,149,105380,1,2,0:0:0:0:
280,216,105457,6,0,L|413:220,1,99.7499969558717,6|8,0:0|0:0,0:0:0:0:
212,164,105763,1,2,0:0:0:0:
138,156,105839,1,2,0:0:0:0:
64,149,105916,1,8,0:0:0:0:
288,160,106069,6,0,L|155:164,1,99.7499969558717,2|8,0:0|0:0,0:0:0:0:
328,160,106375,1,2,0:0:0:0:
402,152,106451,1,2,0:0:0:0:
476,145,106528,1,8,0:0:0:0:
240,128,106681,6,0,L|112:117,1,99.7499969558717,2|8,0:0|0:0,0:0:0:0:
384,256,106987,1,2,0:0:0:0:
440,224,107064,1,2,0:0:0:0:
384,192,107140,1,8,0:0:0:0:
104,256,107293,1,2,0:0:0:0:
334,256,107446,6,0,L|398:256,1,49.8749984779358,8|0,0:0|0:0,0:0:0:0:
184,168,107599,2,0,L|120:168,1,49.8749984779358,8|0,0:0|0:0,0:0:0:0:
400,336,107753,2,0,L|360:280,1,49.8749984779358,8|0,0:0|0:0,0:0:0:0:
128,272,107906,2,0,L|192:248,1,49.8749984779358,6|0,0:0|0:0,0:0:0:0:
416,240,108059,6,0,L|456:120,1,99.7499969558717
216,176,108365,2,0,L|112:176,1,99.7499969558717
416,184,108671,2,0,L|408:80,1,99.7499969558717
184,120,108977,2,0,L|80:112,1,99.7499969558717
328,288,109283,2,0,L|440:296,1,99.7499969558717
136,224,109589,2,0,P|80:200|128:136,1,149.624995433808
405,243,109895,5,8,0:0:0:0:
419,222,109972,1,8,0:0:0:0:
403,190,110048,1,8,0:0:0:0:
102,246,110202,1,8,0:0:0:0:
416,160,110355,6,0,L|176:160,1,232.749992897034,6|0,0:0|0:0,0:0:0:0:
416,272,111579,1,4,0:0:0:0:
432,256,111656,1,4,0:0:0:0:
432,240,111732,1,4,0:0:0:0:
416,224,111809,1,4,0:0:0:0:
32,240,111885,6,4,L|80:224,1,33.2499989852906
224,208,112038,1,4,0:0:0:0:
240,224,112115,1,4,0:0:0:0:
16,224,112191,1,4,0:0:0:0:
32,240,112268,1,4,0:0:0:0:
256,160,112344,6,4,L|304:176,1,33.2499989852906
480,216,112497,1,4,0:0:0:0:
496,200,112574,1,4,0:0:0:0:
496,184,112651,1,4,0:0:0:0:
480,168,112727,1,4,0:0:0:0:
193,148,112804,5,6,0:0:0:0:
345,291,112957,2,0,L|361:179,1,95,2|8,0:0|0:0,0:0:0:0:
255,231,113263,1,0,0:0:0:0:
32,160,113416,2,0,L|144:160,1,95,0|2,0:0|0:0,0:0:0:0:
32,208,113722,1,8,0:0:0:0:
336,160,113875,2,0,L|448:160,1,95,2|0,0:0|0:0,0:0:0:0:
96,304,114181,2,0,L|96:208,1,95,2|8,0:0|0:0,0:0:0:0:
336,256,114487,2,0,L|240:256,1,95,8|2,0:0|0:0,0:0:0:0:
464,160,114793,2,0,L|352:160,1,95,2|8,0:0|0:0,0:0:0:0:
464,112,115099,1,0,0:0:0:0:
96,256,115253,2,0,L|96:144,1,95,2|2,0:0|0:0,0:0:0:0:
336,208,115559,6,0,L|448:208,1,95,8|8,0:0|0:0,0:0:0:0:
192,304,115865,2,0,L|304:304,1,95,2|2,0:0|0:0,0:0:0:0:
400,304,116171,1,8,0:0:0:0:
80,320,116324,2,0,L|112:208,1,95,2|0,0:0|0:0,0:0:0:0:
448,336,116630,1,2,0:0:0:0:
64,336,116936,6,0,P|0:240|64:176,1,190,2|8,0:0|0:0,0:0:0:0:
128,176,117319,1,8,0:0:0:0:
336,208,117395,1,8,0:0:0:0:
354,179,117471,1,8,0:0:0:0:
336,150,117548,1,8,0:0:0:0:
112,192,117625,2,0,L|64:192,1,35.625001358986,8|4,0:0|0:0,0:0:0:0:
368,192,117855,6,0,L|464:192,1,95,2|8,0:0|0:0,0:0:0:0:
368,144,118161,1,0,0:0:0:0:
92,285,118314,2,0,L|76:189,1,95,0|2,0:0|0:0,0:0:0:0:
160,224,118620,1,8,0:0:0:0:
430,309,118773,2,0,P|462:245|398:133,1,190,2|0,0:0|0:0,0:0:0:0:
320,128,119232,1,8,0:0:0:0:
64,224,119385,6,0,L|192:224,1,95,0|2,0:0|0:0,0:0:0:0:
448,224,119691,2,0,L|352:224,1,95,2|8,0:0|0:0,0:0:0:0:
448,176,119997,1,2,0:0:0:0:
96,288,120151,2,0,P|48:224|112:144,1,190,6|8,0:0|0:0,0:0:0:0:
192,192,120610,1,2,0:0:0:0:
448,256,120763,2,0,L|256:256,1,190,2|8,0:0|0:0,0:0:0:0:
400,216,121222,1,2,0:0:0:0:
104,216,121375,1,2,0:0:0:0:
328,312,121528,6,0,L|432:304,1,95,8|0,0:0|0:0,0:0:0:0:
88,336,121834,2,0,L|72:240,1,95,2|0,0:0|0:0,0:0:0:0:
312,168,122140,2,0,L|168:160,1,142.5,12|0,0:0|0:0,0:0:0:0:
440,288,122446,6,0,P|488:192|440:128,1,190,6|0,0:0|0:0,0:0:0:0:
201,198,122906,1,8,0:0:0:0:
336,207,123059,2,0,L|431:207,1,95
208,208,123365,1,2,0:0:0:0:
464,272,123518,2,0,L|369:272,1,95,8|0,0:0|0:0,0:0:0:0:
464,224,123824,1,0,0:0:0:0:
144,320,123977,2,0,L|32:320,1,95,2|8,0:0|0:0,0:0:0:0:
144,256,124283,1,8,0:0:0:0:
432,256,124436,1,2,0:0:0:0:
128,288,124589,1,2,0:0:0:0:
384,288,124742,5,8,0:0:0:0:
423,265,124818,1,2,0:0:0:0:
428,220,124895,1,2,0:0:0:0:
393,190,124971,1,2,0:0:0:0:
128,288,125048,1,0,0:0:0:0:
88,263,125124,1,0,0:0:0:0:
66,221,125201,1,0,0:0:0:0:
67,174,125277,1,0,0:0:0:0:
93,135,125354,1,0,0:0:0:0:
134,113,125430,1,0,0:0:0:0:
368,304,125508,1,8,0:0:0:0:
403,273,125584,1,0,0:0:0:0:
417,228,125661,1,0,0:0:0:0:
406,183,125737,1,0,0:0:0:0:
373,150,125814,1,0,0:0:0:0:
327,139,125890,1,0,0:0:0:0:
160,112,125967,6,0,L|80:112,1,47.5
304,112,126120,2,0,L|384:112,1,47.5,8|0,0:0|0:0,0:0:0:0:
144,160,126273,2,0,L|96:160,1,47.5
320,176,126426,2,0,L|384:176,1,47.5
128,208,126579,2,0,L|80:208,1,47.5
352,240,126732,2,0,L|416:240,1,47.5,8|0,0:0|0:0,0:0:0:0:
112,272,126885,2,0,L|64:272,1,47.5
400,304,127038,2,0,L|464:304,1,47.5
80,336,127191,6,0,P|32:288|96:224,1,152,10|0,0:0|0:0,0:0:0:0:
160,224,127651,1,2,0:0:0:0:
464,272,127805,2,0,L|369:272,1,95,2|8,0:0|0:0,0:0:0:0:
96,304,128111,2,0,L|96:208,1,76,0|2,0:0|0:0,0:0:0:0:
352,256,128417,1,2,0:0:0:0:
96,304,128570,2,0,L|96:192,1,85.4999973907472,8|0,0:0|0:0,0:0:0:0:
400,256,128876,1,2,0:0:0:0:
96,304,129029,2,0,L|96:192,1,95,2|8,0:0|0:0,0:0:0:0:
384,304,129335,1,0,0:0:0:0:
48,256,129488,2,0,L|149:220,2,95,2|2|8,0:0|0:0|0:0,0:0:0:0:
368,320,129946,6,0,L|368:192,1,95,2|2,0:0|0:0,0:0:0:0:
144,240,130254,1,2,0:0:0:0:
416,304,130405,2,0,L|416:192,1,95,8|0,0:0|0:0,0:0:0:0:
112,208,130712,1,2,0:0:0:0:
464,272,130865,2,0,L|464:160,1,76,2|8,0:0|0:0,0:0:0:0:
96,256,131171,6,0,L|32:256,1,47.5,2|0,0:0|0:0,0:0:0:0:
347,266,131324,1,8,0:0:0:0:
388,243,131400,1,2,0:0:0:0:
410,202,131477,1,8,0:0:0:0:
406,156,131553,1,6,0:0:0:0:
377,119,131630,6,0,L|315:106,1,47.5,2|0,0:0|0:0,0:0:0:0:
112,288,131783,1,8,0:0:0:0:
72,263,131859,1,2,0:0:0:0:
65,217,131936,1,8,0:0:0:0:
94,181,132012,1,2,0:0:0:0:
432,336,132089,6,0,L|432:224,1,95,12|0,0:0|0:0,0:0:0:0:
97,224,132395,2,0,L|49:224,1,47.5,2|0,0:0|0:0,0:0:0:0:
224,224,132548,2,0,L|304:224,1,47.5,2|0,0:0|0:0,0:0:0:0:
97,224,132702,2,0,L|49:224,1,47.5,2|0,0:0|0:0,0:0:0:0:
401,331,132855,2,0,L|401:139,1,190,2|0,0:0|0:0,0:0:0:0:
144,224,133314,6,0,L|192:224,1,47.5,2|0,0:0|0:0,0:0:0:0:
368,224,133467,2,0,L|320:224,1,47.5,2|0,0:0|0:0,0:0:0:0:
48,272,133620,2,0,B|48:80,1,190,8|0,0:0|0:0,0:0:0:0:
352,256,134079,1,2,0:0:0:0:
80,256,134232,2,0,L|176:256,1,95,4|0,0:0|0:0,0:0:0:0:
80,208,134538,5,2,0:0:0:0:
400,288,134691,1,2,0:0:0:0:
128,352,134844,2,0,L|128:160,1,190,2|0,0:0|0:0,0:0:0:0:
32,256,135304,1,2,0:0:0:0:
416,256,135457,2,0,L|208:256,1,190,4|0,0:0|0:0,0:0:0:0:
368,208,135916,1,2,0:0:0:0:
128,272,136069,6,0,L|33:272,2,95,8|0|0,0:0|0:0|0:0,0:0:0:0:
384,272,136528,1,0,0:0:0:0:
144,304,136681,1,2,0:0:0:0:
432,240,136834,1,0,0:0:0:0:
80,208,136987,2,0,P|48:144|112:64,1,142.5,2|0,0:0|0:0,0:0:0:0:
480,208,137293,5,12,0:0:0:0:
