osu file format v14

[General]
AudioFilename: Round.mp3
AudioLeadIn: 1500
PreviewTime: 80233
Countdown: 0
SampleSet: Normal
StackLeniency: 0.7
Mode: 0
LetterboxInBreaks: 0
EpilepsyWarning: 1
WidescreenStoryboard: 1

[Editor]
DistanceSpacing: 1
BeatDivisor: 4
GridSize: 4
TimelineZoom: 0.9999999

[Metadata]
Title:Insaengui Huejeonmongma(ppongjjak ver.)
TitleUnicode:인생의 회전목마(뽕짝 ver.)
Artist:Pianom
ArtistUnicode:피아놈
Creator:jieusieu
Version:Happil
Source:
Tags:ハウルの動く城 ジブリ 人生のメリーゴーランド Howl's Moving Castle Merry Go Round of Life Ghibli Happil Enon Kaburagi Kotetsu bbj0920
BeatmapID:1217241
BeatmapSetID:50074

[Difficulty]
HPDrainRate:6
CircleSize:4.6
OverallDifficulty:8
ApproachRate:8
SliderMultiplier:1.9
SliderTickRate:1

[Events]
//Background and Video events
0,0,"thebluehouse.jpg",0,0
//Break Periods
//Storyboard Layer 0 (Background)
//Storyboard Layer 1 (Fail)
//Storyboard Layer 2 (Pass)
//Storyboard Layer 3 (Foreground)
//Storyboard Sound Samples

[TimingPoints]
520,428.571428571429,4,2,0,30,1,0
520,-800,4,2,0,30,0,0
1162,-800,4,2,0,5,0,0
1377,-800,4,2,0,30,0,0
2020,-800,4,2,0,5,0,0
2234,-800,4,2,0,30,0,0
2877,-800,4,2,0,5,0,0
3091,428.571428571429,4,2,0,40,1,0
3091,-200,4,2,0,40,0,0
17662,-100,4,2,0,5,0,0
18519,-100,4,1,1,45,0,0
35662,-100,4,1,2,55,0,0
35769,-100,4,1,1,45,0,0
45948,-100,4,1,1,45,0,0
48519,-200,4,1,1,45,0,0
49376,-100,4,1,1,45,0,0
61376,-200,4,1,1,45,0,0
62876,-100,4,1,1,45,0,0
67376,-100,4,1,1,45,0,0
68233,-100,4,1,1,45,0,0
75091,-200,4,1,1,45,0,0
77233,-200,4,2,0,5,0,0
77341,-200,4,1,1,40,0,0
77448,-200,4,2,0,5,0,0
77555,-200,4,1,1,40,0,0
78841,-200,4,2,0,5,0,0
80233,-100,4,1,1,50,0,1
92233,-200,4,1,1,50,0,1
93626,-100,4,1,1,40,0,0
93948,-100,4,1,2,60,0,1
94055,-100,4,1,1,50,0,1
105948,-200,4,1,1,50,0,1
107233,-100,4,1,1,40,0,0
107662,-100,4,1,1,40,0,0
111091,-100,4,1,1,45,0,0
114519,-100,4,1,1,50,0,0
116233,-100,4,1,1,60,0,1
117091,-200,4,1,1,50,0,1
117948,-200,4,1,1,40,0,1
118805,-200,4,1,1,30,0,1
119662,-200,4,1,1,20,0,1
120519,-200,4,1,1,10,0,1
121376,-200,4,2,0,5,0,0

[Colours]
Combo1 : 219,217,217
Combo2 : 206,192,151
Combo3 : 128,128,64
Combo4 : 148,113,69
Combo5 : 125,51,2

[HitObjects]
152,360,520,6,0,P|153:340|150:322,1,35.625
111,227,1377,2,0,P|126:237|144:244,1,35.625
250,257,2234,2,0,P|232:265|217:277,1,35.625
176,283,3091,21,4,0:0:0:0:
256,175,3519,2,0,P|254:145|251:117,1,47.5
324,224,3948,2,0,P|319:256|314:294,2,71.25
468,184,4805,6,0,B|363:208|395:124|288:149,1,190
176,232,5983,1,0,0:0:0:0:
161,95,6305,1,0,0:0:0:0:
214,159,6519,21,4,0:0:0:0:
214,159,6626,2,0,L|198:27,1,118.75
126,75,7376,2,0,P|97:54|62:47,2,71.25
150,211,8233,22,0,B|166:347|166:347|158:323|135:304,1,190
74,175,9412,1,0,0:0:0:0:
226,243,9733,1,0,0:0:0:0:
286,187,9948,5,4,0:0:0:0:
286,187,10055,2,0,P|290:144|297:97,2,71.25
268,205,10805,1,0,0:0:0:0:
234,63,11126,1,0,0:0:0:0:
374,103,11448,1,0,0:0:0:0:
293,116,11662,22,0,P|249:122|189:129,1,95
184,147,12198,1,0,0:0:0:0:
68,28,12412,1,0,0:0:0:0:
68,28,12519,2,0,P|117:25|164:62,1,95
164,72,13055,1,0,0:0:0:0:
114,222,13376,6,0,P|110:185|103:135,2,71.25,4|0|0,0:0|0:0|0:0,0:0:0:0:
216,292,14233,2,0,P|213:327|200:361,2,71.25
133,307,15091,38,0,B|119:329|113:360|113:360|98:282|98:282|5:184|-69:315|61:380|81:265|81:265|65:159|65:159|77:131|79:96,1,570
79,96,18519,5,4,0:0:0:0:
160,143,18733,1,0,0:0:0:0:
256,135,18948,1,8,0:0:0:0:
324,71,19162,1,0,0:0:0:0:
396,271,19376,5,0,0:0:0:0:
324,207,19591,1,0,0:0:0:0:
324,207,19698,1,0,0:0:0:0:
324,207,19805,1,8,0:0:0:0:
232,231,20019,1,0,0:0:0:0:
112,339,20233,5,0,0:0:0:0:
144,251,20448,1,0,0:0:0:0:
80,179,20662,1,8,0:0:0:0:
52,271,20876,1,0,0:0:0:0:
272,375,21091,6,0,P|260:331|220:283,1,95,8|0,0:0|0:0,0:0:0:0:
256,251,21412,2,0,P|264:203|280:131,1,95,8|0,0:0|0:0,0:0:0:0:
320,147,21733,1,8,0:0:0:0:
204,31,21948,22,0,P|120:15|152:91,1,190,4|8,0:0|0:0,0:0:0:0:
228,119,22591,1,0,0:0:0:0:
160,260,22805,2,0,P|124:225|72:217,1,95
52,181,23126,1,8,0:0:0:0:
116,40,23341,1,0,0:0:0:0:
116,40,23448,2,0,P|120:88|124:140,1,95,8|0,0:0|0:0,0:0:0:0:
136,316,23876,5,0,0:0:0:0:
196,244,24091,1,8,0:0:0:0:
284,276,24305,1,0,0:0:0:0:
284,276,24412,1,0,0:0:0:0:
284,276,24519,2,0,P|336:252|360:196,1,95,8|0,0:0|0:0,0:0:0:0:
392,252,24841,2,0,P|420:300|416:356,1,95,8|0,0:0|0:0,0:0:0:0:
392,376,25162,1,8,0:0:0:0:
476,224,25376,5,4,0:0:0:0:
476,224,25483,2,0,P|472:192|466:130,1,95
432,96,25805,2,0,P|384:92|336:44,1,95,8|0,0:0|0:0,0:0:0:0:
268,116,26233,2,0,P|219:165|227:233,2,142.5,0|8|8,0:0|0:0|0:0,0:0:0:0:
288,308,27091,6,0,P|241:315|194:324,1,95
111,381,27519,1,8,0:0:0:0:
40,324,27733,1,0,0:0:0:0:
40,324,27841,1,0,0:0:0:0:
40,324,27948,2,0,P|20:288|32:216,1,95
64,216,28269,2,0,P|72:164|84:96,1,95,8|0,0:0|0:0,0:0:0:0:
60,80,28591,1,8,0:0:0:0:
248,104,28805,22,0,B|264:240|264:240|256:216|232:196,1,190,4|8,0:0|0:0,0:0:0:0:
164,136,29448,1,0,0:0:0:0:
232,16,29662,2,0,P|281:21|321:53,1,95,0|8,0:0|0:0,0:0:0:0:
360,32,29983,2,0,P|352:72|340:144,1,95
308,156,30305,1,8,0:0:0:0:
392,204,30519,5,4,0:0:0:0:
392,204,30626,2,0,P|328:252|253:234,1,142.5,0|8,0:0|0:0,0:0:0:0:
212,164,31162,1,0,0:0:0:0:
68,264,31376,1,4,0:0:0:0:
68,264,31483,2,0,P|137:259|193:301,1,142.5,0|8,0:0|0:0,0:0:0:0:
232,384,32019,1,0,0:0:0:0:
424,284,32233,6,0,P|376:288|304:300,1,95,12|0,0:0|0:0,0:0:0:0:
284,312,32555,2,0,P|300:264|296:200,1,95,8|0,0:0|0:0,0:0:0:0:
328,180,32876,1,8,0:0:0:0:
72,136,33091,2,0,P|120:140|192:152,1,95,12|0,0:0|0:0,0:0:0:0:
212,164,33413,2,0,P|196:116|200:52,1,95,8|0,0:0|0:0,0:0:0:0:
168,32,33734,1,8,0:0:0:0:
296,208,33948,5,4,0:0:0:0:
212,164,34162,1,0,0:0:0:0:
288,108,34376,1,8,0:0:0:0:
124,176,34591,21,0,0:0:0:0:
124,176,34698,1,0,0:0:0:0:
124,176,34805,1,8,0:0:0:0:
268,160,35019,1,0,0:0:0:0:
268,160,35126,1,8,0:0:0:0:
100,264,35341,1,0,0:0:0:0:
100,264,35448,1,8,0:0:0:0:
299,300,35662,5,6,0:0:0:0:
318,309,35769,1,0,0:0:0:0:
342,311,35876,1,0,0:0:0:0:
365,305,35983,1,0,0:0:0:0:
385,292,36091,1,8,0:0:0:0:
397,272,36198,1,0,0:0:0:0:
402,248,36305,1,2,0:0:0:0:
399,225,36412,1,0,0:0:0:0:
388,203,36519,1,2,0:0:0:0:
370,187,36626,1,0,0:0:0:0:
347,180,36733,1,0,0:0:0:0:
322,180,36841,1,0,0:0:0:0:
299,189,36948,1,8,0:0:0:0:
282,206,37055,1,0,0:0:0:0:
272,228,37162,1,0,0:0:0:0:
269,252,37269,1,0,0:0:0:0:
264,275,37376,5,2,0:0:0:0:
257,297,37483,1,0,0:0:0:0:
244,318,37591,1,0,0:0:0:0:
226,334,37698,1,0,0:0:0:0:
204,345,37805,1,8,0:0:0:0:
181,349,37912,1,0,0:0:0:0:
156,347,38019,1,2,0:0:0:0:
133,340,38126,1,0,0:0:0:0:
113,326,38233,1,2,0:0:0:0:
97,308,38341,1,0,0:0:0:0:
87,285,38448,1,0,0:0:0:0:
83,261,38555,1,0,0:0:0:0:
85,238,38662,1,8,0:0:0:0:
94,215,38769,1,0,0:0:0:0:
107,195,38876,1,0,0:0:0:0:
124,181,38983,1,0,0:0:0:0:
146,172,39091,5,6,0:0:0:0:
169,168,39198,1,0,0:0:0:0:
192,172,39305,1,0,0:0:0:0:
213,183,39412,1,0,0:0:0:0:
224,203,39519,1,8,0:0:0:0:
229,226,39626,1,0,0:0:0:0:
224,249,39733,1,2,0:0:0:0:
210,268,39841,1,0,0:0:0:0:
189,280,39948,1,2,0:0:0:0:
165,282,40055,1,0,0:0:0:0:
143,275,40162,1,0,0:0:0:0:
124,259,40269,1,0,0:0:0:0:
115,239,40376,1,8,0:0:0:0:
113,216,40483,1,0,0:0:0:0:
122,194,40591,1,0,0:0:0:0:
138,176,40698,1,0,0:0:0:0:
159,164,40805,22,0,L|223:174,3,47.5,2|0|0|0,0:0|0:0|0:0|0:0,0:0:0:0:
223,187,41233,2,0,L|287:177,3,47.5,8|0|2|0,0:0|0:0|0:0|0:0,0:0:0:0:
285,160,41662,2,0,L|349:170,3,47.5,2|0|0|0,0:0|0:0|0:0|0:0,0:0:0:0:
349,182,42090,2,0,L|413:172,3,47.5,8|0|0|0,0:0|0:0|0:0|0:0,0:0:0:0:
419,168,42519,5,6,0:0:0:0:
439,156,42626,1,0,0:0:0:0:
454,137,42733,1,0,0:0:0:0:
462,114,42841,1,0,0:0:0:0:
462,90,42948,1,8,0:0:0:0:
453,67,43055,1,0,0:0:0:0:
437,49,43162,1,2,0:0:0:0:
415,40,43269,1,0,0:0:0:0:
391,37,43376,1,2,0:0:0:0:
369,44,43483,1,0,0:0:0:0:
349,57,43591,1,0,0:0:0:0:
337,77,43698,1,0,0:0:0:0:
332,100,43805,1,8,0:0:0:0:
336,123,43912,1,0,0:0:0:0:
345,143,44019,1,0,0:0:0:0:
358,162,44126,1,0,0:0:0:0:
363,185,44233,5,2,0:0:0:0:
362,208,44341,1,0,0:0:0:0:
355,230,44448,1,0,0:0:0:0:
343,250,44555,1,0,0:0:0:0:
324,264,44662,1,8,0:0:0:0:
301,271,44769,1,0,0:0:0:0:
278,268,44876,1,2,0:0:0:0:
256,258,44983,1,0,0:0:0:0:
238,241,45091,1,2,0:0:0:0:
227,219,45198,1,0,0:0:0:0:
224,195,45305,1,0,0:0:0:0:
230,171,45412,1,0,0:0:0:0:
243,150,45519,1,8,0:0:0:0:
262,136,45626,1,0,0:0:0:0:
284,129,45733,1,0,0:0:0:0:
308,128,45841,1,0,0:0:0:0:
331,134,45948,5,6,0:0:0:0:
314,151,46055,1,0,0:0:0:0:
292,159,46162,1,0,0:0:0:0:
268,160,46269,1,0,0:0:0:0:
245,153,46376,1,8,0:0:0:0:
226,139,46483,1,0,0:0:0:0:
209,120,46591,1,2,0:0:0:0:
199,98,46698,1,0,0:0:0:0:
184,79,46806,1,2,0:0:0:0:
164,64,46913,1,0,0:0:0:0:
141,58,47020,1,0,0:0:0:0:
117,59,47127,1,0,0:0:0:0:
95,67,47234,1,8,0:0:0:0:
76,80,47341,1,0,0:0:0:0:
62,98,47448,1,0,0:0:0:0:
55,120,47555,1,0,0:0:0:0:
56,143,47662,21,2,0:0:0:0:
62,165,47769,1,0,0:0:0:0:
75,184,47876,1,0,0:0:0:0:
94,197,47983,1,0,0:0:0:0:
115,205,48091,1,8,0:0:0:0:
139,204,48198,1,0,0:0:0:0:
162,197,48305,1,2,0:0:0:0:
180,181,48412,1,0,0:0:0:0:
194,161,48519,54,0,L|203:264,1,95,2|8,0:0|0:0,0:0:0:0:
404,345,49376,5,6,0:0:0:0:
438,344,49484,1,0,0:0:0:0:
466,326,49591,1,0,0:0:0:0:
481,297,49698,1,0,0:0:0:0:
481,264,49805,1,8,0:0:0:0:
467,235,49912,1,0,0:0:0:0:
436,216,50019,1,2,0:0:0:0:
402,215,50126,1,0,0:0:0:0:
371,229,50234,1,2,0:0:0:0:
348,253,50341,1,0,0:0:0:0:
318,268,50448,1,0,0:0:0:0:
285,267,50555,1,0,0:0:0:0:
258,249,50662,1,8,0:0:0:0:
240,220,50769,1,0,0:0:0:0:
244,187,50876,1,0,0:0:0:0:
259,157,50984,1,0,0:0:0:0:
283,134,51091,5,2,0:0:0:0:
252,147,51198,1,0,0:0:0:0:
220,149,51305,1,0,0:0:0:0:
189,138,51412,1,0,0:0:0:0:
164,115,51519,1,8,0:0:0:0:
149,85,51626,1,0,0:0:0:0:
127,59,51733,1,2,0:0:0:0:
97,45,51840,1,0,0:0:0:0:
64,48,51948,1,2,0:0:0:0:
37,65,52055,1,0,0:0:0:0:
20,94,52162,1,0,0:0:0:0:
19,126,52269,1,0,0:0:0:0:
35,154,52376,1,8,0:0:0:0:
61,174,52483,1,0,0:0:0:0:
94,177,52590,1,0,0:0:0:0:
125,165,52698,1,0,0:0:0:0:
152,146,52805,5,6,0:0:0:0:
184,137,52912,1,0,0:0:0:0:
216,143,53019,1,0,0:0:0:0:
239,166,53126,1,0,0:0:0:0:
249,199,53233,1,8,0:0:0:0:
240,231,53341,1,0,0:0:0:0:
216,253,53448,1,2,0:0:0:0:
199,280,53555,1,0,0:0:0:0:
199,313,53662,1,2,0:0:0:0:
211,343,53769,1,0,0:0:0:0:
235,366,53876,1,0,0:0:0:0:
267,375,53983,1,0,0:0:0:0:
299,369,54091,1,8,0:0:0:0:
327,350,54198,1,0,0:0:0:0:
343,320,54305,1,0,0:0:0:0:
344,286,54412,1,0,0:0:0:0:
336,253,54519,6,0,L|329:178,3,47.5,2|0|0|0,0:0|0:0|0:0|0:0,0:0:0:0:
349,177,54948,2,0,L|342:102,3,47.5,8|0|2|0,0:0|0:0|0:0|0:0,0:0:0:0:
433,197,55376,2,0,L|426:122,3,47.5,2|0|0|0,0:0|0:0|0:0|0:0,0:0:0:0:
447,118,55805,2,0,L|440:43,3,47.5,8|0|0|0,0:0|0:0|0:0|0:0,0:0:0:0:
344,129,56233,21,6,0:0:0:0:
316,103,56340,1,0,0:0:0:0:
310,65,56447,1,0,0:0:0:0:
331,33,56555,1,0,0:0:0:0:
363,13,56662,1,8,0:0:0:0:
400,15,56769,1,0,0:0:0:0:
431,36,56876,1,2,0:0:0:0:
443,71,56983,1,0,0:0:0:0:
439,108,57090,1,2,0:0:0:0:
410,133,57198,1,0,0:0:0:0:
374,146,57305,1,0,0:0:0:0:
336,142,57412,1,0,0:0:0:0:
303,121,57519,1,8,0:0:0:0:
266,109,57626,1,0,0:0:0:0:
229,117,57733,1,0,0:0:0:0:
200,142,57841,1,0,0:0:0:0:
186,177,57948,5,2,0:0:0:0:
161,149,58055,1,0,0:0:0:0:
127,136,58162,1,0,0:0:0:0:
89,147,58269,1,0,0:0:0:0:
60,171,58376,1,8,0:0:0:0:
51,208,58483,1,0,0:0:0:0:
62,246,58591,1,2,0:0:0:0:
89,273,58698,1,0,0:0:0:0:
126,282,58805,1,2,0:0:0:0:
162,277,58912,1,0,0:0:0:0:
191,252,59019,1,0,0:0:0:0:
228,246,59126,1,0,0:0:0:0:
263,258,59233,1,8,0:0:0:0:
282,290,59341,1,0,0:0:0:0:
284,327,59448,1,0,0:0:0:0:
263,359,59555,1,0,0:0:0:0:
228,375,59662,5,6,0:0:0:0:
226,337,59769,1,0,0:0:0:0:
246,305,59876,1,0,0:0:0:0:
280,290,59983,1,0,0:0:0:0:
317,294,60091,1,8,0:0:0:0:
348,314,60198,1,0,0:0:0:0:
373,342,60305,1,2,0:0:0:0:
407,357,60412,1,0,0:0:0:0:
444,349,60519,1,2,0:0:0:0:
471,324,60626,1,0,0:0:0:0:
478,286,60733,1,0,0:0:0:0:
465,249,60841,1,0,0:0:0:0:
432,228,60948,1,8,0:0:0:0:
402,203,61055,1,0,0:0:0:0:
391,166,61162,1,0,0:0:0:0:
400,129,61269,1,0,0:0:0:0:
426,101,61376,22,0,L|412:292,1,190,2|0,0:0|0:0,0:0:0:0:
412,290,62876,5,0,0:0:0:0:
244,356,63091,1,4,0:0:0:0:
244,356,63198,2,0,P|240:288|204:196,1,142.5,0|8,0:0|0:0,0:0:0:0:
148,156,63733,1,0,0:0:0:0:
224,100,63948,1,0,0:0:0:0:
248,124,64055,1,0,0:0:0:0:
278,137,64162,1,0,0:0:0:0:
310,137,64269,1,0,0:0:0:0:
342,125,64376,1,8,0:0:0:0:
363,99,64483,1,0,0:0:0:0:
371,66,64591,1,0,0:0:0:0:
368,32,64698,1,0,0:0:0:0:
345,7,64805,6,0,P|341:45|333:125,1,95
453,249,65233,2,0,P|407:256|371:286,1,95,8|0,0:0|0:0,0:0:0:0:
348,328,65555,21,0,0:0:0:0:
348,328,65662,2,0,P|292:340|228:360,1,95,8|0,0:0|0:0,0:0:0:0:
220,320,65983,2,0,P|172:292|152:240,1,95,8|0,0:0|0:0,0:0:0:0:
160,212,66305,1,8,0:0:0:0:
256,84,66519,54,0,P|252:136|244:200,1,95,4|0,0:0|0:0,0:0:0:0:
370,286,66948,1,8,0:0:0:0:
396,128,67162,1,0,0:0:0:0:
247,178,67376,5,0,0:0:0:0:
230,150,67483,1,0,0:0:0:0:
201,132,67590,1,0,0:0:0:0:
168,127,67697,1,0,0:0:0:0:
136,139,67804,1,8,0:0:0:0:
103,148,67911,1,0,0:0:0:0:
72,140,68019,1,0,0:0:0:0:
46,118,68126,1,0,0:0:0:0:
32,87,68233,2,0,P|28:50|64:-7,1,95
168,127,68662,2,0,P|164:172|160:232,1,95,8|0,0:0|0:0,0:0:0:0:
108,348,69091,22,8,P|156:336|200:328,1,95,0|0,0:0|0:0,0:0:0:0:
228,288,69412,2,0,P|252:247|250:200,1,95,8|0,0:0|0:0,0:0:0:0:
220,164,69733,1,8,0:0:0:0:
316,68,69948,6,0,B|420:96|396:4|496:36,2,190,4|8|0,0:0|0:0|0:0,0:0:0:0:
320,164,71019,1,0,0:0:0:0:
236,120,71233,2,0,P|232:72|224:16,1,95,8|0,0:0|0:0,0:0:0:0:
400,112,71662,5,4,0:0:0:0:
396,144,71769,1,0,0:0:0:0:
392,176,71876,1,0,0:0:0:0:
388,208,71983,1,0,0:0:0:0:
360,228,72091,1,8,0:0:0:0:
364,260,72198,1,0,0:0:0:0:
368,292,72305,1,0,0:0:0:0:
372,324,72412,1,0,0:0:0:0:
352,348,72519,6,0,P|320:304|272:288,1,95,8|0,0:0|0:0,0:0:0:0:
244,260,72841,2,0,P|208:268|136:280,1,95,8|0,0:0|0:0,0:0:0:0:
128,320,73162,1,8,0:0:0:0:
84,164,73376,22,0,P|96:88|104:12,1,142.5,4|0,0:0|0:0,0:0:0:0:
204,144,73805,2,0,P|192:220|184:296,1,142.5,8|0,0:0|0:0,0:0:0:0:
136,96,74233,2,0,P|212:108|288:116,1,142.5
156,216,74662,2,0,P|80:204|4:196,1,142.5,8|0,0:0|0:0,0:0:0:0:
84,164,75091,54,0,B|128:142|136:96|136:96|157:137|204:144|204:144|166:167|156:216|156:216|131:173|84:168,1,332.5
16,196,76805,38,0,P|8:132|0:88,1,95,4|0,0:0|0:0,0:0:0:0:
116,0,77341,2,0,P|112:20|108:44,1,23.75
145,156,77555,6,0,B|215:190|271:130|271:130|327:70|404:105,1,285
200,280,80233,37,4,0:0:0:0:
200,280,80341,2,0,P|264:324|340:296,1,142.5,0|8,0:0|0:0,0:0:0:0:
276,228,80876,1,0,0:0:0:0:
120,332,81090,2,0,P|116:284|100:224,1,95,8|0,0:0|0:0,0:0:0:0:
72,204,81411,1,8,0:0:0:0:
172,44,81626,1,0,0:0:0:0:
172,44,81733,2,0,P|164:91|188:143,1,95,8|0,0:0|0:0,0:0:0:0:
268,176,82161,5,0,0:0:0:0:
256,80,82376,2,0,P|304:76|354:69,1,95,8|0,0:0|0:0,0:0:0:0:
476,184,82805,2,0,P|464:260|460:356,1,142.5,8|0,0:0|0:0,0:0:0:0:
456,372,83233,2,0,P|416:304|332:292,1,142.5,8|0,0:0|0:0,0:0:0:0:
316,264,83662,5,4,0:0:0:0:
316,264,83769,2,0,P|308:204|296:152,1,95
324,128,84091,1,8,0:0:0:0:
236,88,84305,1,0,0:0:0:0:
180,164,84519,1,0,0:0:0:0:
180,163,84626,2,0,P|127:167|91:147,1,95
52,120,84948,2,0,P|48:172|36:228,1,95,8|0,0:0|0:0,0:0:0:0:
80,372,85376,21,0,0:0:0:0:
192,272,85591,1,0,0:0:0:0:
100,288,85805,2,0,B|204:316|180:224|280:256,1,190,8|0,0:0|0:0,0:0:0:0:
248,344,86448,1,0,0:0:0:0:
132,204,86662,1,8,0:0:0:0:
132,204,86769,1,0,0:0:0:0:
348,316,87091,6,0,P|356:264|372:196,1,95,12|0,0:0|0:0,0:0:0:0:
396,188,87412,2,0,P|400:136|352:84,1,95,8|0,0:0|0:0,0:0:0:0:
336,80,87733,1,8,0:0:0:0:
277,255,87948,5,0,0:0:0:0:
185,283,88162,1,0,0:0:0:0:
97,247,88376,1,8,0:0:0:0:
61,159,88591,1,0,0:0:0:0:
138,330,88805,6,0,P|126:286|86:238,1,95,12|0,0:0|0:0,0:0:0:0:
137,219,89126,2,0,P|145:171|161:99,1,95,8|0,0:0|0:0,0:0:0:0:
137,83,89447,1,8,0:0:0:0:
348,52,89662,21,0,0:0:0:0:
372,144,89876,1,0,0:0:0:0:
324,224,90091,1,8,0:0:0:0:
344,316,90305,1,0,0:0:0:0:
440,72,90519,5,4,0:0:0:0:
416,256,90733,1,0,0:0:0:0:
348,52,90948,5,8,0:0:0:0:
360,184,91162,1,0,0:0:0:0:
232,120,91376,5,4,0:0:0:0:
242,236,91591,1,0,0:0:0:0:
168,56,91805,21,8,0:0:0:0:
152,316,92019,1,0,0:0:0:0:
8,152,92233,54,0,B|144:136|144:136|120:144|100:168,1,190,4|0,0:0|0:0,0:0:0:0:
34,310,93626,5,0,0:0:0:0:
34,310,93733,1,0,0:0:0:0:
34,310,93841,1,0,0:0:0:0:
34,310,93948,5,6,0:0:0:0:
69,277,94055,1,0,0:0:0:0:
79,230,94162,1,0,0:0:0:0:
68,183,94269,1,0,0:0:0:0:
31,153,94376,1,8,0:0:0:0:
2,115,94483,1,0,0:0:0:0:
7,67,94591,1,2,0:0:0:0:
37,30,94698,1,0,0:0:0:0:
84,24,94805,1,2,0:0:0:0:
125,46,94912,1,0,0:0:0:0:
141,90,95019,1,0,0:0:0:0:
138,137,95126,1,0,0:0:0:0:
162,178,95233,1,8,0:0:0:0:
206,195,95341,1,0,0:0:0:0:
249,180,95448,1,0,0:0:0:0:
276,140,95555,1,0,0:0:0:0:
271,93,95662,5,2,0:0:0:0:
310,120,95769,1,0,0:0:0:0:
357,118,95876,1,0,0:0:0:0:
394,90,95983,1,0,0:0:0:0:
438,73,96091,1,8,0:0:0:0:
483,85,96198,1,0,0:0:0:0:
511,123,96305,1,2,0:0:0:0:
511,170,96412,1,0,0:0:0:0:
484,209,96519,1,2,0:0:0:0:
438,223,96626,1,0,0:0:0:0:
396,205,96733,1,0,0:0:0:0:
347,200,96841,1,0,0:0:0:0:
302,215,96948,1,10,0:0:0:0:
276,254,97055,1,0,0:0:0:0:
276,301,97162,1,0,0:0:0:0:
305,337,97269,1,0,0:0:0:0:
349,352,97376,5,6,0:0:0:0:
354,304,97483,1,0,0:0:0:0:
323,267,97591,1,0,0:0:0:0:
276,254,97698,1,0,0:0:0:0:
233,276,97805,1,8,0:0:0:0:
206,315,97912,1,0,0:0:0:0:
186,358,98019,1,2,0:0:0:0:
143,379,98126,1,0,0:0:0:0:
96,373,98233,1,2,0:0:0:0:
67,335,98341,1,0,0:0:0:0:
65,287,98448,1,0,0:0:0:0:
95,250,98555,1,0,0:0:0:0:
139,236,98662,1,8,0:0:0:0:
182,215,98769,1,0,0:0:0:0:
200,171,98876,1,0,0:0:0:0:
195,123,98983,1,0,0:0:0:0:
157,89,99091,22,0,L|215:83,3,47.5,2|0|0|0,0:0|0:0|0:0|0:0,0:0:0:0:
336,121,99519,2,0,L|288:125,3,47.5,8|0|2|0,0:0|0:0|0:0|0:0,0:0:0:0:
270,2,99948,2,0,P|272:30|276:60,3,47.5,2|0|0|0,0:0|0:0|0:0|0:0,0:0:0:0:
221,209,100376,2,0,P|219:181|215:151,3,47.5,8|0|0|0,0:0|0:0|0:0|0:0,0:0:0:0:
140,30,100805,5,6,0:0:0:0:
85,11,100912,1,0,0:0:0:0:
32,32,101019,1,0,0:0:0:0:
5,82,101126,1,0,0:0:0:0:
17,138,101234,1,8,0:0:0:0:
62,171,101341,1,0,0:0:0:0:
118,165,101448,1,2,0:0:0:0:
167,136,101555,1,0,0:0:0:0:
212,101,101662,1,2,0:0:0:0:
268,98,101769,1,0,0:0:0:0:
320,120,101876,1,0,0:0:0:0:
346,170,101984,1,0,0:0:0:0:
344,226,102091,1,10,0:0:0:0:
308,270,102198,1,0,0:0:0:0:
253,287,102305,1,0,0:0:0:0:
197,275,102412,1,0,0:0:0:0:
166,226,102519,5,2,0:0:0:0:
226,220,102626,1,0,0:0:0:0:
274,260,102734,1,0,0:0:0:0:
282,320,102841,1,0,0:0:0:0:
246,372,102948,1,8,0:0:0:0:
186,384,103055,1,0,0:0:0:0:
134,352,103162,1,2,0:0:0:0:
114,292,103269,1,0,0:0:0:0:
139,235,103376,1,2,0:0:0:0:
154,174,103484,1,0,0:0:0:0:
120,122,103591,1,0,0:0:0:0:
59,110,103698,1,0,0:0:0:0:
7,144,103805,1,8,0:0:0:0:
0,205,103912,1,0,0:0:0:0:
33,256,104019,1,0,0:0:0:0:
93,269,104126,1,0,0:0:0:0:
139,235,104234,5,6,0:0:0:0:
151,169,104341,1,0,0:0:0:0:
114,113,104448,1,0,0:0:0:0:
117,46,104555,1,0,0:0:0:0:
169,5,104662,1,8,0:0:0:0:
234,12,104769,1,0,0:0:0:0:
275,63,104876,1,2,0:0:0:0:
268,129,104984,1,0,0:0:0:0:
271,195,105091,1,2,0:0:0:0:
326,231,105198,1,0,0:0:0:0:
387,206,105305,1,0,0:0:0:0:
453,203,105412,1,0,0:0:0:0:
501,248,105519,1,8,0:0:0:0:
506,314,105626,1,0,0:0:0:0:
460,366,105734,1,0,0:0:0:0:
393,366,105841,1,0,0:0:0:0:
350,313,105948,6,0,B|359:197|359:197|347:141|347:141|357:12,1,285,6|0,0:0|0:0,0:0:0:0:
204,372,107662,22,0,P|196:328|188:252,1,95,12|0,0:0|0:0,0:0:0:0:
204,232,107983,2,0,P|164:200|84:212,1,95,8|0,0:0|0:0,0:0:0:0:
80,216,108305,1,8,0:0:0:0:
308,12,108519,2,0,P|316:56|324:132,1,95,8|0,0:0|0:0,0:0:0:0:
308,152,108840,2,0,P|348:184|428:172,1,95,8|0,0:0|0:0,0:0:0:0:
432,168,109162,1,8,0:0:0:0:
256,192,109376,12,0,110662,0:0:0:0:
324,204,111091,6,0,P|344:160|408:132,1,95,6|0,0:0|0:0,0:0:0:0:
460,108,111412,2,0,P|408:108|352:96,1,95,2|0,0:0|0:0,0:0:0:0:
300,52,111733,1,2,0:0:0:0:
184,332,111948,2,0,P|164:288|100:260,1,95,2|0,0:0|0:0,0:0:0:0:
48,236,112269,2,0,P|100:236|156:224,1,95,2|0,0:0|0:0,0:0:0:0:
208,180,112590,1,2,0:0:0:0:
256,192,112805,12,0,114091,0:0:0:0:
80,124,114519,6,0,P|128:141|169:194,1,95,6|0,0:0|0:0,0:0:0:0:
214,96,114841,2,0,P|175:132|156:194,1,95,10|0,0:0|0:0,0:0:0:0:
136,54,115162,1,10,0:0:0:0:
425,309,115376,2,0,P|376:326|335:379,1,95,14|0,0:0|0:0,0:0:0:0:
291,281,115698,2,0,P|329:317|348:379,1,95,10|0,0:0|0:0,0:0:0:0:
369,239,116019,1,10,0:0:0:0:
248,124,116233,21,0,0:0:0:0:
450,208,116448,1,2,0:0:0:0:
450,208,116555,1,0,0:0:0:0:
450,208,116662,1,8,0:0:0:0:
330,91,116876,1,2,0:0:0:0:
369,239,117091,54,0,B|364:202|372:171|372:171|284:208|189:159|180:-16|316:-56|424:-4|421:97|421:97|440:73|468:60|468:60|453:102|470:135|470:135|434:204|457:272|457:272|402:307|383:377,1,950,14|0,0:0|0:0,0:0:0:0:
