osu file format v14

[General]
AudioFilename: Round.mp3
AudioLeadIn: 1500
PreviewTime: 80233
Countdown: 0
SampleSet: Soft
StackLeniency: 0.5
Mode: 0
LetterboxInBreaks: 0
EpilepsyWarning: 1
WidescreenStoryboard: 0

[Editor]
Bookmarks: 18520,35662,45948,49377,62877,93627,105948,121376
DistanceSpacing: 1
BeatDivisor: 4
GridSize: 16
TimelineZoom: 1

[Metadata]
Title:Insaengui Huejeonmongma(ppongjjak ver.)
TitleUnicode:인생의 회전목마(뽕짝 ver.)
Artist:Pianom
ArtistUnicode:피아놈
Creator:jieusieu
Version:Enon's Easy
Source:
Tags:ハウルの動く城 ジブリ 人生のメリーゴーランド Howl's Moving Castle Merry Go Round of Life Ghibli Happil Enon Kaburagi Kotetsu bbj0920
BeatmapID:1049387
BeatmapSetID:50074

[Difficulty]
HPDrainRate:3
CircleSize:3
OverallDifficulty:2
ApproachRate:2
SliderMultiplier:1.15
SliderTickRate:1

[Events]
//Background and Video events
0,0,"thebluehouse.jpg",0,0
//Break Periods
//Storyboard Layer 0 (Background)
//Storyboard Layer 1 (Fail)
//Storyboard Layer 2 (Pass)
//Storyboard Layer 3 (Foreground)
//Storyboard Sound Samples

[TimingPoints]
520,428.571428571429,4,2,0,30,1,0
3091,428.571428571429,4,2,0,50,1,0
18519,-100,4,1,1,40,0,0
35662,-100,4,1,2,40,0,0
35769,-100,4,1,1,40,0,0
80233,-100,4,1,1,60,0,1
93091,-100,4,1,1,50,0,0
93948,-100,4,1,2,60,0,1
94055,-100,4,1,1,60,0,1
106805,-100,4,1,1,40,0,0
111091,-100,4,1,1,45,0,0
114519,-100,4,1,1,50,0,0
116233,-100,4,1,1,60,0,1
117091,-100,4,1,1,50,0,1
117948,-100,4,1,1,40,0,1
118805,-100,4,1,1,30,0,1
119662,-100,4,1,1,20,0,1
120519,-100,4,1,1,10,0,1
121376,-100,4,2,0,5,0,0

[Colours]
Combo1 : 125,51,2
Combo2 : 206,192,151
Combo3 : 128,128,64
Combo4 : 148,113,69

[HitObjects]
480,304,520,6,0,B|240:224|272:384|32:304,1,460
46,74,3091,6,0,L|275:60,1,230,4|0,0:0|0:0,0:0:0:0:
256,174,4376,1,0,0:0:0:0:
236,287,4805,2,0,L|465:273,1,230
506,381,6091,1,0,0:0:0:0:
392,366,6519,6,0,P|347:264|415:165,1,230
509,123,7805,1,0,0:0:0:0:
421,48,8233,2,0,L|191:34,1,230
256,130,9519,1,0,0:0:0:0:
320,225,9948,6,0,P|211:236|142:144,1,230,4|0,0:0|0:0,0:0:0:0:
256,130,11233,1,0,0:0:0:0:
369,112,11662,2,0,P|301:25|192:35,1,230
256,130,12948,1,0,0:0:0:0:
320,225,13376,6,0,L|497:212,1,172.5
511,265,14233,2,0,P|481:343|401:366,1,172.5
345,353,15091,1,0,0:0:0:0:
345,353,18519,6,0,L|337:214,1,115,4|8,0:0|0:0,0:0:0:0:
261,324,19376,2,0,L|254:209,1,115,0|8,0:0|0:0,0:0:0:0:
177,295,20233,2,0,L|170:180,1,115,0|8,0:0|0:0,0:0:0:0:
93,266,21091,2,0,L|82:89,1,172.5
58,41,21948,6,0,P|151:98|279:73,1,230,4|0,0:0|0:0,0:0:0:0:
355,9,23233,1,8,0:0:0:0:
464,45,23662,2,0,L|449:283,1,230
505,375,24948,1,8,0:0:0:0:
390,369,25376,6,0,P|340:270|399:176,1,230
450,275,26662,1,8,0:0:0:0:
491,167,27091,2,0,P|422:83|320:119,1,230
251,212,28376,1,8,0:0:0:0:
309,311,28805,6,0,L|75:293,1,230,4|0,0:0|0:0,0:0:0:0:
22,194,30091,1,8,0:0:0:0:
136,203,30519,2,0,L|250:211,1,115,0|8,0:0|0:0,0:0:0:0:
315,116,31376,2,0,L|200:107,1,115,0|8,0:0|0:0,0:0:0:0:
251,211,32233,6,0,P|333:227|403:181,1,172.5,4|8,0:0|0:0,0:0:0:0:
445,140,33091,2,0,L|418:311,1,172.5,0|8,0:0|0:0,0:0:0:0:
449,358,33948,1,4,0:0:0:0:
449,358,35662,6,0,L|307:345,1,115,6|8,0:0|0:0,0:0:0:0:
268,253,36519,2,0,L|383:264,1,115,2|8,0:0|0:0,0:0:0:0:
466,185,37376,2,0,L|324:172,1,115,2|8,0:0|0:0,0:0:0:0:
285,80,38233,2,0,L|400:91,1,115,2|8,0:0|0:0,0:0:0:0:
466,185,39091,6,0,P|466:243|431:289,1,115,6|8,0:0|0:0,0:0:0:0:
328,333,39948,2,0,L|321:219,1,115,2|8,0:0|0:0,0:0:0:0:
210,185,40805,2,0,L|218:300,1,115,2|8,0:0|0:0,0:0:0:0:
105,274,41662,2,0,L|93:101,1,172.5,2|2,0:0|0:0,0:0:0:0:
57,56,42519,6,0,P|108:80|165:77,1,115,6|8,0:0|0:0,0:0:0:0:
275,44,43376,2,0,P|331:41|383:66,1,115,2|8,0:0|0:0,0:0:0:0:
487,116,44233,2,0,L|478:2,1,115,2|8,0:0|0:0,0:0:0:0:
383,66,45091,2,0,L|393:181,1,115,2|8,0:0|0:0,0:0:0:0:
405,295,45948,6,0,P|354:269|298:271,1,115,6|8,0:0|0:0,0:0:0:0:
191,314,46805,2,0,P|217:264|215:208,1,115,2|8,0:0|0:0,0:0:0:0:
167,102,47662,2,0,L|402:123,1,230,2|0,0:0|0:0,0:0:0:0:
474,37,48948,1,8,0:0:0:0:
487,150,49376,6,0,L|498:265,1,115,6|8,0:0|0:0,0:0:0:0:
407,335,50233,2,0,L|396:220,1,115,2|8,0:0|0:0,0:0:0:0:
292,169,51091,2,0,L|303:284,1,115,2|8,0:0|0:0,0:0:0:0:
212,354,51948,2,0,L|201:239,1,115,2|8,0:0|0:0,0:0:0:0:
128,150,52805,6,0,P|73:139|21:161,1,115,6|8,0:0|0:0,0:0:0:0:
93,251,53662,2,0,P|148:262|200:239,1,115,2|8,0:0|0:0,0:0:0:0:
276,152,54519,2,0,L|286:267,1,115,2|8,0:0|0:0,0:0:0:0:
300,380,55376,2,0,P|359:319|443:310,1,172.5,2|2,0:0|0:0,0:0:0:0:
497,327,56233,6,0,L|507:197,1,115,6|8,0:0|0:0,0:0:0:0:
409,149,57091,2,0,L|399:279,1,115,6|8,0:0|0:0,0:0:0:0:
320,346,57948,2,0,P|263:355|209:337,1,115,2|8,0:0|0:0,0:0:0:0:
161,232,58805,2,0,P|217:222|270:241,1,115,2|8,0:0|0:0,0:0:0:0:
377,283,59662,6,0,L|357:101,1,172.5,6|2,0:0|0:0,0:0:0:0:
341,56,60519,2,0,P|392:129|493:125,1,172.5,2|2,0:0|0:0,0:0:0:0:
503,89,61376,1,6,0:0:0:0:
184,348,63091,6,0,L|173:118,1,230,4|0,0:0|0:0,0:0:0:0:
78,52,64376,1,8,0:0:0:0:
75,167,64805,2,0,P|130:156|173:118,1,115,0|8,0:0|0:0,0:0:0:0:
251,33,65662,2,0,L|256:148,1,115,0|8,0:0|0:0,0:0:0:0:
363,191,66519,6,0,P|447:153|461:18,1,230,4|0,0:0|0:0,0:0:0:0:
362,77,67805,1,8,0:0:0:0:
268,143,68233,2,0,L|282:319,1,172.5
308,366,69091,2,0,P|217:332|134:352,1,172.5
94,373,69948,6,0,P|112:317|91:245,1,115,4|8,0:0|0:0,0:0:0:0:
40,165,70805,2,0,P|22:109|43:37,1,115,0|8,0:0|0:0,0:0:0:0:
137,103,71662,2,0,L|333:98,1,172.5
356,65,72519,2,0,P|318:120|356:223,1,172.5
403,210,73376,6,0,L|381:345,1,115,4|8,0:0|0:0,0:0:0:0:
275,359,74233,2,0,L|293:245,1,115,0|8,0:0|0:0,0:0:0:0:
190,192,75091,2,0,P|140:162|186:329,1,460,0|4,0:0|0:0,0:0:0:0:
168,222,80233,6,0,L|176:337,1,115,4|8,0:0|0:0,0:0:0:0:
78,274,81091,2,0,L|70:159,1,115,0|8,0:0|0:0,0:0:0:0:
183,134,81948,2,0,L|313:126,1,115,0|8,0:0|0:0,0:0:0:0:
221,40,82805,2,0,L|107:48,1,115,0|8,0:0|0:0,0:0:0:0:
183,134,83662,6,0,P|205:192|188:249,1,115,4|8,0:0|0:0,0:0:0:0:
103,314,84519,2,0,P|81:256|98:199,1,115,0|8,0:0|0:0,0:0:0:0:
183,134,85376,2,0,L|313:126,1,115,0|8,0:0|0:0,0:0:0:0:
362,31,86233,2,0,L|248:39,1,115,0|8,0:0|0:0,0:0:0:0:
183,134,87091,6,0,P|218:178|224:235,1,115,4|8,0:0|0:0,0:0:0:0:
112,224,87948,1,0,0:0:0:0:
112,224,88376,1,8,0:0:0:0:
160,336,88805,2,0,P|216:342|260:378,1,115,0|8,0:0|0:0,0:0:0:0:
368,352,89662,1,0,0:0:0:0:
368,352,90091,1,8,0:0:0:0:
416,256,90519,6,0,P|380:210|374:154,1,115,4|8,0:0|0:0,0:0:0:0:
368,48,91376,2,0,P|322:83|266:89,1,115,0|8,0:0|0:0,0:0:0:0:
160,96,92233,2,0,P|224:192|192:304,1,230
96,352,93519,1,8,0:0:0:0:
30,259,93948,6,0,L|35:144,1,115,6|8,0:0|0:0,0:0:0:0:
139,93,94805,2,0,L|133:207,1,115,2|8,0:0|0:0,0:0:0:0:
230,269,95662,2,0,L|235:154,1,115,2|8,0:0|0:0,0:0:0:0:
340,103,96519,2,0,L|334:217,1,115,2|8,0:0|0:0,0:0:0:0:
408,306,97376,6,0,P|464:310|512:280,1,115,6|8,0:0|0:0,0:0:0:0:
439,192,98233,2,0,P|382:187|334:217,1,115,2|8,0:0|0:0,0:0:0:0:
247,293,99091,2,0,L|237:162,1,115,2|8,0:0|0:0,0:0:0:0:
139,119,99948,2,0,L|152:301,1,172.5,2|2,0:0|0:0,0:0:0:0:
137,346,100805,6,0,P|81:357|29:331,1,115,6|8,0:0|0:0,0:0:0:0:
88,232,101662,2,0,P|138:207|194:216,1,115,2|8,0:0|0:0,0:0:0:0:
297,268,102519,2,0,L|288:153,1,115,2|8,0:0|0:0,0:0:0:0:
385,91,103376,2,0,L|393:205,1,115,2|8,0:0|0:0,0:0:0:0:
438,311,104233,6,0,P|384:292|328:301,1,115,6|8,0:0|0:0,0:0:0:0:
225,352,105091,2,0,P|244:298|234:242,1,115,2|8,0:0|0:0,0:0:0:0:
151,163,105948,2,0,L|406:144,1,230,2|0,0:0|0:0,0:0:0:0:
445,51,107233,1,8,0:0:0:0:
506,148,107662,6,0,P|450:212|453:296,1,172.5,4|8,0:0|0:0,0:0:0:0:
479,347,108519,2,0,L|300:328,1,172.5,8|8,0:0|0:0,0:0:0:0:
256,355,109376,1,8,0:0:0:0:
256,355,111091,6,0,L|245:173,1,172.5,6|8,0:0|0:0,0:0:0:0:
261,127,111948,2,0,P|212:169|98:139,1,172.5,10|8,0:0|0:0,0:0:0:0:
71,110,112805,1,8,0:0:0:0:
71,110,114519,6,0,B|50:308,1,172.5,6|8,0:0|0:0,0:0:0:0:
32,333,115376,2,0,P|111:303|185:340,1,172.5,10|8,0:0|0:0,0:0:0:0:
233,372,116233,2,0,P|329:336|289:242,1,230,10|4,0:0|0:0,0:0:0:0:
256,192,117198,12,0,121376,0:0:0:0:
