osu file format v14

[General]
AudioFilename: Round.mp3
AudioLeadIn: 1500
PreviewTime: 80233
Countdown: 0
SampleSet: Soft
StackLeniency: 0.3
Mode: 0
LetterboxInBreaks: 0
EpilepsyWarning: 1
WidescreenStoryboard: 0

[Editor]
Bookmarks: 18520,35662,45948,49377,62877,93627,105948,121376
DistanceSpacing: 1
BeatDivisor: 4
GridSize: 4
TimelineZoom: 1

[Metadata]
Title:Insaengui Huejeonmongma(ppongjjak ver.)
TitleUnicode:인생의 회전목마(뽕짝 ver.)
Artist:Pianom
ArtistUnicode:피아놈
Creator:jieusieu
Version:bbHard
Source:
Tags:ハウルの動く城 ジブリ 人生のメリーゴーランド Howl's Moving Castle Merry Go Round of Life Ghibli Happil Enon Kaburagi Kotetsu bbj0920
BeatmapID:1049386
BeatmapSetID:50074

[Difficulty]
HPDrainRate:5
CircleSize:4
OverallDifficulty:5.5
ApproachRate:7.4
SliderMultiplier:1.28
SliderTickRate:2

[Events]
//Background and Video events
0,0,"thebluehouse.jpg",0,0
//Break Periods
//Storyboard Layer 0 (Background)
//Storyboard Layer 1 (Fail)
//Storyboard Layer 2 (Pass)
//Storyboard Layer 3 (Foreground)
//Storyboard Sound Samples

[TimingPoints]
520,428.571428571429,4,2,0,17,1,0
520,-200,4,2,0,17,0,0
627,-200,4,2,0,5,0,0
1377,-200,4,2,0,17,0,0
1484,-200,4,2,0,5,0,0
2234,-200,4,2,0,17,0,0
3091,428.571428571429,4,2,0,35,1,0
15091,-400,4,2,0,26,0,0
15198,-400,4,2,0,5,0,0
18519,-80,4,2,0,39,0,0
47769,-80,4,2,0,5,0,0
49376,-80,4,2,0,43,0,0
51948,-113.636363636364,4,2,0,49,0,0
52805,-80,4,2,0,43,0,0
61483,-80,4,2,0,5,0,0
63091,-80,4,2,0,43,0,0
65662,-113.636363636364,4,2,0,43,0,0
66519,-80,4,2,0,43,0,0
76376,-80,4,2,0,5,0,0
76805,-80,4,2,0,43,0,0
80233,-80,4,2,1,43,0,0
82805,-113.636363636364,4,2,0,43,0,0
83662,-80,4,2,1,43,0,0
92233,-80,4,2,0,53,0,0
93948,-80,4,2,1,53,0,0
105948,-80,4,2,0,53,0,0
116448,-80,4,2,1,53,0,0
117091,-80,4,2,0,53,0,0
119662,-80,4,2,0,35,0,0
120091,-80,4,2,0,27,0,0
120519,-80,4,2,0,19,0,0
120948,-80,4,2,0,11,0,0
121055,-80,4,2,0,5,0,0

[Colours]
Combo1 : 125,51,2
Combo2 : 206,192,151
Combo3 : 128,128,64
Combo4 : 148,113,69

[HitObjects]
256,192,520,6,0,B|272:160|256:130|256:130|240:100|256:68,2,128,0|0|0,0:0|0:1|0:1,0:0:0:0:
256,192,3091,6,0,P|196:184|144:232,1,128,0|2,0:0|0:0,0:0:0:0:
239,334,3948,2,0,L|342:341,2,96,2|2|0,0:0|0:0|0:0,0:0:0:0:
173,308,4805,2,0,B|123:303|123:303|86:332|25:317|11:261,1,192,2|0,0:0|0:0,0:0:0:0:
81,246,5662,2,0,L|76:133,2,96,0|0|2,0:0|0:0|0:0,0:0:0:0:
151,234,6519,5,2,0:0:0:0:
151,234,6626,2,0,P|212:186|223:109,1,160,2|2,0:0|0:0,0:0:0:0:
183,49,7376,2,0,P|135:30|70:43,2,96,2|2|0,0:0|0:0|0:0,0:0:0:0:
254,43,8233,2,0,B|312:25|346:58|346:58|381:89|435:72,1,192,2|0,0:0|0:0,0:0:0:0:
496,107,9091,6,0,P|504:56|474:13,2,96,0|0|2,0:0|0:0|0:0,0:0:0:0:
456,166,9948,1,2,0:0:0:0:
456,166,10055,2,0,L|452:244,1,64,2|0,0:0|0:0,0:0:0:0:
443,242,10376,2,0,P|392:238|353:273,1,96,2|0,0:0|0:0,0:0:0:0:
351,278,10805,2,0,P|348:319|381:361,2,96,2|0|2,0:0|0:0|0:0,0:0:0:0:
286,248,11662,6,0,L|147:246,1,128,2|2,0:0|0:0,0:0:0:0:
144,253,12198,2,0,P|105:253|77:235,1,64,2|0,0:0|0:0,0:0:0:0:
76,228,12519,6,0,L|68:90,1,128,2|0,0:0|0:0,0:0:0:0:
68,85,13055,1,2,0:0:0:0:
167,48,13376,6,0,P|211:28|265:41,2,96,2|0|2,0:0|0:0|0:0,0:0:0:0:
197,113,14233,2,0,P|192:161|154:201,2,96,2|2|0,0:0|0:0|0:0,0:0:0:0:
197,113,15091,6,0,L|374:122,1,176,2|0,0:0|0:0,0:0:0:0:
372,122,18519,5,0,1:0:0:0:
452,98,18733,2,0,P|455:133|437:177,1,80,2|0,0:0|0:0,0:0:0:0:
361,206,19162,2,0,P|321:190|296:158,1,80,2|0,0:0|0:0,0:0:0:0:
264,85,19591,2,0,L|185:76,1,80,2|0,0:0|0:0,0:0:0:0:
120,130,20019,2,0,L|41:121,1,80,2|0,0:0|0:0,0:0:0:0:
0,195,20448,6,0,P|-5:234|14:270,1,80,2|0,0:0|0:0,0:0:0:0:
77,323,20876,1,2,0:0:0:0:
158,299,21091,2,0,P|208:297|268:358,2,120,0|2|2,0:0|0:0|0:0,0:0:0:0:
99,239,21948,6,0,L|143:65,1,160,2|2,0:0|0:0,0:0:0:0:
202,29,22591,1,2,0:0:0:0:
283,50,22805,2,0,B|316:58|341:45|341:45|367:33|400:41,2,120,2|2|0,0:0|0:0|0:0,0:0:0:0:
246,126,23662,6,0,P|273:194|357:214,1,160,2|0,0:0|0:0,0:0:0:0:
416,161,24305,1,2,0:0:0:0:
473,223,24519,2,0,B|466:303|466:303|438:346,1,120,8|0,0:3|0:0,0:0:0:0:
438,345,24948,2,0,P|402:360|362:354,1,80,8|2,0:3|0:0,0:0:0:0:
296,303,25376,5,4,0:3:0:0:
296,303,25483,2,0,P|240:286|189:316,1,120,2|2,0:0|0:0,0:0:0:0:
129,374,26019,1,2,0:0:0:0:
75,310,26233,2,0,L|68:231,1,80,2|0,0:0|0:0,0:0:0:0:
76,219,26555,2,0,B|97:186|97:186|89:106,1,120,2|0,0:0|0:0,0:0:0:0:
160,62,27091,6,0,B|203:53|230:88|230:88|258:125|301:116,1,160,2|0,0:0|0:0,0:0:0:0:
380,89,27733,1,0,0:0:0:0:
380,89,27841,1,0,0:0:0:0:
380,89,27948,2,0,P|380:142|331:194,2,120,0|2|2,0:0|0:0|0:0,0:0:0:0:
318,31,28805,6,0,L|226:36,1,80,2|0,0:0|0:0,0:0:0:0:
155,41,29233,1,2,0:0:0:0:
136,123,29448,1,2,0:0:0:0:
117,205,29662,2,0,B|23:196|23:196|38:220,1,120,8|0,0:3|0:0,0:0:0:0:
43,227,30091,2,0,P|50:266|30:305,1,80,8|2,0:3|0:0,0:0:0:0:
95,358,30519,5,4,0:3:0:0:
95,358,30626,2,0,L|219:342,1,120,2|2,0:0|0:0,0:0:0:0:
298,333,31162,1,0,0:0:0:0:
356,272,31376,1,0,0:0:0:0:
356,272,31483,2,0,L|480:256,1,120,2|2,0:0|0:0,0:0:0:0:
414,100,32233,6,0,P|378:105|340:85,1,80,2|0,0:0|0:0,0:0:0:0:
333,77,32555,2,0,P|340:120|277:170,1,120,0|2,0:0|0:0,0:0:0:0:
218,123,33091,2,0,L|131:130,1,80,2|0,0:0|0:0,0:0:0:0:
125,131,33412,2,0,P|76:149|50:223,1,120,2|0,0:0|0:0,0:0:0:0:
78,281,33948,6,0,B|109:310|154:298|154:298|185:278|165:247|132:268|154:298|154:298|184:329|222:321,1,240,2|0,0:0|0:0,0:0:0:0:
222,320,34698,1,0,0:0:0:0:
222,320,34805,2,0,P|274:313|324:353,2,120,0|2|2,0:0|0:0|0:0,0:0:0:0:
145,288,35662,6,0,L|141:205,1,80,2|2,0:1|0:0,0:0:0:0:
61,232,36091,2,0,L|57:149,1,80,2|2,0:1|0:0,0:0:0:0:
97,79,36519,1,2,0:1:0:0:
175,108,36733,1,2,0:0:0:0:
160,25,36948,1,2,0:1:0:0:
238,54,37162,1,2,0:0:0:0:
316,83,37376,6,0,L|396:76,1,80,2|2,0:1|0:0,0:0:0:0:
472,109,37805,2,0,P|479:144|461:189,1,80,2|2,0:1|0:0,0:0:0:0:
396,232,38233,1,2,0:1:0:0:
471,269,38448,1,2,0:0:0:0:
434,344,38662,1,2,0:1:0:0:
359,307,38876,1,2,0:0:0:0:
284,270,39091,6,0,P|242:266|205:286,1,80,2|2,0:1|0:0,0:0:0:0:
176,358,39519,2,0,P|143:336|128:300,1,80,2|2,0:1|0:0,0:0:0:0:
154,221,39948,2,0,L|148:131,1,80,2|2,0:1|0:0,0:0:0:0:
144,58,40376,1,2,0:1:0:0:
144,58,40591,1,2,0:0:0:0:
225,77,40805,6,0,P|261:82|306:63,1,80,2|2,0:1|0:0,0:0:0:0:
348,135,41233,2,0,P|384:149|424:145,1,80,2|2,0:1|0:0,0:0:0:0:
395,67,41662,1,2,0:1:0:0:
466,24,41876,1,2,0:0:0:0:
496,103,42091,2,0,L|504:200,1,80,2|2,0:1|0:0,0:0:0:0:
487,264,42519,5,2,0:1:0:0:
437,330,42733,1,2,0:0:0:0:
358,358,42948,2,0,P|320:363|283:347,1,80,2|2,0:1|0:0,0:0:0:0:
250,270,43376,2,0,P|267:229|299:206,1,80,2|2,0:1|0:0,0:0:0:0:
343,140,43805,1,2,0:1:0:0:
261,131,44019,1,2,0:0:0:0:
179,122,44233,6,0,L|97:114,1,80,2|2,0:1|0:0,0:0:0:0:
24,150,44662,2,0,B|18:190|18:190|30:232,1,80,2|2,0:1|0:0,0:0:0:0:
81,293,45091,2,0,B|91:331|91:331|85:371,2,80,2|2|2,0:1|0:0|0:1,0:0:0:0:
151,248,45733,1,2,0:0:0:0:
233,265,45948,6,0,L|316:273,1,80,2|2,0:1|0:0,0:0:0:0:
356,202,46376,2,0,L|273:194,1,80,2|2,0:1|0:0,0:0:0:0:
202,156,46805,2,0,P|186:119|194:70,1,80,2|2,0:1|0:0,0:0:0:0:
261,37,47233,1,2,0:1:0:0:
344,46,47448,1,2,0:0:0:0:
427,55,47662,5,4,0:1:0:0:
256,192,47769,12,0,48948,0:0:0:0:
72,136,49376,6,0,P|87:126|100:103,3,40,2|0|2|2,0:1|0:0|0:0|0:0,0:0:0:0:
98,88,49805,2,0,L|95:48,2,40,2|0|2,0:0|0:0|0:0,0:0:0:0:
179,109,50233,1,2,0:0:0:0:
199,104,50341,1,0,0:0:0:0:
219,99,50448,1,2,0:0:0:0:
300,120,50662,2,0,L|297:160,3,40,2|0|2|2,0:0|0:0|0:0|0:0,0:0:0:0:
308,177,51091,6,0,P|331:178|351:170,2,40,2|0|2,0:0|0:0|0:0,0:0:0:0:
231,209,51519,2,0,P|208:208|188:216,2,40,2|0|2,0:0|0:0|0:0,0:0:0:0:
297,262,51948,6,0,B|304:293|304:293|290:339|290:339|298:370,1,112.6400034375,8|8,0:3|0:3,0:0:0:0:
144,303,52805,5,0,0:0:0:0:
124,300,52912,1,0,0:0:0:0:
104,297,53019,1,2,0:0:0:0:
29,260,53233,2,0,P|16:247|9:224,2,40,0|0|2,0:0|0:0|0:0,0:0:0:0:
89,201,53662,2,0,L|97:96,1,80,2|0,0:0|0:0,0:0:0:0:
176,99,54091,2,0,L|170:179,1,80,2|0,0:0|0:0,0:0:0:0:
249,207,54519,5,2,0:0:0:0:
267,215,54626,1,0,0:0:0:0:
287,217,54733,1,0,0:0:0:0:
289,133,54948,2,0,P|306:125|321:112,2,40,2|0|2,0:0|0:0|0:0,0:0:0:0:
264,53,55376,2,0,P|298:32|354:38,1,80,2|0,0:0|0:0,0:0:0:0:
400,87,55805,2,0,P|402:126|375:173,1,80,2|2,0:0|0:0,0:0:0:0:
429,233,56233,6,0,L|471:243,2,40,2|0|2,0:0|0:0|0:0,0:0:0:0:
383,303,56662,2,0,L|411:335,2,40,2|0|0,0:0|0:0|0:0,0:0:0:0:
305,332,57091,2,0,L|308:375,2,40,2|2|0,0:0|0:0|0:0,0:0:0:0:
224,309,57519,2,0,L|201:345,2,40,0|0|2,0:0|0:0|0:0,0:0:0:0:
171,242,57948,5,2,0:0:0:0:
167,222,58055,1,0,0:0:0:0:
163,202,58162,2,0,L|82:192,1,80
17,142,58591,1,2,0:0:0:0:
0,61,58805,2,0,P|6:39|22:21,2,40,2|0|2,0:0|0:0|0:0,0:0:0:0:
82,78,59233,2,0,P|88:100|104:118,2,40,2|0|2,0:0|0:0|0:0,0:0:0:0:
164,61,59662,6,0,L|255:70,1,80,2|0,0:0|0:0,0:0:0:0:
262,61,59984,1,0,0:0:0:0:
280,53,60091,2,0,P|300:87|296:136,1,80,0|2,0:0|0:0,0:0:0:0:
249,193,60519,2,0,L|206:199,2,40,0|0|2,0:0|0:0|0:0,0:0:0:0:
319,239,60948,2,0,L|362:245,2,40,0|2|0,0:0|0:0|0:0,0:0:0:0:
268,305,61376,5,4,0:1:0:0:
256,192,61483,12,0,62662,0:0:0:0:
455,205,63091,5,2,0:1:0:0:
455,205,63198,2,0,B|416:198|416:198|373:190|343:220,1,120,2|2,0:1|0:1,0:0:0:0:
401,280,63733,1,2,0:0:0:0:
321,305,63948,1,2,0:1:0:0:
301,303,64055,1,0,0:0:0:0:
281,301,64162,1,2,0:0:0:0:
203,330,64376,2,0,L|208:376,2,40,0|0|2,0:0|0:0|0:0,0:0:0:0:
189,248,64805,6,0,B|151:236|151:236|112:244|112:244|73:234,1,120,2|0,0:1|0:0,0:0:0:0:
54,228,65233,2,0,L|48:130,1,80,2|2,0:1|0:0,0:0:0:0:
88,74,65662,6,0,P|133:75|100:90,1,112.6400034375,8|8,0:3|0:3,0:0:0:0:
276,119,66519,6,0,B|326:111|326:111|340:77|377:64,1,120,2|0,0:1|0:0,0:0:0:0:
395,62,66948,2,0,P|434:70|476:139,1,120,2|0,0:1|0:0,0:0:0:0:
475,154,67376,2,0,L|470:219,2,40,2|0|2,0:1|0:0|0:0,0:0:0:0:
395,177,67805,2,0,L|390:242,2,40,2|0|2,0:0|0:0|0:0,0:0:0:0:
315,200,68233,6,0,B|310:262|310:262|344:274|354:311|354:311|317:294|272:303|243:341,1,240,2|0,0:1|0:0,0:0:0:0:
253,329,69091,2,0,L|123:336,2,120,0|2|2,0:0|0:0|0:0,0:0:0:0:
235,248,69948,6,0,P|196:227|159:232,1,80,2|0,0:0|0:0,0:0:0:0:
131,153,70376,2,0,P|94:176|79:210,1,80,2|0,0:1|0:0,0:0:0:0:
1,179,70805,2,0,L|7:75,1,80,2|0,0:1|0:0,0:0:0:0:
65,41,71233,2,0,L|169:47,1,80,2|0,0:1|0:0,0:0:0:0:
229,51,71662,6,0,P|225:76|214:93,2,40,2|0|2,0:0|0:0|0:0,0:0:0:0:
305,17,72091,1,2,0:0:0:0:
325,20,72198,1,0,0:0:0:0:
345,23,72305,1,2,0:0:0:0:
415,68,72519,2,0,B|474:63|474:63|526:32,2,120,2|2|2,0:1|0:0|0:0,0:0:0:0:
364,134,73376,6,0,B|339:158|339:187|339:187|339:216|314:239,1,120,2|2,0:1|0:1,0:0:0:0:
297,251,73805,2,0,B|273:226|244:226|244:226|215:226|192:201,1,120
179,184,74233,2,0,B|204:160|204:131|204:131|204:102|229:79,1,120,2|2,0:0|0:0,0:0:0:0:
246,66,74662,2,0,B|270:91|299:91|299:91|328:91|351:116,1,120
364,134,75091,5,6,0:1:0:0:
256,192,75198,8,0,76376,0:0:0:0:
178,163,76805,6,0,P|256:109|334:163,1,200,0|2,1:0|1:2,0:0:0:0:
256,192,77555,1,2,1:2:0:0:
117,64,80233,6,0,P|156:58|193:73,1,80,4|8,0:1|0:1,0:0:0:0:
183,156,80662,2,8,P|144:162|107:147,1,80,2|8,0:0|0:1,0:0:0:0:
32,183,81091,2,0,L|36:263,1,80,2|8,0:0|0:1,0:0:0:0:
26,281,81412,2,0,B|64:266|64:266|171:306,1,120,2|8,0:0|0:1,0:0:0:0:
215,326,81948,6,0,L|295:318,1,80,2|8,0:0|0:1,0:0:0:0:
361,268,82376,2,0,P|372:229|365:189,1,80,2|8,0:0|0:1,0:0:0:0:
304,134,82805,6,0,B|282:148|282:148|295:61,1,112.6400034375,8|8,0:3|0:3,0:0:0:0:
242,220,83662,5,4,0:1:0:0:
242,220,83769,2,0,B|211:210|184:223|184:223|158:235|126:225,1,120,2|0,0:0|0:0,0:0:0:0:
153,145,84305,1,8,0:1:0:0:
71,159,84519,1,0,0:0:0:0:
71,159,84626,1,2,0:0:0:0:
44,239,84841,2,0,P|66:283|146:305,1,120,2|8,0:0|0:1,0:0:0:0:
212,300,85376,6,0,L|300:293,1,80,2|8,0:0|0:1,0:0:0:0:
352,236,85805,2,0,L|440:229,1,80,2|8,0:0|0:1,0:0:0:0:
495,176,86233,2,0,B|470:140|421:144|421:144|341:151,1,160,2|8,0:0|0:1,0:0:0:0:
327,152,86769,1,8,0:1:0:0:
239,63,87091,6,0,P|203:81|161:74,1,80,4|8,0:1|0:1,0:0:0:0:
152,70,87412,2,0,P|188:109|177:186,1,120,2|8,0:0|0:1,0:0:0:0:
112,214,87948,2,0,L|286:224,1,160,2|0,0:0|0:0,0:0:0:0:
347,187,88591,1,8,0:1:0:0:
411,241,88805,6,0,P|426:271|419:336,1,80,2|8,0:0|0:1,0:0:0:0:
441,334,89126,2,0,P|388:328|336:373,1,120,2|8,0:0|0:1,0:0:0:0:
262,335,89662,2,0,L|102:325,1,160,2|0,0:0|0:0,0:0:0:0:
37,273,90305,1,8,0:1:0:0:
114,239,90519,6,0,P|127:208|115:153,1,80,2|8,0:0|0:1,0:0:0:0:
55,110,90948,2,0,P|85:85|124:78,1,80,2|8,0:0|0:1,0:0:0:0:
197,121,91376,1,2,0:0:0:0:
197,121,91591,1,8,0:1:0:0:
270,162,91805,2,0,L|277:78,1,80,2|8,0:0|0:1,0:0:0:0:
357,60,92233,6,0,B|400:50|441:69|456:108|456:108|485:172|437:268|338:258|313:170|351:95|456:108|479:186|467:266|410:302,1,520,2|2,0:1|0:0,0:0:0:0:
415,301,93733,1,2,0:0:0:0:
338,334,93948,6,0,L|342:373,2,40,4|0|8,0:1|0:0|0:1,0:0:0:0:
270,286,94376,2,0,L|274:247,2,40,2|2|8,0:0|0:0|0:1,0:0:0:0:
207,342,94805,1,2,0:0:0:0:
196,318,94912,1,0,0:0:0:0:
185,294,95019,2,0,L|133:290,1,40,8|2,0:1|0:0,0:0:0:0:
131,296,95233,2,0,P|89:302|55:286,1,80,0|8,0:0|0:1,0:0:0:0:
31,207,95662,6,0,L|-9:202,2,40,2|0|8,0:0|0:0|0:1,0:0:0:0:
55,126,96091,2,0,L|15:121,2,40,2|0|8,0:0|0:0|0:1,0:0:0:0:
79,46,96519,2,0,L|158:36,1,80,2|8,0:0|0:1,0:0:0:0:
183,46,96841,1,2,0:0:0:0:
206,58,96948,2,0,P|211:79|206:106,2,40,0|2|8,0:0|0:0|0:1,0:0:0:0:
284,29,97376,5,2,0:0:0:0:
284,29,97483,1,0,0:0:0:0:
284,29,97591,2,0,P|321:42|364:35,1,80,8|2,0:1|0:0,0:0:0:0:
439,64,98019,2,0,L|433:112,1,40,8|0,0:1|0:0,0:0:0:0:
441,129,98233,2,0,L|433:215,1,80,2|8,0:0|0:1,0:0:0:0:
404,287,98662,1,2,0:0:0:0:
381,274,98769,1,0,0:0:0:0:
364,254,98876,1,8,0:1:0:0:
307,192,99091,6,0,L|264:198,2,40,2|0|8,0:0|0:0|0:1,0:0:0:0:
335,114,99519,2,0,L|378:108,2,40,2|0|8,0:0|0:0|0:1,0:0:0:0:
256,85,99948,2,0,P|218:78|180:91,1,80,2|8,0:0|0:1,0:0:0:0:
159,107,100269,1,2,0:0:0:0:
137,122,100376,2,0,L|129:65,2,40,0|2|8,0:0|0:0|0:1,0:0:0:0:
107,201,100805,5,4,0:1:0:0:
83,190,100912,1,2,0:0:0:0:
59,179,101019,2,0,L|63:267,1,80,8|2,0:1|0:0,0:0:0:0:
45,341,101448,1,8,0:1:0:0:
124,316,101662,2,0,P|164:323|200:307,1,80,2|8,0:0|0:1,0:0:0:0:
224,316,101983,1,0,0:0:0:0:
249,324,102091,2,0,L|244:370,2,40,2|2|8,0:0|0:0|0:1,0:0:0:0:
316,272,102519,6,0,P|327:234|320:195,1,80,2|8,0:0|0:1,0:0:0:0:
303,176,102841,1,0,0:0:0:0:
285,157,102948,2,0,P|274:120|287:67,1,80,2|8,0:0|0:1,0:0:0:0:
363,96,103376,2,0,L|447:87,1,80,2|8,0:0|0:1,0:0:0:0:
465,101,103698,1,0,0:0:0:0:
487,114,103805,2,0,B|480:153|480:153|487:192,1,80,2|8,0:0|0:1,0:0:0:0:
461,273,104233,5,2,0:0:0:0:
388,315,104448,1,8,0:1:0:0:
388,315,104555,1,0,0:0:0:0:
388,315,104662,2,0,L|301:308,1,80,2|8,0:0|0:1,0:0:0:0:
248,250,105091,2,0,P|242:229|244:210,2,40,2|2|8,0:0|0:0|0:1,0:0:0:0:
230,333,105520,2,0,P|214:348|197:356,2,40,2|0|8,0:0|0:0|0:1,0:0:0:0:
308,308,105948,5,4,0:1:0:0:
256,192,106055,12,0,107233,0:0:0:0:
162,195,107662,6,0,B|152:241|152:241|180:314,2,120,2|0|2,0:0|0:0|0:0,0:0:0:0:
107,132,108519,2,0,B|72:100|72:100|-5:88,2,120,2|2|0,0:0|0:0|0:0,0:0:0:0:
189,115,109376,2,0,B|234:101|234:101|280:44|280:44|343:33|394:74|393:137|393:137|363:137|344:162|344:162|358:199|399:215|441:204|461:156,1,480,2|2,0:0|0:1,0:0:0:0:
366,318,111091,6,0,B|354:334|354:334|466:313,2,120,2|2|2,0:1|0:1|0:0,0:0:0:0:
335,240,111948,2,0,B|354:242|354:242|280:155,2,120,2|2|2,0:1|0:1|0:0,0:0:0:0:
283,306,112805,6,0,B|275:287|275:287|242:380|242:380|227:310|136:281|80:330|80:330|110:286|110:286|121:222|76:178,1,480,2|2,0:1|0:1,0:0:0:0:
214,80,114519,6,0,P|155:57|77:67,2,120,4|2|2,0:3|0:0|0:0,0:0:0:0:
298,80,115376,2,0,P|357:57|435:67,2,120,8|2|2,0:3|0:0|0:0,0:0:0:0:
256,153,116233,1,2,0:1:0:0:
256,153,116448,2,0,P|249:232|306:282,1,160,8|8,0:1|0:1,0:0:0:0:
327,200,117091,5,4,0:1:0:0:
256,192,117198,12,0,121376,0:0:0:0:
