osu file format v14

[General]
AudioFilename: audio.mp3
AudioLeadIn: 0
PreviewTime: 77070
Countdown: 0
SampleSet: Soft
StackLeniency: 0.7
Mode: 3
LetterboxInBreaks: 0
SpecialStyle: 0
WidescreenStoryboard: 0

[Editor]
DistanceSpacing: 1.2
BeatDivisor: 8
GridSize: 4
TimelineZoom: 1.8

[Metadata]
Title:The Truth That You Leave
TitleUnicode:The Truth That You Leave
Artist:Pianoboy
ArtistUnicode:Pianoboy
Creator:atian540
Version:Relax "Normal"
Source:Deemo
Tags:rayark games selection vol.3 cytus piano poii
BeatmapID:1478232
BeatmapSetID:697901

[Difficulty]
HPDrainRate:7
CircleSize:6
OverallDifficulty:7
ApproachRate:5
SliderMultiplier:1.4
SliderTickRate:1

[Events]
//Background and Video events
0,0,"umu.jpg",0,0
//Break Periods
//Storyboard Layer 0 (Background)
//Storyboard Layer 1 (Fail)
//Storyboard Layer 2 (Pass)
//Storyboard Layer 3 (Foreground)
//Storyboard Sound Samples
Sample,17306,0,"A#3S_Bb3S_s.wav",60
Sample,17542,0,"D#4S_Eb4S_s.wav",60
Sample,17778,0,"G4S_s.wav",60
Sample,18014,0,"A#4S_Bb4S_s.wav",60
Sample,18959,0,"F3S_s.wav",60
Sample,18959,0,"F4S_s.wav",60
Sample,19195,0,"C4S_s.wav",60
Sample,19432,0,"F4S_s.wav",60
Sample,19668,0,"A4S_s.wav",60
Sample,19904,0,"A#4S_Bb4S_s.wav",60
Sample,20849,0,"G3S_s.wav",60
Sample,20849,0,"G4S_s.wav",60
Sample,21085,0,"D6S.wav",60
Sample,21321,0,"G4S_s.wav",60
Sample,21558,0,"A4S_s.wav",60
Sample,21794,0,"A#4S_Bb4S_s.wav",60
Sample,22030,0,"D5S_s.wav",60
Sample,22266,0,"G3S_s.wav",60
Sample,22266,0,"G4S_s.wav",60
Sample,22739,0,"G3S_s.wav",60
Sample,22975,0,"D4S_s.wav",60
Sample,23211,0,"G4S_s.wav",60
Sample,23447,0,"G5S_s.wav",60
Sample,24156,0,"F3S_s.wav",60
Sample,24865,0,"A#3S_Bb3S_s.wav",60
Sample,25101,0,"D#4S_Eb4S_s.wav",60
Sample,25337,0,"G4S_s.wav",60
Sample,25573,0,"A#4S_Bb4S_s.wav",60
Sample,26518,0,"F3S_s.wav",60
Sample,26518,0,"F4S_s.wav",60
Sample,26755,0,"C4S_s.wav",60
Sample,26991,0,"F4S_s.wav",60
Sample,27227,0,"A4S_s.wav",60
Sample,27463,0,"C5S_s.wav",60
Sample,28408,0,"G3S_s.wav",60
Sample,28408,0,"G4S_s.wav",60
Sample,28644,0,"D4S_s.wav",60
Sample,28881,0,"G4S_s.wav",60
Sample,29117,0,"A4S_s.wav",60
Sample,29589,0,"D5S_s.wav",60
Sample,29825,0,"A#4S_Bb4S_s.wav",60
Sample,30062,0,"G5S_s.wav",60
Sample,30298,0,"G3S_s.wav",60
Sample,30534,0,"G5S_s.wav",60
Sample,30770,0,"G4S_s.wav",60
Sample,31007,0,"G5S_s.wav",60
Sample,31951,0,"G5S.wav",60
Sample,32188,0,"C3S_s.wav",60
Sample,32188,0,"C4S_s.wav",60
Sample,32424,0,"G3S_s.wav",60
Sample,32660,0,"C4S_s.wav",60
Sample,32896,0,"D4S_s.wav",60
Sample,33132,0,"D#4S_Eb4S_s.wav",60
Sample,34077,0,"F3S_s.wav",60
Sample,34314,0,"C4S_s.wav",60
Sample,35967,0,"D3S_s.wav",60
Sample,36203,0,"A3S_s.wav",60
Sample,36912,0,"F#4S_Gb4S_s.wav",60
Sample,37384,0,"F#4S_Gb4S_s.wav",60
Sample,37857,0,"G3S_s.wav",60
Sample,37857,0,"G4S_s.wav",60
Sample,38093,0,"D4S_s.wav",60
Sample,38329,0,"G4S_s.wav",60
Sample,38566,0,"D5S.wav",60
Sample,38802,0,"A#4S_Bb4S_s.wav",60
Sample,39983,0,"A#3S_Bb3S_s.wav",60
Sample,40219,0,"D#4S_Eb4S_s.wav",60
Sample,40455,0,"G4S_s.wav",60
Sample,40692,0,"A#4S_Bb4S_s.wav",60
Sample,41636,0,"F3S_s.wav",60
Sample,41636,0,"F4S_s.wav",60
Sample,41873,0,"C4S_s.wav",60
Sample,42109,0,"F4S_s.wav",60
Sample,42345,0,"A4S_s.wav",60
Sample,42581,0,"C5S_s.wav",60
Sample,43526,0,"G3S_s.wav",60
Sample,43762,0,"B5S.wav",60
Sample,45298,0,"D6S.wav",60
Sample,45416,0,"B5S.wav",60
Sample,46833,0,"F6S_s.wav",60
Sample,47070,0,"F6S_s.wav",60
Sample,47306,0,"D#4S_Eb4S_s.wav",60
Sample,47306,0,"D#3S_Eb3S_s.wav",60
Sample,47778,0,"D#4S_Eb4S_s.wav",60
Sample,48014,0,"G4S_s.wav",60
Sample,48251,0,"A#4S_Bb4S_s.wav",60
Sample,48723,0,"D#4S_Eb4S_s.wav",60
Sample,48959,0,"F6S_s.wav",60
Sample,49195,0,"F4S_s.wav",60
Sample,49195,0,"F3S_s.wav",60
Sample,49668,0,"F4S_s.wav",60
Sample,49904,0,"A4S_s.wav",60
Sample,50140,0,"C5S_s.wav",60
Sample,50377,0,"F5S_s.wav",60
Sample,51085,0,"F5S_s.wav",60
Sample,51321,0,"F3S_s.wav",60
Sample,51558,0,"F5S_s.wav",60
Sample,51794,0,"F5S_s.wav",60
Sample,52030,0,"F5S_s.wav",60
Sample,52503,0,"A#3S_Bb3S_s.wav",60
Sample,52975,0,"G5S_s.wav",60
Sample,53211,0,"D4S_s.wav",60
Sample,53447,0,"G4S_s.wav",60
Sample,53684,0,"A#4S_Bb4S_s.wav",60
Sample,53920,0,"D5S_s.wav",60
Sample,54392,0,"G4S_s.wav",60
Sample,54629,0,"F6S_s.wav",60
Sample,54865,0,"D#3S_Eb3S_s.wav",60
Sample,54865,0,"D#4S_Eb4S_s.wav",60
Sample,55337,0,"D#4S_Eb4S_s.wav",60
Sample,55573,0,"G5S_s.wav",60
Sample,55810,0,"A#4S_Bb4S_s.wav",60
Sample,56282,0,"D#4S_Eb4S_s.wav",60
Sample,56518,0,"F6S_s.wav",60
Sample,56755,0,"F4S_s.wav",60
Sample,56755,0,"F3S_s.wav",60
Sample,57227,0,"F4S_s.wav",60
Sample,57463,0,"A4S_s.wav",60
Sample,57699,0,"C5S_s.wav",60
Sample,58172,0,"F3S_s.wav",60
Sample,58644,0,"A#3S_Bb3S_s.wav",60
Sample,60534,0,"D5S.wav",60
Sample,60770,0,"A3S_s.wav",60
Sample,61007,0,"D4S_s.wav",60
Sample,61243,0,"D5S_s.wav",60
Sample,61479,0,"D5S_s.wav",60
Sample,61951,0,"F#4S_Gb4S_s.wav",60
Sample,62188,0,"F6S_s.wav",60
Sample,62424,0,"D#3S_Eb3S_s.wav",60
Sample,62424,0,"D#4S_Eb4S_s.wav",60
Sample,62896,0,"D#4S_Eb4S_s.wav",60
Sample,63132,0,"G4S_s.wav",60
Sample,63369,0,"A#4S_Bb4S_s.wav",60
Sample,63841,0,"D#4S_Eb4S_s.wav",60
Sample,64077,0,"F6S_s.wav",60
Sample,64314,0,"F3S_s.wav",60
Sample,64314,0,"F4S_s.wav",60
Sample,64786,0,"F4S_s.wav",60
Sample,65022,0,"A4S_s.wav",60
Sample,65258,0,"C5S_s.wav",60
Sample,66203,0,"G5S_s.wav",60
Sample,66440,0,"D4S_s.wav",60
Sample,66676,0,"G5S_s.wav",60
Sample,66912,0,"G5S_s.wav",60
Sample,67148,0,"D5S_s.wav",60
Sample,67384,0,"D6S_s.wav",60
Sample,67621,0,"G4S_s.wav",60
Sample,67621,0,"G3S_s.wav",60
Sample,68093,0,"D6S.wav",60
Sample,68329,0,"A3S_s.wav",60
Sample,68566,0,"D4S_s.wav",60
Sample,68802,0,"F4S_s.wav",60
Sample,69038,0,"A4S_s.wav",60
Sample,69510,0,"D4S_s.wav",60
Sample,69747,0,"F6S_s.wav",60
Sample,69983,0,"D#3S_Eb3S_s.wav",60
Sample,69983,0,"D#4S_Eb4S_s.wav",60
Sample,70455,0,"D#4S_Eb4S_s.wav",60
Sample,70692,0,"G4S_s.wav",60
Sample,70928,0,"A#4S_Bb4S_s.wav",60
Sample,71400,0,"D#4S_Eb4S_s.wav",60
Sample,71636,0,"F6S_s.wav",60
Sample,71873,0,"F3S_s.wav",60
Sample,71873,0,"F4S_s.wav",60
Sample,72345,0,"F4S_s.wav",60
Sample,72581,0,"A4S_s.wav",60
Sample,72818,0,"C5S_s.wav",60
Sample,73290,0,"F3S_s.wav",60
Sample,77070,0,"G5S_s.wav",60
Sample,77306,0,"G5S_s.wav",60
Sample,78014,0,"G5S_s.wav",60
Sample,78251,0,"G5S_s.wav",60
Sample,78723,0,"G5S_s.wav",60
Sample,78959,0,"G5S_s.wav",60
Sample,79195,0,"G5S_s.wav",60
Sample,79904,0,"G4S_s.wav",60
Sample,80140,0,"B4S_s.wav",60
Sample,80613,0,"G5S_s.wav",60
Sample,81321,0,"C4S_s.wav",60
Sample,81794,0,"C4S_s.wav",60
Sample,82030,0,"E4S_s.wav",60
Sample,82739,0,"C4S_s.wav",60
Sample,83211,0,"A4S_s.wav",60
Sample,83447,0,"E4S_s.wav",60
Sample,83684,0,"A4S_s.wav",60
Sample,83920,0,"C5S_s.wav",60
Sample,84156,0,"E5S_s.wav",60
Sample,84392,0,"A5S_s.wav",60
Sample,84629,0,"A4S_s.wav",60
Sample,84865,0,"A4S_s.wav",60
Sample,85573,0,"C7S_s.wav",60
Sample,85810,0,"A5S_s.wav",60
Sample,86282,0,"A5S_s.wav",60
Sample,86518,0,"A5S_s.wav",60
Sample,86755,0,"A5S_s.wav",60
Sample,87463,0,"G4S_s.wav",60
Sample,87699,0,"B4S_s.wav",60
Sample,90770,0,"E5S.wav",60
Sample,91007,0,"B3S_s.wav",60
Sample,91715,0,"G#4S_Ab4S_s.wav",60
Sample,91951,0,"E4S_s.wav",60
Sample,92188,0,"G#4S_Ab4S_s.wav",60
Sample,92424,0,"G6S_s.wav",60
Sample,93132,0,"F4S_s.wav",60
Sample,93369,0,"A4S_s.wav",60
Sample,93841,0,"G5S_s.wav",60
Sample,94077,0,"F4S_s.wav",60
Sample,94314,0,"G6S_s.wav",60
Sample,95022,0,"G4S_s.wav",60
Sample,95258,0,"B4S_s.wav",60
Sample,95731,0,"G5S_s.wav",60
Sample,96440,0,"A4S_s.wav",60
Sample,96912,0,"A4S_s.wav",60
Sample,97148,0,"C5S_s.wav",60
Sample,97621,0,"C7S_s.wav",60
Sample,97857,0,"A4S_s.wav",60
Sample,97857,0,"A3S_s.wav",60
Sample,98329,0,"E4S_s.wav",60
Sample,98566,0,"B3S_s.wav",60
Sample,98802,0,"E4S_s.wav",60
Sample,99038,0,"G4S_s.wav",60
Sample,99274,0,"B4S_s.wav",60
Sample,99747,0,"E4S_s.wav",60
Sample,99983,0,"G6S_s.wav",60
Sample,100692,0,"F4S_s.wav",60
Sample,100928,0,"A4S_s.wav",60
Sample,101400,0,"A5S_s.wav",60
Sample,101636,0,"F4S_s.wav",60
Sample,101873,0,"G6S_s.wav",60
Sample,102581,0,"G4S_s.wav",60
Sample,102818,0,"B4S_s.wav",60
Sample,105888,0,"E5S.wav",60
Sample,106125,0,"E4S_s.wav",60
Sample,106361,0,"A4S_s.wav",60
Sample,106597,0,"B4S_s.wav",60
Sample,106833,0,"E5S_s.wav",60
Sample,107070,0,"A5S_s.wav",60
Sample,107306,0,"G4S_s.wav",60
Sample,107542,0,"G6S_s.wav",60
Sample,108251,0,"F4S_s.wav",60
Sample,108487,0,"A4S_s.wav",60
Sample,108959,0,"G5S_s.wav",60
Sample,109195,0,"F4S_s.wav",60
Sample,109432,0,"G6S_s.wav",60
Sample,110140,0,"G4S_s.wav",60
Sample,110377,0,"B4S.wav",60
Sample,113447,0,"G4S.wav",60
Sample,115573,0,"C4S_s.wav",60
Sample,115810,0,"F4S_s.wav",60
Sample,116518,0,"G5S_s.wav",60
Sample,116755,0,"F3S_s.wav",60
Sample,117227,0,"G3S_s.wav",60
Sample,117463,0,"D4S_s.wav",60
Sample,117699,0,"G4S_s.wav",60
Sample,118644,0,"G3S_s.wav",60
Sample,119117,0,"A3S_s.wav",60
Sample,119589,0,"A4S_s.wav",60
Sample,120062,0,"C5S_s.wav",60
Sample,120534,0,"E4S_s.wav",60
Sample,121007,0,"A3S_s.wav",60
Sample,121243,0,"E4S_s.wav",60
Sample,121479,0,"A4S_s.wav",60
Sample,121715,0,"B4S_s.wav",60
Sample,121951,0,"C5S_s.wav",60
Sample,122424,0,"G3S_s.wav",60
Sample,123141,0,"C4S_s.wav",60
Sample,123387,0,"F4S_s.wav",60
Sample,124125,0,"G5S_s.wav",60
Sample,124375,0,"F3S_s.wav",60
Sample,124896,0,"G3S_s.wav",60
Sample,125190,0,"D4S_s.wav",60
Sample,125490,0,"C6S_s.wav",60
Sample,126119,0,"D5S.wav",60
Sample,126757,0,"D7S_s.wav",60
Sample,127438,0,"A4S_s.wav",60
Sample,127595,0,"E5S_s.wav",60
Sample,127753,0,"A5S_s.wav",60
Sample,127911,0,"B5S_s.wav",60
Sample,128069,0,"C6S_s.wav",60
Sample,128385,0,"E7S_s.wav",60

[TimingPoints]
17070,472.44095,4,2,1,40,1,0
77542,-100,4,2,1,40,0,1
113447,-100,4,2,1,40,0,0
122896,983.60657,4,2,1,40,1,0
122896,-48.05382,4,2,1,40,0,0
124125,1000,4,2,1,40,1,0
124125,-47.16981,4,2,1,40,0,0
124375,1034.4828,4,2,1,40,1,0
124375,-45.6621,4,2,1,40,0,0
124633,1052.6316,4,2,1,40,1,0
124633,-45.045044,4,2,1,40,0,0
124896,1176.4706,4,2,1,40,1,0
124896,-40,4,2,1,40,0,0
125190,1200,4,2,1,40,1,0
125190,-39.37008,4,2,1,40,0,0
125490,1212.1212,4,2,1,40,1,0
125490,-38.910507,4,2,1,40,0,0
125793,1304.3478,4,2,1,40,1,0
125793,-36.231884,4,2,1,40,0,0
126119,1276.5957,4,2,1,40,1,0
126119,-37.037037,4,2,1,40,0,0
126757,2727.2727,4,2,1,40,1,0
126757,-17.241379,4,2,1,40,0,0
127438,631.5789,4,2,1,40,1,0
127438,-75.18797,4,2,1,40,0,0
128385,923.0769,4,2,1,40,1,0
128385,-51.28205,4,2,1,40,0,0
129077,1111.1111,4,2,1,40,1,0
129077,-41.666668,4,2,1,40,0,0

[HitObjects]
469,192,17069,5,0,0:0:0:60:D#3S_Eb3S_s.wav
42,192,17069,1,0,0:0:0:60:D#4S_Eb4S_s.wav
298,192,17306,1,0,0:0:0:60:F6S_s.wav
128,192,17306,1,0,0:0:0:60:A#5S_Bb5S_s.wav
213,192,17542,1,0,0:0:0:60:F6S_s.wav
384,192,17542,1,0,0:0:0:60:A#5S_Bb5S_s.wav
469,192,17778,1,0,0:0:0:60:F6S_s.wav
298,192,17778,1,0,0:0:0:60:A#5S_Bb5S_s.wav
42,192,18014,1,0,0:0:0:60:F6S_s.wav
213,192,18014,1,0,0:0:0:60:A#5S_Bb5S_s.wav
384,192,18251,1,0,0:0:0:60:C6S_s.wav
128,192,18251,1,0,0:0:0:60:C6S_s.wav
469,192,18487,1,0,0:0:0:60:C6S_s.wav
213,192,18487,1,0,0:0:0:60:D#4S_Eb4S_s.wav
42,192,18723,1,0,0:0:0:60:C6S_s.wav
128,192,18723,1,0,0:0:0:60:C6S_s.wav
469,192,19195,1,0,0:0:0:60:F6S_s.wav
128,192,19195,1,0,0:0:0:60:A5S_s.wav
384,192,19432,1,0,0:0:0:60:F6S_s.wav
42,192,19432,1,0,0:0:0:60:A5S_s.wav
469,192,19668,1,0,0:0:0:60:F6S_s.wav
128,192,19668,1,0,0:0:0:60:A5S_s.wav
384,192,19904,1,0,0:0:0:60:F6S_s.wav
42,192,19904,1,0,0:0:0:60:A5S_s.wav
213,192,20140,1,0,0:0:0:60:C6S_s.wav
298,192,20140,1,0,0:0:0:60:C6S_s.wav
128,192,20377,1,0,0:0:0:60:D6S_s.wav
42,192,20377,1,0,0:0:0:60:F4S_s.wav
384,192,20613,1,0,0:0:0:60:D#6S_Eb6S_s.wav
469,192,20613,1,0,0:0:0:60:D#6S_Eb6S_s.wav
469,192,21085,1,0,0:0:0:60:D6S.wav
128,192,21085,1,0,0:0:0:60:D4S_s.wav
384,192,22266,1,0,0:0:0:60:G5S_s.wav
298,192,22503,1,0,0:0:0:60:G5S_s.wav
128,192,22739,1,0,0:0:0:60:A5S_s.wav
469,192,22975,1,0,0:0:0:60:A#5S_Bb5S_s.wav
384,192,23211,1,0,0:0:0:60:A5S_s.wav
298,192,23447,1,0,0:0:0:60:A4S_s.wav
83,192,23684,1,0,0:0:0:60:A#4S_Bb4S_s.wav
213,192,23684,1,0,0:0:0:60:D5S_s.wav
128,192,23920,1,0,0:0:0:60:A#4S_Bb4S_s.wav
302,192,24156,1,0,0:0:0:60:C5S_s.wav
469,192,24156,1,0,0:0:0:60:F4S_s.wav
469,192,24629,1,0,0:0:0:60:D#4S_Eb4S_s.wav
83,192,24629,1,0,0:0:0:60:D#3S_Eb3S_s.wav
384,192,24865,1,0,0:0:0:60:F6S_s.wav
213,192,24865,1,0,0:0:0:60:A#5S_Bb5S_s.wav
298,192,25101,1,0,0:0:0:60:F6S_s.wav
128,192,25101,1,0,0:0:0:60:A#5S_Bb5S_s.wav
42,192,25337,1,0,0:0:0:60:F6S_s.wav
213,192,25337,1,0,0:0:0:60:A#5S_Bb5S_s.wav
448,192,25573,1,0,0:0:0:60:F6S_s.wav
298,192,25573,1,0,0:0:0:60:A#5S_Bb5S_s.wav
213,192,25810,1,0,0:0:0:60:C6S_s.wav
384,192,25810,1,0,0:0:0:60:C6S_s.wav
298,192,26046,1,0,0:0:0:60:C6S_s.wav
42,192,26046,1,0,0:0:0:60:D#3S_Eb3S_s.wav
469,192,26282,1,0,0:0:0:60:D#4S_Eb4S_s.wav
384,192,26282,1,0,0:0:0:60:C6S_s.wav
42,192,26755,1,0,0:0:0:60:F6S_s.wav
384,192,26755,1,0,0:0:0:60:A5S_s.wav
469,192,26991,1,0,0:0:0:60:F6S_s.wav
128,192,26991,1,0,0:0:0:60:A5S_s.wav
42,192,27227,1,0,0:0:0:60:F6S_s.wav
384,192,27227,1,0,0:0:0:60:A5S_s.wav
469,192,27463,1,0,0:0:0:60:F6S_s.wav
128,192,27463,1,0,0:0:0:60:A5S_s.wav
213,192,27699,1,0,0:0:0:60:C6S_s.wav
298,192,27699,1,0,0:0:0:60:C6S_s.wav
384,192,27936,1,0,0:0:0:60:D6S_s.wav
469,192,27936,1,0,0:0:0:60:F4S_s.wav
128,192,28172,1,0,0:0:0:60:D#6S_Eb6S_s.wav
42,192,28172,1,0,0:0:0:60:C6S_s.wav
448,192,28644,1,0,0:0:0:60:F6S.wav
302,192,28644,1,0,0:0:0:60:G5S.wav
384,192,30062,1,0,0:0:0:60:D6S_s.wav
156,192,30062,1,0,0:0:0:60:A#5S_Bb5S_s.wav
469,192,30534,1,0,0:0:0:60:D#6S_Eb6S_s.wav
42,192,30534,1,0,0:0:0:60:A#5S_Bb5S_s.wav
384,192,31007,1,0,0:0:0:60:D6S_s.wav
213,192,31007,1,0,0:0:0:60:A#5S_Bb5S_s.wav
298,192,31243,1,0,0:0:0:60:G5S_s.wav
42,192,31243,1,0,0:0:0:60:G5S_s.wav
128,192,31479,1,0,0:0:0:60:A5S_s.wav
384,192,31479,1,0,0:0:0:60:A5S_s.wav
469,192,31715,1,0,0:0:0:60:A#5S_Bb5S_s.wav
213,192,31715,1,0,0:0:0:60:D#4S_Eb4S_s.wav
298,192,31951,1,0,0:0:0:60:F6S.wav
128,192,31951,1,0,0:0:0:60:G5S.wav
469,192,33369,1,0,0:0:0:60:D#6S_Eb6S_s.wav
213,192,33369,1,0,0:0:0:60:D#6S_Eb6S_s.wav
384,192,33605,1,0,0:0:0:60:D6S_s.wav
128,192,33605,1,0,0:0:0:60:C4S_s.wav
42,192,33841,1,0,0:0:0:60:C6S.wav
298,192,33841,1,0,0:0:0:60:C6S.wav
128,192,34550,1,0,0:0:0:60:F4S_s.wav
213,192,34786,1,0,0:0:0:60:G4S_s.wav
469,192,35022,1,0,0:0:0:60:A4S_s.wav
384,192,35495,1,0,0:0:0:60:D#4S_Eb4S_s.wav
213,192,35495,1,0,0:0:0:60:D#3S_Eb3S_s.wav
298,192,35967,1,0,0:0:0:60:A6S_s.wav
469,192,35967,1,0,0:0:0:60:D4S_s.wav
469,192,36440,1,0,0:0:0:60:D6S_s.wav
298,192,36440,1,0,0:0:0:60:D4S_s.wav
213,192,36676,1,0,0:0:0:60:C6S_s.wav
42,192,36676,1,0,0:0:0:60:C6S_s.wav
302,192,37148,1,0,0:0:0:60:D6S_s.wav
384,192,37148,1,0,0:0:0:60:D4S_s.wav
42,192,37621,1,0,0:0:0:60:C6S.wav
128,192,37621,1,0,0:0:0:60:C6S.wav
375,192,38566,1,0,0:0:0:60:A#5S_Bb5S.wav
213,192,38566,1,0,0:0:0:60:G5S.wav
448,192,39038,1,0,0:0:0:60:D5S_s.wav
229,192,39274,1,0,0:0:0:60:G4S_s.wav
156,192,39274,1,0,0:0:0:60:G3S_s.wav
42,192,39747,1,0,0:0:0:60:D#4S_Eb4S_s.wav
213,192,39747,1,0,0:0:0:60:D#3S_Eb3S_s.wav
298,192,39983,1,0,0:0:0:60:F6S_s.wav
384,192,39983,1,0,0:0:0:60:A#5S_Bb5S_s.wav
128,192,40219,1,0,0:0:0:60:F6S_s.wav
229,192,40219,1,0,0:0:0:60:A#5S_Bb5S_s.wav
384,192,40455,1,0,0:0:0:60:F6S_s.wav
298,192,40455,1,0,0:0:0:60:A#5S_Bb5S_s.wav
128,192,40692,1,0,0:0:0:60:F6S_s.wav
229,192,40692,1,0,0:0:0:60:A#5S_Bb5S_s.wav
298,192,40928,1,0,0:0:0:60:C6S_s.wav
384,192,40928,1,0,0:0:0:60:A#5S_Bb5S_s.wav
42,192,41164,1,0,0:0:0:60:C6S_s.wav
128,192,41164,1,0,0:0:0:60:A#5S_Bb5S_s.wav
384,192,41400,1,0,0:0:0:60:C6S_s.wav
469,192,41400,1,0,0:0:0:60:A#5S_Bb5S_s.wav
213,192,41873,1,0,0:0:0:60:F6S_s.wav
128,192,41873,1,0,0:0:0:60:A5S_s.wav
302,192,42109,1,0,0:0:0:60:F6S_s.wav
384,192,42109,1,0,0:0:0:60:A5S_s.wav
213,192,42345,1,0,0:0:0:60:F6S_s.wav
128,192,42345,1,0,0:0:0:60:A5S_s.wav
298,192,42581,1,0,0:0:0:60:F6S_s.wav
384,192,42581,1,0,0:0:0:60:A5S_s.wav
213,192,42818,1,0,0:0:0:60:C6S.wav
128,192,42818,1,0,0:0:0:60:C6S.wav
469,192,43054,1,0,0:0:0:60:D6S_s.wav
375,192,43054,1,0,0:0:0:60:F4S_s.wav
128,192,43290,1,0,0:0:0:60:F6S_s.wav
83,192,43290,1,0,0:0:0:60:F6S_s.wav
128,192,43762,1,0,0:0:0:60:G6S.wav
469,192,43762,1,0,0:0:0:60:D6S.wav
42,192,43999,1,0,0:0:0:60:G4S_s.wav
213,192,44235,1,0,0:0:0:60:A4S_s.wav
128,192,44471,1,0,0:0:0:60:B4S_s.wav
298,192,44707,1,0,0:0:0:60:D5S_s.wav
469,192,44944,1,0,0:0:0:60:G5S_s.wav
213,192,44944,1,0,0:0:0:60:B3S_s.wav
384,192,45180,1,0,0:0:0:60:B5S_s.wav
128,192,45180,1,0,0:0:0:60:D4S_s.wav
42,192,45475,1,0,0:0:0:60:G6S.wav
298,192,45475,1,0,0:0:0:60:G3S.wav
213,192,46833,1,0,0:0:0:60:A#5S_Bb5S_s.wav
302,192,46833,1,0,0:0:0:60:F6S_s.wav
213,192,47070,1,0,0:0:0:60:F6S_s.wav
298,192,47070,1,0,0:0:0:60:A#5S_Bb5S_s.wav
298,192,47542,1,0,0:0:0:60:A#3S_Bb3S_s.wav
384,192,47778,1,0,0:0:0:60:A#5S_Bb5S_s.wav
128,192,47778,1,0,0:0:0:60:D#5S_Eb5S_s.wav
384,192,48014,1,0,0:0:0:60:A#5S_Bb5S_s.wav
128,192,48014,1,0,0:0:0:60:D#5S_Eb5S_s.wav
213,192,48487,1,0,0:0:0:60:D#5S_Eb5S_s.wav
469,192,48723,1,0,0:0:0:60:F6S_s.wav
42,192,48723,1,0,0:0:0:60:A#5S_Bb5S_s.wav
469,192,48959,1,0,0:0:0:60:F6S_s.wav
42,192,48959,1,0,0:0:0:60:A#5S_Bb5S_s.wav
384,192,49432,1,0,0:0:0:60:C4S_s.wav
298,192,49668,1,0,0:0:0:60:C6S_s.wav
213,192,49668,1,0,0:0:0:60:F5S_s.wav
298,192,49904,1,0,0:0:0:60:C6S_s.wav
213,192,49904,1,0,0:0:0:60:F5S_s.wav
298,192,50613,1,0,0:0:0:60:A#5S_Bb5S_s.wav
83,192,50613,1,0,0:0:0:60:F4S_s.wav
128,192,50849,1,0,0:0:0:60:C6S_s.wav
384,192,50849,1,0,0:0:0:60:C6S_s.wav
448,192,51085,1,0,0:0:0:60:D6S_s.wav
213,192,51085,1,0,0:0:0:60:A#5S_Bb5S_s.wav
298,192,51558,1,0,0:0:0:60:D6S_s.wav
42,192,51558,1,0,0:0:0:60:A#5S_Bb5S_s.wav
298,192,51794,1,0,0:0:0:60:D6S_s.wav
42,192,51794,1,0,0:0:0:60:A#5S_Bb5S_s.wav
128,192,52266,1,0,0:0:0:60:C6S_s.wav
469,192,52266,1,0,0:0:0:60:C6S_s.wav
384,192,52739,1,0,0:0:0:60:A#5S_Bb5S_s.wav
298,192,52739,1,0,0:0:0:60:A#5S_Bb5S_s.wav
128,192,52975,1,0,0:0:0:60:D6S_s.wav
213,192,52975,1,0,0:0:0:60:A#5S_Bb5S_s.wav
213,192,53447,1,0,0:0:0:60:F6S_s.wav
469,192,53447,1,0,0:0:0:60:G5S_s.wav
448,192,53684,1,0,0:0:0:60:F6S_s.wav
213,192,53684,1,0,0:0:0:60:G5S_s.wav
384,192,54156,1,0,0:0:0:60:G5S_s.wav
298,192,54392,1,0,0:0:0:60:F6S_s.wav
213,192,54392,1,0,0:0:0:60:G5S_s.wav
213,192,54629,1,0,0:0:0:60:G5S_s.wav
298,192,54629,1,0,0:0:0:60:F6S_s.wav
213,192,55101,1,0,0:0:0:60:A#3S_Bb3S_s.wav
384,192,55337,1,0,0:0:0:60:A#5S_Bb5S_s.wav
128,192,55337,1,0,0:0:0:60:G5S_s.wav
384,192,55573,1,0,0:0:0:60:G4S_s.wav
128,192,55573,1,0,0:0:0:60:A#5S_Bb5S_s.wav
298,192,56046,1,0,0:0:0:60:G5S_s.wav
469,192,56282,1,0,0:0:0:60:F6S_s.wav
42,192,56282,1,0,0:0:0:60:G5S_s.wav
42,192,56518,1,0,0:0:0:60:F6S_s.wav
469,192,56518,1,0,0:0:0:60:G5S_s.wav
128,192,56991,1,0,0:0:0:60:C4S_s.wav
298,192,57227,1,0,0:0:0:60:C6S_s.wav
213,192,57227,1,0,0:0:0:60:A5S_s.wav
213,192,57463,1,0,0:0:0:60:C6S_s.wav
302,192,57463,1,0,0:0:0:60:A5S_s.wav
42,192,57936,1,0,0:0:0:60:D6S_s.wav
384,192,57936,1,0,0:0:0:60:D6S_s.wav
469,192,58172,1,0,0:0:0:60:D#6S_Eb6S_s.wav
128,192,58172,1,0,0:0:0:60:F4S_s.wav
42,192,58408,1,0,0:0:0:60:D6S_s.wav
384,192,58408,1,0,0:0:0:60:D6S_s.wav
213,192,58644,1,0,0:0:0:60:A#4S_Bb4S_s.wav
298,192,58881,1,0,0:0:0:60:F4S_s.wav
128,192,59117,1,0,0:0:0:60:A#4S_Bb4S_s.wav
229,192,59353,1,0,0:0:0:60:D5S_s.wav
469,192,59589,1,0,0:0:0:60:F5S_s.wav
384,192,60062,1,0,0:0:0:60:A#4S_Bb4S_s.wav
213,192,60062,1,0,0:0:0:60:A#3S_Bb3S_s.wav
128,192,60298,1,0,0:0:0:60:D5S_s.wav
298,192,60534,1,0,0:0:0:60:A5S.wav
42,192,60534,1,0,0:0:0:60:F#5S_Gb5S.wav
298,192,61479,1,0,0:0:0:60:A5S_s.wav
42,192,61479,1,0,0:0:0:60:F#5S_Gb5S_s.wav
128,192,61715,1,0,0:0:0:60:D4S_s.wav
298,192,61951,1,0,0:0:0:60:F6S_s.wav
469,192,61951,1,0,0:0:0:60:A5S_s.wav
469,192,62188,1,0,0:0:0:60:A5S_s.wav
298,192,62188,1,0,0:0:0:60:F6S_s.wav
42,192,62660,1,0,0:0:0:60:A#3S_Bb3S_s.wav
384,192,62896,1,0,0:0:0:60:A#5S_Bb5S_s.wav
213,192,62896,1,0,0:0:0:60:G5S_s.wav
384,192,63132,1,0,0:0:0:60:A#5S_Bb5S_s.wav
213,192,63132,1,0,0:0:0:60:G5S_s.wav
469,192,63605,1,0,0:0:0:60:G5S_s.wav
298,192,63841,1,0,0:0:0:60:F6S_s.wav
128,192,63841,1,0,0:0:0:60:A#5S_Bb5S_s.wav
128,192,64077,1,0,0:0:0:60:F6S_s.wav
298,192,64077,1,0,0:0:0:60:A#5S_Bb5S_s.wav
384,192,64550,1,0,0:0:0:60:C4S_s.wav
213,192,64786,1,0,0:0:0:60:C6S_s.wav
42,192,64786,1,0,0:0:0:60:A5S_s.wav
213,192,65022,1,0,0:0:0:60:C6S_s.wav
42,192,65022,1,0,0:0:0:60:A5S_s.wav
128,192,65495,1,0,0:0:0:60:A5S_s.wav
298,192,65731,1,0,0:0:0:60:A#5S_Bb5S_s.wav
42,192,65731,1,0,0:0:0:60:F4S_s.wav
384,192,65967,1,0,0:0:0:60:C6S_s.wav
128,192,65967,1,0,0:0:0:60:C6S_s.wav
469,192,66203,1,0,0:0:0:60:D6S_s.wav
213,192,66203,1,0,0:0:0:60:A#5S_Bb5S_s.wav
384,192,66676,1,0,0:0:0:60:D6S_s.wav
128,192,66676,1,0,0:0:0:60:A#5S_Bb5S_s.wav
128,192,66912,1,0,0:0:0:60:D6S_s.wav
384,192,66912,1,0,0:0:0:60:A#5S_Bb5S_s.wav
298,192,67384,1,0,0:0:0:60:A#6S_Bb6S_s.wav
42,192,67384,1,0,0:0:0:60:G6S_s.wav
128,192,67857,1,0,0:0:0:60:D6S_s.wav
213,192,68093,1,0,0:0:0:60:A6S.wav
384,192,68093,1,0,0:0:0:60:F6S.wav
298,192,68802,1,0,0:0:0:60:F6S_s.wav
128,192,68802,1,0,0:0:0:60:A5S_s.wav
384,192,69274,1,0,0:0:0:60:G5S_s.wav
213,192,69510,1,0,0:0:0:60:F6S_s.wav
42,192,69510,1,0,0:0:0:60:G5S_s.wav
42,192,69747,1,0,0:0:0:60:F6S_s.wav
213,192,69747,1,0,0:0:0:60:G5S_s.wav
469,192,70219,1,0,0:0:0:60:A#3S_Bb3S_s.wav
298,192,70455,1,0,0:0:0:60:A#5S_Bb5S_s.wav
128,192,70455,1,0,0:0:0:60:G5S_s.wav
298,192,70692,1,0,0:0:0:60:A#5S_Bb5S_s.wav
128,192,70692,1,0,0:0:0:60:G5S_s.wav
42,192,71164,1,0,0:0:0:60:G5S_s.wav
384,192,71400,1,0,0:0:0:60:F6S_s.wav
213,192,71400,1,0,0:0:0:60:A#5S_Bb5S_s.wav
213,192,71636,1,0,0:0:0:60:F6S_s.wav
384,192,71636,1,0,0:0:0:60:A#5S_Bb5S_s.wav
128,192,72109,1,0,0:0:0:60:C4S_s.wav
469,192,72345,1,0,0:0:0:60:C6S_s.wav
298,192,72345,1,0,0:0:0:60:A5S_s.wav
469,192,72581,1,0,0:0:0:60:C6S_s.wav
298,192,72581,1,0,0:0:0:60:A5S_s.wav
213,192,73054,1,0,0:0:0:60:A#5S_Bb5S_s.wav
42,192,73054,1,0,0:0:0:60:A#5S_Bb5S_s.wav
298,192,73290,1,0,0:0:0:60:C6S_s.wav
469,192,73290,1,0,0:0:0:60:F4S_s.wav
213,192,73526,1,0,0:0:0:60:A#5S_Bb5S.wav
128,192,73526,1,0,0:0:0:60:D5S.wav
384,192,73762,1,0,0:0:0:60:A#3S_Bb3S_s.wav
298,192,73999,1,0,0:0:0:60:F4S_s.wav
128,192,74235,1,0,0:0:0:60:A#4S_Bb4S_s.wav
42,192,74471,1,0,0:0:0:60:D5S_s.wav
384,192,74944,1,0,0:0:0:60:F4S_s.wav
128,192,74944,1,0,0:0:0:60:A#4S_Bb4S_s.wav
298,192,75180,1,0,0:0:0:60:D4S_s.wav
213,192,75416,1,0,0:0:0:60:A#3S_Bb3S.wav
469,192,75652,128,0,77070:0:0:0:30:
302,192,77070,1,0,0:0:0:60:G7S_s.wav
83,192,77070,1,0,0:0:0:60:G6S_s.wav
384,192,77306,1,0,0:0:0:60:G7S_s.wav
128,192,77306,1,0,0:0:0:60:G6S_s.wav
298,192,77542,1,0,0:0:0:60:F4S_s.wav
213,192,77542,1,0,0:0:0:60:F3S_s.wav
42,192,77778,1,0,0:0:0:60:C4S_s.wav
384,192,78014,1,0,0:0:0:60:C7S_s.wav
128,192,78014,1,0,0:0:0:60:G6S_s.wav
469,192,78251,1,0,0:0:0:60:C7S_s.wav
213,192,78251,1,0,0:0:0:60:G6S_s.wav
298,192,78487,1,0,0:0:0:60:C5S_s.wav
448,192,78959,1,0,0:0:0:60:G7S_s.wav
213,192,78959,1,0,0:0:0:60:G6S_s.wav
384,192,79195,1,0,0:0:0:60:G7S_s.wav
128,192,79195,1,0,0:0:0:60:G6S_s.wav
213,192,79432,1,0,0:0:0:60:G4S_s.wav
298,192,79432,1,0,0:0:0:60:G3S_s.wav
469,192,79668,1,0,0:0:0:60:D4S_s.wav
384,192,79904,1,0,0:0:0:60:D6S_s.wav
128,192,79904,1,0,0:0:0:60:G5S_s.wav
298,192,80140,1,0,0:0:0:60:D6S_s.wav
42,192,80140,1,0,0:0:0:60:G5S_s.wav
213,192,80377,1,0,0:0:0:60:D5S_s.wav
469,192,80849,1,0,0:0:0:60:C6S_s.wav
128,192,80849,1,0,0:0:0:60:G4S_s.wav
384,192,81085,1,0,0:0:0:60:D6S_s.wav
42,192,81085,1,0,0:0:0:60:D6S_s.wav
128,192,81321,1,0,0:0:0:60:E6S_s.wav
298,192,81321,1,0,0:0:0:60:G5S_s.wav
213,192,81558,1,0,0:0:0:60:G3S_s.wav
375,192,81794,1,0,0:0:0:60:E6S_s.wav
298,192,81794,1,0,0:0:0:60:G5S_s.wav
128,192,82030,1,0,0:0:0:60:E6S_s.wav
213,192,82030,1,0,0:0:0:60:G5S_s.wav
384,192,82266,1,0,0:0:0:60:G4S_s.wav
213,192,82503,1,0,0:0:0:60:D6S_s.wav
10,192,82503,1,0,0:0:0:60:G5S_s.wav
298,192,82975,1,0,0:0:0:60:G5S_s.wav
448,192,83211,1,0,0:0:0:60:E6S_s.wav
156,192,83211,1,0,0:0:0:60:A5S_s.wav
384,192,83684,1,0,0:0:0:60:G6S_s.wav
298,192,83684,1,0,0:0:0:60:A5S_s.wav
213,192,83920,1,0,0:0:0:60:G6S_s.wav
128,192,83920,1,0,0:0:0:60:A5S_s.wav
469,192,84629,1,0,0:0:0:60:G7S_s.wav
213,192,84629,1,0,0:0:0:60:A5S_s.wav
384,192,84865,1,0,0:0:0:60:G7S_s.wav
128,192,84865,1,0,0:0:0:60:A5S_s.wav
298,192,85101,1,0,0:0:0:60:F4S_s.wav
10,192,85101,1,0,0:0:0:60:F3S_s.wav
128,192,85337,1,0,0:0:0:60:C4S_s.wav
229,192,85573,1,0,0:0:0:60:A5S_s.wav
375,192,85573,1,0,0:0:0:60:G6S_s.wav
448,192,85810,1,0,0:0:0:60:C7S_s.wav
302,192,85810,1,0,0:0:0:60:G6S_s.wav
384,192,86046,1,0,0:0:0:60:C5S_s.wav
298,192,86518,1,0,0:0:0:60:G7S_s.wav
42,192,86518,1,0,0:0:0:60:G6S_s.wav
384,192,86755,1,0,0:0:0:60:G7S_s.wav
128,192,86755,1,0,0:0:0:60:G6S_s.wav
469,192,86991,1,0,0:0:0:60:G4S_s.wav
213,192,86991,1,0,0:0:0:60:G3S_s.wav
384,192,87227,1,0,0:0:0:60:D4S_s.wav
128,192,87463,1,0,0:0:0:60:D6S_s.wav
302,192,87463,1,0,0:0:0:60:G5S_s.wav
213,192,87699,1,0,0:0:0:60:D6S_s.wav
42,192,87699,1,0,0:0:0:60:G5S_s.wav
128,192,87936,1,0,0:0:0:60:D5S_s.wav
298,192,88172,1,0,0:0:0:60:E6S_s.wav
384,192,88172,1,0,0:0:0:60:E6S_s.wav
213,192,88408,1,0,0:0:0:60:F6S_s.wav
156,192,88408,1,0,0:0:0:60:G4S_s.wav
298,192,88644,1,0,0:0:0:60:E6S.wav
469,192,88644,1,0,0:0:0:60:G5S.wav
42,192,88881,1,0,0:0:0:60:C4S_s.wav
128,192,88881,1,0,0:0:0:60:C3S_s.wav
384,192,89117,1,0,0:0:0:60:G3S_s.wav
298,192,89353,1,0,0:0:0:60:C4S_s.wav
128,192,89589,1,0,0:0:0:60:E4S_s.wav
213,192,89825,1,0,0:0:0:60:G4S_s.wav
375,192,90062,1,0,0:0:0:60:E5S_s.wav
10,192,90062,1,0,0:0:0:60:C5S_s.wav
298,192,90298,1,0,0:0:0:60:C4S_s.wav
213,192,90534,1,0,0:0:0:60:C5S_s.wav
156,192,90534,1,0,0:0:0:60:G4S_s.wav
448,192,90770,1,0,0:0:0:60:B5S.wav
375,192,90770,1,0,0:0:0:60:G#5S_Ab5S.wav
298,192,91243,1,0,0:0:0:60:E4S_s.wav
156,192,91479,1,0,0:0:0:60:E5S_s.wav
375,192,91715,1,0,0:0:0:60:B5S_s.wav
302,192,91715,1,0,0:0:0:60:G#5S_Ab5S_s.wav
128,192,92188,1,0,0:0:0:60:G6S_s.wav
42,192,92188,1,0,0:0:0:60:G5S_s.wav
229,192,92424,1,0,0:0:0:60:G6S_s.wav
298,192,92424,1,0,0:0:0:60:G5S_s.wav
469,192,92660,1,0,0:0:0:60:F4S_s.wav
375,192,92660,1,0,0:0:0:60:F3S_s.wav
42,192,92896,1,0,0:0:0:60:C4S_s.wav
384,192,93132,1,0,0:0:0:60:C6S_s.wav
128,192,93132,1,0,0:0:0:60:G5S_s.wav
469,192,93369,1,0,0:0:0:60:C6S_s.wav
213,192,93369,1,0,0:0:0:60:G5S_s.wav
298,192,93605,1,0,0:0:0:60:C5S_s.wav
469,192,94077,1,0,0:0:0:60:G6S_s.wav
384,192,94077,1,0,0:0:0:60:G5S_s.wav
298,192,94314,1,0,0:0:0:60:G6S_s.wav
229,192,94314,1,0,0:0:0:60:G5S_s.wav
42,192,94550,1,0,0:0:0:60:G4S_s.wav
156,192,94550,1,0,0:0:0:60:G3S_s.wav
469,192,94786,1,0,0:0:0:60:D4S_s.wav
384,192,95022,1,0,0:0:0:60:D6S_s.wav
128,192,95022,1,0,0:0:0:60:G5S_s.wav
298,192,95258,1,0,0:0:0:60:D6S_s.wav
42,192,95258,1,0,0:0:0:60:G5S_s.wav
213,192,95495,1,0,0:0:0:60:D5S_s.wav
469,192,95967,1,0,0:0:0:60:C6S_s.wav
298,192,95967,1,0,0:0:0:60:G4S_s.wav
128,192,96203,1,0,0:0:0:60:D6S_s.wav
213,192,96203,1,0,0:0:0:60:G#4S_Ab4S_s.wav
298,192,96440,1,0,0:0:0:60:E6S_s.wav
384,192,96440,1,0,0:0:0:60:A5S_s.wav
42,192,96676,1,0,0:0:0:60:E4S_s.wav
448,192,96912,1,0,0:0:0:60:E6S_s.wav
128,192,96912,1,0,0:0:0:60:A5S_s.wav
375,192,97148,1,0,0:0:0:60:E6S_s.wav
213,192,97148,1,0,0:0:0:60:A5S_s.wav
302,192,97384,1,0,0:0:0:60:E5S_s.wav
213,192,97621,1,0,0:0:0:60:C7S_s.wav
42,192,97621,1,0,0:0:0:60:E6S_s.wav
298,192,98093,1,0,0:0:0:60:E6S_s.wav
213,192,98329,1,0,0:0:0:60:B6S.wav
384,192,98329,1,0,0:0:0:60:E6S.wav
298,192,99038,1,0,0:0:0:60:G6S_s.wav
469,192,99038,1,0,0:0:0:60:B5S_s.wav
42,192,99510,1,0,0:0:0:60:B5S_s.wav
384,192,99747,1,0,0:0:0:60:G6S_s.wav
128,192,99747,1,0,0:0:0:60:B5S_s.wav
213,192,99983,1,0,0:0:0:60:G6S_s.wav
298,192,99983,1,0,0:0:0:60:B5S_s.wav
42,192,100219,1,0,0:0:0:60:F4S_s.wav
469,192,100219,1,0,0:0:0:60:F3S_s.wav
384,192,100455,1,0,0:0:0:60:C4S_s.wav
298,192,100692,1,0,0:0:0:60:C6S_s.wav
128,192,100692,1,0,0:0:0:60:A5S_s.wav
469,192,100928,1,0,0:0:0:60:C6S_s.wav
229,192,100928,1,0,0:0:0:60:A5S_s.wav
384,192,101164,1,0,0:0:0:60:C5S_s.wav
384,192,101636,1,0,0:0:0:60:G6S_s.wav
128,192,101636,1,0,0:0:0:60:A5S_s.wav
213,192,101873,1,0,0:0:0:60:A5S_s.wav
298,192,101873,1,0,0:0:0:60:G6S_s.wav
469,192,102109,1,0,0:0:0:60:G4S_s.wav
42,192,102109,1,0,0:0:0:60:G3S_s.wav
128,192,102345,1,0,0:0:0:60:D4S_s.wav
384,192,102581,1,0,0:0:0:60:D6S_s.wav
213,192,102581,1,0,0:0:0:60:G5S_s.wav
298,192,102818,1,0,0:0:0:60:D6S_s.wav
42,192,102818,1,0,0:0:0:60:G5S_s.wav
128,192,103054,1,0,0:0:0:60:D5S_s.wav
469,192,103290,1,0,0:0:0:60:C6S_s.wav
213,192,103290,1,0,0:0:0:60:G5S_s.wav
42,192,103526,1,0,0:0:0:60:D6S_s.wav
298,192,103526,1,0,0:0:0:60:G5S_s.wav
384,192,103762,1,0,0:0:0:60:C6S.wav
128,192,103762,1,0,0:0:0:60:G5S.wav
469,192,103999,1,0,0:0:0:60:C4S_s.wav
213,192,103999,1,0,0:0:0:60:C3S_s.wav
42,192,104235,1,0,0:0:0:60:G3S_s.wav
128,192,104471,1,0,0:0:0:60:C4S_s.wav
213,192,104707,1,0,0:0:0:60:E4S_s.wav
298,192,104944,1,0,0:0:0:60:G4S_s.wav
384,192,105180,1,0,0:0:0:60:E5S_s.wav
10,192,105180,1,0,0:0:0:60:C5S_s.wav
213,192,105416,1,0,0:0:0:60:E4S_s.wav
298,192,105652,1,0,0:0:0:60:E5S_s.wav
448,192,105888,1,0,0:0:0:60:C6S.wav
384,192,105888,1,0,0:0:0:60:A5S.wav
448,192,106833,1,0,0:0:0:60:E6S_s.wav
156,192,106833,1,0,0:0:0:60:A5S_s.wav
384,192,107306,1,0,0:0:0:60:G6S_s.wav
42,192,107306,1,0,0:0:0:60:G5S_s.wav
128,192,107542,1,0,0:0:0:60:G6S_s.wav
469,192,107542,1,0,0:0:0:60:G5S_s.wav
384,192,107778,1,0,0:0:0:60:F4S_s.wav
213,192,107778,1,0,0:0:0:60:F3S_s.wav
298,192,108014,1,0,0:0:0:60:G5S_s.wav
213,192,108251,1,0,0:0:0:60:C6S_s.wav
42,192,108251,1,0,0:0:0:60:G5S_s.wav
469,192,108487,1,0,0:0:0:60:C6S_s.wav
128,192,108487,1,0,0:0:0:60:G5S_s.wav
384,192,108723,1,0,0:0:0:60:C5S_s.wav
469,192,109195,1,0,0:0:0:60:G6S_s.wav
128,192,109195,1,0,0:0:0:60:G5S_s.wav
83,192,109432,1,0,0:0:0:60:G6S_s.wav
384,192,109432,1,0,0:0:0:60:G5S_s.wav
298,192,109668,1,0,0:0:0:60:G4S_s.wav
156,192,109668,1,0,0:0:0:60:G3S_s.wav
213,192,109904,1,0,0:0:0:60:D4S_s.wav
469,192,110140,1,0,0:0:0:60:D6S_s.wav
298,192,110140,1,0,0:0:0:60:G5S_s.wav
375,192,110377,1,0,0:0:0:60:D6S_s.wav
42,192,110377,1,0,0:0:0:60:G5S_s.wav
128,192,110613,1,0,0:0:0:60:G5S_s.wav
469,192,110849,1,0,0:0:0:60:C6S_s.wav
213,192,110849,1,0,0:0:0:60:G5S_s.wav
42,192,111085,1,0,0:0:0:60:D6S_s.wav
298,192,111085,1,0,0:0:0:60:G5S_s.wav
384,192,111321,1,0,0:0:0:60:C6S.wav
128,192,111321,1,0,0:0:0:60:G5S.wav
469,192,111558,1,0,0:0:0:60:C3S_s.wav
298,192,111794,1,0,0:0:0:60:G3S_s.wav
384,192,112030,1,0,0:0:0:60:C4S_s.wav
213,192,112266,1,0,0:0:0:60:D4S_s.wav
298,192,112503,1,0,0:0:0:60:E4S_s.wav
128,192,112739,1,0,0:0:0:60:G4S_s.wav
213,192,112975,1,0,0:0:0:60:C5S_s.wav
469,192,112975,1,0,0:0:0:60:D4S_s.wav
384,192,113211,1,0,0:0:0:60:D5S_s.wav
128,192,113211,1,0,0:0:0:60:D5S_s.wav
42,192,113447,1,0,0:0:0:60:E5S.wav
298,192,113447,1,0,0:0:0:60:C5S.wav
384,192,115337,1,0,0:0:0:60:G6S_s.wav
128,192,115337,1,0,0:0:0:60:F3S_s.wav
298,192,115573,1,0,0:0:0:60:G5S_s.wav
213,192,115810,1,0,0:0:0:60:C6S_s.wav
384,192,116046,1,0,0:0:0:60:G6S_s.wav
128,192,116046,1,0,0:0:0:60:A4S.wav
298,192,116518,1,0,0:0:0:60:G5S_s.wav
213,192,116755,1,0,0:0:0:60:C6S_s.wav
384,192,116991,1,0,0:0:0:60:G6S_s.wav
128,192,116991,1,0,0:0:0:60:G6S_s.wav
298,192,117463,1,0,0:0:0:60:G5S_s.wav
213,192,117699,1,0,0:0:0:60:C6S_s.wav
384,192,117936,1,0,0:0:0:60:G6S_s.wav
128,192,117936,1,0,0:0:0:60:B4S.wav
298,192,118408,1,0,0:0:0:60:G5S_s.wav
469,192,118881,1,0,0:0:0:60:C6S_s.wav
384,192,118881,1,0,0:0:0:60:C6S_s.wav
83,192,119353,1,0,0:0:0:60:C6S_s.wav
128,192,119353,1,0,0:0:0:60:E4S_s.wav
298,192,119825,1,0,0:0:0:60:C6S_s.wav
469,192,119825,1,0,0:0:0:60:B4S.wav
42,192,120298,1,0,0:0:0:60:C6S_s.wav
213,192,120298,1,0,0:0:0:60:C6S_s.wav
128,192,120770,1,0,0:0:0:60:A5S_s.wav
384,192,120770,1,0,0:0:0:60:C6S_s.wav
298,192,121479,1,0,0:0:0:60:D6S_s.wav
42,192,121479,1,0,0:0:0:60:B5S_s.wav
448,192,121951,1,0,0:0:0:60:E6S_s.wav
213,192,121951,1,0,0:0:0:60:C6S_s.wav
42,192,122424,1,0,0:0:0:60:D6S_s.wav
298,192,122424,1,0,0:0:0:60:B5S_s.wav
384,192,122896,1,0,0:0:0:60:G6S_s.wav
128,192,122896,1,0,0:0:0:60:F3S_s.wav
213,192,123141,1,0,0:0:0:60:G5S_s.wav
298,192,123387,1,0,0:0:0:60:C6S_s.wav
128,192,123633,1,0,0:0:0:60:A4S.wav
384,192,123633,1,0,0:0:0:60:G6S_s.wav
213,192,124125,1,0,0:0:0:60:G5S_s.wav
298,192,124375,1,0,0:0:0:60:C6S_s.wav
384,192,124633,1,0,0:0:0:60:G6S_s.wav
128,192,124633,1,0,0:0:0:60:G6S_s.wav
213,192,125190,1,0,0:0:0:60:G5S_s.wav
298,192,125490,1,0,0:0:0:60:G4S_s.wav
384,192,125793,1,0,0:0:0:60:G6S_s.wav
128,192,125793,1,0,0:0:0:60:B4S_s.wav
298,192,126119,1,0,0:0:0:60:F7S_s.wav
469,192,126119,1,0,0:0:0:60:D7S_s.wav
384,192,126438,1,0,0:0:0:60:E7S_s.wav
213,192,126438,1,0,0:0:0:60:C7S_s.wav
128,192,126757,1,0,0:0:0:60:B6S_s.wav
298,192,126757,1,0,0:0:0:60:G6S_s.wav
42,192,127438,1,0,0:0:0:60:E6S_s.wav
298,192,127595,1,0,0:0:0:60:A6S_s.wav
128,192,127753,1,0,0:0:0:60:B6S_s.wav
384,192,127911,1,0,0:0:0:60:C7S_s.wav
213,192,128069,1,0,0:0:0:60:D7S_s.wav
469,192,128385,1,0,0:0:0:60:E6S.wav
298,192,128615,1,0,0:0:0:60:A7S_s.wav
156,192,129077,1,0,0:0:0:60:B7S_s.wav
469,192,129632,1,0,0:0:0:60:C8S_s.wav
