osu file format v14

[General]
AudioFilename: audio.mp3
AudioLeadIn: 0
PreviewTime: 25136
Countdown: 0
SampleSet: Normal
StackLeniency: 0.7
Mode: 1
LetterboxInBreaks: 0
WidescreenStoryboard: 1

[Editor]
Bookmarks: 6255
DistanceSpacing: 1.3
BeatDivisor: 16
GridSize: 32
TimelineZoom: 1.9

[Metadata]
Title:Tha Phleng Royal Guards March Pen Phleng Prakop Anime
TitleUnicode:ถ้าเพลง ข่าวในพระราชสำนัก/มาร์ชราชวัลลภ เป็นเพลงประกอบอนิเมะ
Artist:Piair's
ArtistUnicode:Piair's
Creator:Blackener
Version:All Hail The King
Source:
Tags:What If Khao Nai Phra Ratchasamnak/Ratchawanlop Becomes An Anime Song Piairs Chettaphat Chuabsamai thai act article ม.112 rock instrumental
BeatmapID:2716265
BeatmapSetID:1310356

[Difficulty]
HPDrainRate:6
CircleSize:5
OverallDifficulty:7
ApproachRate:5
SliderMultiplier:1.4
SliderTickRate:1

[Events]
//Background and Video events
0,0,"BG.jpg",0,85
//Break Periods
//Storyboard Layer 0 (Background)
//Storyboard Layer 1 (Fail)
//Storyboard Layer 2 (Pass)
//Storyboard Layer 3 (Foreground)
//Storyboard Layer 4 (Overlay)
//Storyboard Sound Samples

[TimingPoints]
305,300,4,1,0,80,1,0
1355,-66.6666666666667,4,1,0,80,0,0
1505,-100,4,1,0,80,0,0
3755,-71.4285714285714,4,1,0,80,0,0
3905,-100,4,1,0,80,0,0
5105,-100,4,1,0,60,0,0
5986,-100,4,1,0,65,0,0
6005,-90.9090909090909,4,1,0,70,0,0
6286,-90.9090909090909,4,1,0,75,0,0
6305,300,4,1,0,80,1,0
6305,-90.9090909090909,4,1,0,80,0,0
13335,-71.4285714285714,4,1,0,80,0,0
13410,-90.9090909090909,4,1,0,80,0,0
13935,-66.6666666666667,4,1,0,80,0,0
14010,-90.9090909090909,4,1,0,80,0,0
14535,-66.6666666666667,4,1,0,80,0,0
14610,-90.9090909090909,4,1,0,80,0,0
15135,-66.6666666666667,4,1,0,80,0,0
15210,-90.9090909090909,4,1,0,80,0,0
19505,-90.9090909090909,4,1,0,80,0,0
19786,-111.111111111111,4,1,0,80,0,0
19936,-102.04258645303,4,1,0,80,0,0
20086,-93.7142128849545,4,1,0,80,0,0
20236,-86.0656302069706,4,1,0,80,0,0
20386,-79.0411705301793,4,1,0,80,0,0
20536,-72.5900888572962,4,1,0,80,0,0
20692,-66.6666666666667,4,1,0,80,0,0
20723,-90.9090909090909,4,1,0,80,0,0
21136,-66.6666666666667,4,1,0,80,0,0
21173,-90.9090909090909,4,1,0,80,0,0
21886,-66.6666666666667,4,1,0,80,0,0
21923,-90.9090909090909,4,1,0,80,0,0
22336,-66.6666666666667,4,1,0,80,0,0
22373,-90.9090909090909,4,1,0,80,0,0
25486,-83.3333333333333,4,1,0,80,0,0
25505,-83.3333333333333,4,1,0,85,0,1
42286,-81.6326530612245,4,1,0,85,0,1
42436,-80,4,1,0,85,0,1
42586,-78.4313725490196,4,1,0,85,0,1
42736,-76.9230769230769,4,1,0,85,0,1
42886,-75.4716981132076,4,1,0,85,0,1
43036,-74.0740740740741,4,1,0,85,0,1
43186,-72.7272727272727,4,1,0,85,0,1
43336,-71.4285714285714,4,1,0,85,0,1
43355,-71.4285714285714,4,1,0,85,0,0
43505,-71.4285714285714,4,1,0,60,0,0
44089,-125,4,1,0,70,0,0
44105,-125,4,1,0,75,0,0
44386,-55.5555555555556,4,1,0,80,0,0
44405,-55.5555555555556,4,1,0,85,0,0
44705,-55.5555555555556,4,1,0,80,0,0
45305,-55.5555555555556,4,1,0,73,0,0
45905,-62.5,4,1,0,65,0,0
46505,-62.5,4,1,0,58,0,0
47105,-71.4285714285714,4,1,0,50,0,0
47705,-71.4285714285714,4,1,0,43,0,0
48305,-83.3333333333333,4,1,0,35,0,0
48905,-83.3333333333333,4,1,0,28,0,0
49505,-100,4,1,0,20,0,0

[HitObjects]
256,192,305,5,4,0:0:0:0:
256,192,455,1,4,0:0:0:0:
256,192,1205,1,8,0:0:0:0:
256,192,1355,1,4,0:0:0:0:
256,192,2105,1,8,0:0:0:0:
256,192,2180,1,8,0:0:0:0:
256,192,2255,1,0,0:0:0:0:
256,192,2330,1,0,0:0:0:0:
256,192,2405,1,8,0:0:0:0:
256,192,2480,1,0,0:0:0:0:
256,192,2555,1,0,0:0:0:0:
256,192,2630,1,0,0:0:0:0:
256,192,2705,1,12,0:0:0:0:
256,192,2855,1,12,0:0:0:0:
256,192,3455,1,8,0:0:0:0:
256,192,3605,1,8,0:0:0:0:
256,192,3755,1,4,0:0:0:0:
256,192,4055,5,8,0:0:0:0:
256,192,4130,1,8,0:0:0:0:
256,192,4205,1,8,0:0:0:0:
256,192,4355,1,8,0:0:0:0:
256,192,4505,1,8,0:0:0:0:
256,192,4655,1,0,0:0:0:0:
256,192,4805,1,8,0:0:0:0:
256,192,4955,1,8,0:0:0:0:
256,192,6005,1,0,0:0:0:0:
256,192,6155,1,0,0:0:0:0:
256,192,6230,1,0,0:0:0:0:
256,192,6305,1,6,0:0:0:0:
256,192,6455,1,0,0:0:0:0:
256,192,6530,1,0,0:0:0:0:
256,192,6605,1,0,0:0:0:0:
256,192,6755,1,8,0:0:0:0:
256,192,6905,1,0,0:0:0:0:
256,192,6980,1,0,0:0:0:0:
256,192,7055,1,0,0:0:0:0:
256,192,7130,1,0,0:0:0:0:
256,192,7205,1,8,0:0:0:0:
256,192,7355,1,0,0:0:0:0:
256,192,7505,1,8,0:0:0:0:
256,192,7655,1,0,0:0:0:0:
256,192,7730,1,0,0:0:0:0:
256,192,7805,1,0,0:0:0:0:
256,192,7955,1,8,0:0:0:0:
256,192,8105,1,0,0:0:0:0:
256,192,8180,1,0,0:0:0:0:
256,192,8255,1,0,0:0:0:0:
256,192,8405,1,8,0:0:0:0:
256,192,8480,1,0,0:0:0:0:
288,224,8555,1,0,0:0:0:0:
256,192,8630,1,0,0:0:0:0:
256,192,8705,1,8,0:0:0:0:
256,192,8855,1,0,0:0:0:0:
256,192,8930,1,0,0:0:0:0:
256,192,9005,1,0,0:0:0:0:
256,192,9155,1,8,0:0:0:0:
256,224,9305,1,0,0:0:0:0:
256,224,9405,1,0,0:0:0:0:
288,224,9505,1,0,0:0:0:0:
256,192,9605,1,8,0:0:0:0:
256,192,9755,1,0,0:0:0:0:
256,192,9905,1,8,0:0:0:0:
256,192,10055,1,0,0:0:0:0:
256,192,10130,1,0,0:0:0:0:
256,192,10205,1,0,0:0:0:0:
256,192,10355,1,8,0:0:0:0:
256,192,10505,1,0,0:0:0:0:
256,192,10580,1,0,0:0:0:0:
256,192,10655,1,0,0:0:0:0:
256,192,10730,1,0,0:0:0:0:
256,192,10805,1,8,0:0:0:0:
256,192,10955,1,0,0:0:0:0:
256,192,11105,1,8,0:0:0:0:
256,192,11255,1,0,0:0:0:0:
256,192,11330,1,0,0:0:0:0:
256,192,11405,1,0,0:0:0:0:
256,192,11555,1,8,0:0:0:0:
256,224,11705,1,0,0:0:0:0:
256,192,11780,1,0,0:0:0:0:
256,192,11855,1,0,0:0:0:0:
256,192,11930,1,0,0:0:0:0:
256,192,12005,1,8,0:0:0:0:
256,192,12155,1,0,0:0:0:0:
256,192,12305,1,8,0:0:0:0:
256,192,12455,1,0,0:0:0:0:
256,192,12530,1,0,0:0:0:0:
256,192,12605,1,0,0:0:0:0:
256,192,12755,1,8,0:0:0:0:
256,192,12905,1,0,0:0:0:0:
256,192,13055,1,8,0:0:0:0:
256,192,13130,1,8,0:0:0:0:
256,192,13205,1,8,0:0:0:0:
256,192,13280,1,8,0:0:0:0:
256,192,13355,1,4,0:0:0:0:
256,192,13655,1,0,0:0:0:0:
256,192,13805,1,8,0:0:0:0:
256,192,13955,1,4,0:0:0:0:
256,192,14255,1,0,0:0:0:0:
256,192,14405,1,8,0:0:0:0:
256,192,14555,1,4,0:0:0:0:
256,192,14855,1,0,0:0:0:0:
256,192,15005,1,8,0:0:0:0:
256,192,15155,1,4,0:0:0:0:
256,192,15455,1,0,0:0:0:0:
256,192,15530,1,0,0:0:0:0:
256,192,15605,1,8,0:0:0:0:
256,192,15680,1,8,0:0:0:0:
256,192,15755,1,0,0:0:0:0:
256,192,15830,1,0,0:0:0:0:
256,192,15905,1,12,0:0:0:0:
256,192,16055,1,0,0:0:0:0:
256,192,16130,1,0,0:0:0:0:
256,192,16205,1,0,0:0:0:0:
256,192,16355,1,8,0:0:0:0:
256,192,16505,1,0,0:0:0:0:
256,192,16580,1,0,0:0:0:0:
256,192,16655,1,0,0:0:0:0:
256,192,16730,1,0,0:0:0:0:
256,192,16805,1,8,0:0:0:0:
256,192,16955,1,0,0:0:0:0:
256,192,17105,1,8,0:0:0:0:
256,192,17255,1,0,0:0:0:0:
256,192,17330,1,0,0:0:0:0:
256,192,17405,1,0,0:0:0:0:
256,192,17555,1,8,0:0:0:0:
256,192,17705,1,0,0:0:0:0:
256,192,17780,1,0,0:0:0:0:
256,192,17855,1,0,0:0:0:0:
256,192,18005,1,8,0:0:0:0:
256,192,18080,1,8,0:0:0:0:
256,192,18155,1,0,0:0:0:0:
256,192,18230,1,0,0:0:0:0:
256,192,18305,1,8,0:0:0:0:
256,192,18455,1,0,0:0:0:0:
256,192,18530,1,0,0:0:0:0:
256,192,18605,1,0,0:0:0:0:
256,192,18755,1,8,0:0:0:0:
256,192,18905,1,0,0:0:0:0:
256,192,19005,1,0,0:0:0:0:
256,192,19105,1,0,0:0:0:0:
256,192,19205,1,8,0:0:0:0:
256,192,19355,1,0,0:0:0:0:
256,192,19505,1,12,0:0:0:0:
256,192,19805,5,0,0:0:0:0:
256,192,19955,1,0,0:0:0:0:
256,192,20105,1,8,0:0:0:0:
256,192,20255,1,8,0:0:0:0:
256,192,20405,1,8,0:0:0:0:
256,192,20555,1,8,0:0:0:0:
256,192,20705,1,4,0:0:0:0:
256,192,21005,1,8,0:0:0:0:
256,192,21155,1,4,0:0:0:0:
256,192,21455,1,8,0:0:0:0:
256,192,21530,1,8,0:0:0:0:
256,192,21605,1,8,0:0:0:0:
256,192,21680,1,0,0:0:0:0:
256,192,21755,1,0,0:0:0:0:
256,192,21830,1,0,0:0:0:0:
256,192,21905,1,12,0:0:0:0:
256,192,22205,1,0,0:0:0:0:
256,192,22355,1,12,0:0:0:0:
256,192,22655,1,8,0:0:0:0:
256,192,22730,1,8,0:0:0:0:
256,192,22805,1,0,0:0:0:0:
256,192,22880,1,8,0:0:0:0:
256,192,22955,1,0,0:0:0:0:
256,192,23030,1,0,0:0:0:0:
256,192,23105,1,12,0:0:0:0:
256,192,23255,1,0,0:0:0:0:
256,224,23330,1,0,0:0:0:0:
256,224,23405,1,0,0:0:0:0:
256,192,23555,1,12,0:0:0:0:
224,192,23705,1,0,0:0:0:0:
224,192,23780,1,0,0:0:0:0:
256,192,23855,1,0,0:0:0:0:
256,192,24005,1,12,0:0:0:0:
256,192,24155,1,0,0:0:0:0:
256,192,24230,1,8,0:0:0:0:
256,224,24305,1,0,0:0:0:0:
256,192,24455,1,8,0:0:0:0:
256,192,24605,1,0,0:0:0:0:
256,192,24755,1,0,0:0:0:0:
256,192,24905,1,8,0:0:0:0:
256,192,25055,1,8,0:0:0:0:
256,192,25130,1,0,0:0:0:0:
256,192,25205,1,8,0:0:0:0:
256,192,25355,1,8,0:0:0:0:
256,192,25505,1,4,0:0:0:0:
256,192,25655,1,0,0:0:0:0:
256,192,25730,1,0,0:0:0:0:
256,192,25805,1,8,0:0:0:0:
256,192,25955,1,0,0:0:0:0:
256,192,26105,1,8,0:0:0:0:
256,192,26180,1,0,0:0:0:0:
256,192,26255,1,8,0:0:0:0:
256,192,26330,1,8,0:0:0:0:
256,192,26405,1,0,0:0:0:0:
256,192,26555,1,8,0:0:0:0:
256,192,26705,1,0,0:0:0:0:
256,192,26855,1,0,0:0:0:0:
256,192,26930,1,0,0:0:0:0:
256,192,27005,1,8,0:0:0:0:
256,192,27155,1,8,0:0:0:0:
256,192,27230,1,8,0:0:0:0:
256,192,27305,1,0,0:0:0:0:
256,192,27380,1,0,0:0:0:0:
256,192,27455,1,0,0:0:0:0:
288,192,27605,1,8,0:0:0:0:
256,192,27755,1,8,0:0:0:0:
256,192,27830,1,8,0:0:0:0:
256,192,27905,1,0,0:0:0:0:
256,192,28055,1,0,0:0:0:0:
256,192,28130,1,0,0:0:0:0:
256,192,28205,1,8,0:0:0:0:
256,192,28355,1,0,0:0:0:0:
256,192,28505,1,8,0:0:0:0:
256,192,28605,1,8,0:0:0:0:
256,192,28705,1,0,0:0:0:0:
256,192,28805,1,8,0:0:0:0:
256,192,28955,1,8,0:0:0:0:
256,192,29105,1,0,0:0:0:0:
256,192,29255,1,0,0:0:0:0:
256,192,29330,1,0,0:0:0:0:
256,192,29405,1,8,0:0:0:0:
256,192,29555,1,8,0:0:0:0:
256,192,29705,1,0,0:0:0:0:
256,192,29855,1,0,0:0:0:0:
256,192,29930,1,0,0:0:0:0:
256,192,30005,1,8,0:0:0:0:
256,192,30080,1,0,0:0:0:0:
256,192,30155,1,8,0:0:0:0:
256,192,30230,1,8,0:0:0:0:
256,192,30305,1,4,0:0:0:0:
256,192,30455,1,0,0:0:0:0:
256,192,30530,1,0,0:0:0:0:
256,192,30605,1,8,0:0:0:0:
256,192,30755,1,8,0:0:0:0:
256,192,30905,1,0,0:0:0:0:
256,192,30980,1,0,0:0:0:0:
256,192,31055,1,8,0:0:0:0:
256,192,31130,1,8,0:0:0:0:
256,192,31205,1,0,0:0:0:0:
256,192,31355,1,8,0:0:0:0:
256,192,31505,1,0,0:0:0:0:
256,192,31655,1,0,0:0:0:0:
256,192,31730,1,0,0:0:0:0:
256,192,31805,1,8,0:0:0:0:
256,192,31955,1,8,0:0:0:0:
256,192,32030,1,8,0:0:0:0:
256,192,32105,1,0,0:0:0:0:
256,192,32180,1,0,0:0:0:0:
256,192,32255,1,0,0:0:0:0:
256,192,32405,1,8,0:0:0:0:
256,192,32555,1,0,0:0:0:0:
256,192,32630,1,8,0:0:0:0:
256,192,32705,1,0,0:0:0:0:
256,192,32855,1,0,0:0:0:0:
256,192,32930,1,0,0:0:0:0:
256,192,33005,1,8,0:0:0:0:
256,192,33155,1,0,0:0:0:0:
256,192,33305,1,8,0:0:0:0:
256,192,33405,1,0,0:0:0:0:
256,192,33505,1,0,0:0:0:0:
256,192,33605,1,8,0:0:0:0:
256,192,33755,1,8,0:0:0:0:
256,192,33905,1,0,0:0:0:0:
256,192,33980,1,0,0:0:0:0:
256,192,34055,1,8,0:0:0:0:
256,192,34130,1,8,0:0:0:0:
256,192,34205,1,8,0:0:0:0:
256,192,34280,1,8,0:0:0:0:
256,192,34355,1,0,0:0:0:0:
256,192,34430,1,0,0:0:0:0:
256,192,34505,1,8,0:0:0:0:
256,192,34580,1,8,0:0:0:0:
256,192,34655,1,8,0:0:0:0:
256,192,34730,1,8,0:0:0:0:
256,192,34805,1,0,0:0:0:0:
256,192,34880,1,0,0:0:0:0:
256,192,34955,1,0,0:0:0:0:
256,192,35030,1,0,0:0:0:0:
256,192,35105,1,12,0:0:0:0:
256,192,35255,1,0,0:0:0:0:
256,192,35330,1,0,0:0:0:0:
256,192,35405,1,8,0:0:0:0:
256,192,35555,1,0,0:0:0:0:
256,192,35705,1,8,0:0:0:0:
256,192,35780,1,0,0:0:0:0:
256,192,35855,1,8,0:0:0:0:
256,192,35930,1,8,0:0:0:0:
256,192,36005,1,0,0:0:0:0:
288,192,36155,1,8,0:0:0:0:
256,192,36305,1,0,0:0:0:0:
256,192,36455,1,0,0:0:0:0:
256,192,36530,1,0,0:0:0:0:
256,192,36605,1,8,0:0:0:0:
256,192,36755,1,8,0:0:0:0:
256,192,36830,1,8,0:0:0:0:
256,192,36905,1,0,0:0:0:0:
256,192,36980,1,0,0:0:0:0:
256,192,37055,1,0,0:0:0:0:
256,192,37205,1,8,0:0:0:0:
256,192,37355,1,8,0:0:0:0:
256,192,37430,1,8,0:0:0:0:
256,192,37505,1,0,0:0:0:0:
256,192,37655,1,0,0:0:0:0:
256,192,37730,1,0,0:0:0:0:
256,192,37805,1,8,0:0:0:0:
256,192,37955,1,0,0:0:0:0:
256,192,38105,1,8,0:0:0:0:
256,192,38205,1,8,0:0:0:0:
256,192,38305,1,0,0:0:0:0:
256,192,38405,1,8,0:0:0:0:
256,192,38555,1,0,0:0:0:0:
256,192,38630,1,0,0:0:0:0:
256,192,38705,1,8,0:0:0:0:
256,192,38780,1,8,0:0:0:0:
256,192,38855,1,8,0:0:0:0:
256,192,38930,1,8,0:0:0:0:
256,192,39005,1,0,0:0:0:0:
256,192,39080,1,0,0:0:0:0:
256,192,39155,1,8,0:0:0:0:
256,192,39230,1,8,0:0:0:0:
256,192,39305,1,8,0:0:0:0:
256,192,39380,1,8,0:0:0:0:
256,192,39455,1,0,0:0:0:0:
256,192,39530,1,0,0:0:0:0:
256,192,39605,1,8,0:0:0:0:
256,192,39680,1,8,0:0:0:0:
256,192,39755,1,8,0:0:0:0:
256,192,39830,1,8,0:0:0:0:
256,192,39905,1,4,0:0:0:0:
256,192,40055,1,8,0:0:0:0:
256,192,40205,1,8,0:0:0:0:
256,192,40355,1,4,0:0:0:0:
256,192,40505,1,8,0:0:0:0:
256,192,40655,1,8,0:0:0:0:
256,192,40805,1,4,0:0:0:0:
256,192,40955,1,0,0:0:0:0:
256,192,41105,1,12,0:0:0:0:
256,192,41255,1,0,0:0:0:0:
256,192,41405,1,0,0:0:0:0:
256,192,41555,1,12,0:0:0:0:
256,192,41705,1,0,0:0:0:0:
256,192,41855,1,0,0:0:0:0:
256,192,42005,1,12,0:0:0:0:
256,192,42155,1,0,0:0:0:0:
256,192,42305,1,8,0:0:0:0:
256,192,42455,1,0,0:0:0:0:
256,192,42605,1,8,0:0:0:0:
256,224,42755,1,8,0:0:0:0:
256,192,42905,1,0,0:0:0:0:
256,192,43055,1,0,0:0:0:0:
256,192,43205,1,8,0:0:0:0:
256,192,43355,1,8,0:0:0:0:
256,192,44105,5,8,0:0:0:0:
256,192,44142,1,8,0:0:0:0:
256,192,44405,5,4,0:0:0:0:
256,192,44555,1,12,0:0:0:0:
256,192,44705,12,0,49505,0:0:0:0:
