osu file format v14

[General]
AudioFilename: audio.mp3
AudioLeadIn: 0
PreviewTime: 11454
Countdown: 0
SampleSet: Normal
StackLeniency: 0.7
Mode: 1
LetterboxInBreaks: 0
WidescreenStoryboard: 1

[Editor]
Bookmarks: 6337,11984,17631,23278,28925,34572,40219,45160
DistanceSpacing: 1.1
BeatDivisor: 4
GridSize: 32
TimelineZoom: 0.8

[Metadata]
Title:Opening Groove
TitleUnicode:Opening Groove
Artist:Phonetic Hero
ArtistUnicode:Phonetic Hero
Creator:Ryxliee
Version:Tachi's Kantan
Source:Wargroove
Tags:pete lepley video game original soundtrack ost music instrumental chucklefish limited indie album tachibana_ froskya revialink
BeatmapID:3508476
BeatmapSetID:1716180

[Difficulty]
HPDrainRate:8.5
CircleSize:2
OverallDifficulty:2
ApproachRate:9
SliderMultiplier:1.4
SliderTickRate:1

[Events]
//Background and Video events
Video,50,"video.mp4"
0,0,"bg.jpg",0,120
//Break Periods
//Storyboard Layer 0 (Background)
//Storyboard Layer 1 (Fail)
//Storyboard Layer 2 (Pass)
//Storyboard Layer 3 (Foreground)
//Storyboard Layer 4 (Overlay)
//Storyboard Sound Samples

[TimingPoints]
690,352.941176470589,4,1,0,40,1,0
6337,-100,4,1,0,50,0,0
11984,-100,4,1,0,70,0,0
17631,-100,4,1,0,60,0,0

[HitObjects]
256,192,690,5,8,0:0:0:0:
256,192,1219,1,0,0:0:0:0:
256,192,3160,1,0,0:0:0:0:
256,192,3513,1,8,0:0:0:0:
256,192,4042,1,8,0:0:0:0:
256,192,5984,1,0,0:0:0:0:
256,192,6337,1,8,0:0:0:0:
256,192,6866,1,8,0:0:0:0:
256,192,7748,1,0,0:0:0:0:
256,192,8807,1,0,0:0:0:0:
256,192,9160,1,8,0:0:0:0:
256,192,9689,1,8,0:0:0:0:
256,192,10219,1,0,0:0:0:0:
256,192,10572,1,0,0:0:0:0:
256,192,11631,1,0,0:0:0:0:
256,192,11984,1,12,0:0:0:0:
256,192,12513,1,8,0:0:0:0:
256,192,13042,1,0,0:0:0:0:
256,192,13395,1,12,0:0:0:0:
256,192,13925,1,0,0:0:0:0:
256,192,14454,1,0,0:0:0:0:
256,192,14807,1,12,0:0:0:0:
256,192,15866,1,0,0:0:0:0:
256,192,16219,1,8,0:0:0:0:
256,192,16748,1,0,0:0:0:0:
256,192,17278,1,0,0:0:0:0:
256,192,17631,1,12,0:0:0:0:
256,192,19042,1,8,0:0:0:0:
256,192,19572,1,0,0:0:0:0:
256,192,20101,1,8,0:0:0:0:
256,192,20454,1,8,0:0:0:0:
256,192,20984,1,0,0:0:0:0:
256,192,21866,1,8,0:0:0:0:
256,192,22395,1,0,0:0:0:0:
256,192,22925,1,0,0:0:0:0:
256,192,23278,1,12,0:0:0:0:
256,192,24690,1,8,0:0:0:0:
256,192,25219,1,0,0:0:0:0:
256,192,25748,1,0,0:0:0:0:
256,192,26101,1,8,0:0:0:0:
256,192,26631,1,0,0:0:0:0:
256,192,27160,1,0,0:0:0:0:
256,192,27513,1,8,0:0:0:0:
256,192,28042,1,8,0:0:0:0:
256,192,28572,1,0,0:0:0:0:
256,192,28925,1,12,0:0:0:0:
256,192,30337,1,8,0:0:0:0:
256,192,30866,1,0,0:0:0:0:
256,192,31395,1,0,0:0:0:0:
256,192,31748,1,8,0:0:0:0:
256,192,32454,1,0,0:0:0:0:
256,192,32984,1,8,0:0:0:0:
256,192,33690,1,0,0:0:0:0:
256,192,34219,1,0,0:0:0:0:
256,192,34572,1,8,0:0:0:0:
256,192,35278,1,0,0:0:0:0:
256,192,35807,1,8,0:0:0:0:
256,192,37042,1,0,0:0:0:0:
256,192,37395,1,12,0:0:0:0:
256,192,37925,1,8,0:0:0:0:
256,192,38454,1,0,0:0:0:0:
256,192,38807,1,8,0:0:0:0:
256,192,39337,1,0,0:0:0:0:
256,192,39866,1,0,0:0:0:0:
256,192,40219,1,12,0:0:0:0:
256,192,40925,1,8,0:0:0:0:
256,192,41454,1,4,0:0:0:0:
256,192,42160,1,0,0:0:0:0:
256,192,42690,1,12,0:0:0:0:
256,192,43395,1,0,0:0:0:0:
256,192,43925,1,0,0:0:0:0:
256,192,44454,1,8,0:0:0:0:
256,192,44807,1,0,0:0:0:0:
256,192,45160,1,12,0:0:0:0:
