osu file format v14

[General]
AudioFilename: audio.mp3
AudioLeadIn: 0
PreviewTime: 11454
Countdown: 0
SampleSet: Normal
StackLeniency: 0.7
Mode: 1
LetterboxInBreaks: 0
WidescreenStoryboard: 1

[Editor]
Bookmarks: 6337,11984,17631,23278,28925,34572,40219,45160
DistanceSpacing: 1.1
BeatDivisor: 4
GridSize: 32
TimelineZoom: 1.06

[Metadata]
Title:Opening Groove
TitleUnicode:Opening Groove
Artist:Phonetic Hero
ArtistUnicode:Phonetic Hero
Creator:Ryxliee
Version:Froskya's Futsuu
Source:Wargroove
Tags:pete lepley video game original soundtrack ost music instrumental chucklefish limited indie album tachibana_ froskya revialink
BeatmapID:3514174
BeatmapSetID:1716180

[Difficulty]
HPDrainRate:7.5
CircleSize:2
OverallDifficulty:3
ApproachRate:9
SliderMultiplier:1.4
SliderTickRate:1

[Events]
//Background and Video events
0,0,"bg.jpg",0,120
Video,50,"video.mp4"
//Break Periods
//Storyboard Layer 0 (Background)
//Storyboard Layer 1 (Fail)
//Storyboard Layer 2 (Pass)
//Storyboard Layer 3 (Foreground)
//Storyboard Layer 4 (Overlay)
//Storyboard Sound Samples

[TimingPoints]
690,352.941176470589,4,1,0,40,1,0
6337,-100,4,1,0,50,0,0
11984,-100,4,1,0,70,0,0
17631,-100,4,1,0,60,0,0

[HitObjects]
256,192,690,5,8,0:0:0:0:
256,192,1219,5,8,0:0:0:0:
256,192,3160,5,0,0:0:0:0:
256,192,3337,5,0,0:0:0:0:
256,192,3513,5,8,0:0:0:0:
256,192,4042,5,8,0:0:0:0:
256,192,5984,5,0,0:0:0:0:
256,192,6160,5,0,0:0:0:0:
256,192,6337,5,8,0:0:0:0:
256,192,6866,5,8,0:0:0:0:
256,192,7748,5,8,0:0:0:0:
256,192,7925,5,0,0:0:0:0:
256,192,8454,5,8,0:0:0:0:
256,192,8807,5,0,0:0:0:0:
256,192,8984,5,0,0:0:0:0:
256,192,9160,5,8,0:0:0:0:
256,192,9690,5,8,0:0:0:0:
256,192,10219,5,8,0:0:0:0:
256,192,10572,5,0,0:0:0:0:
256,192,11278,5,8,0:0:0:0:
256,192,11631,5,0,0:0:0:0:
256,192,11807,5,0,0:0:0:0:
256,192,11984,5,12,0:0:0:0:
256,192,12513,5,8,0:0:0:0:
256,192,13042,5,0,0:0:0:0:
256,192,13395,5,12,0:0:0:0:
256,192,13925,5,0,0:0:0:0:
256,192,14454,5,0,0:0:0:0:
256,192,14631,5,0,0:0:0:0:
256,192,14807,5,12,0:0:0:0:
256,192,15337,5,8,0:0:0:0:
256,192,15866,5,0,0:0:0:0:
256,192,16042,5,0,0:0:0:0:
256,192,16219,5,8,0:0:0:0:
256,192,16748,5,0,0:0:0:0:
256,192,17101,5,8,0:0:0:0:
256,192,17278,1,8,0:0:0:0:
256,192,17631,5,4,0:0:0:0:
256,192,18337,5,8,0:0:0:0:
256,192,18690,5,0,0:0:0:0:
256,192,19042,5,8,0:0:0:0:
256,192,19572,5,0,0:0:0:0:
256,192,20101,5,8,0:0:0:0:
256,192,20278,5,0,0:0:0:0:
256,192,20454,5,8,0:0:0:0:
256,192,20984,5,0,0:0:0:0:
256,192,21513,5,0,0:0:0:0:
256,192,21690,5,0,0:0:0:0:
256,192,21866,5,8,0:0:0:0:
256,192,22395,5,0,0:0:0:0:
256,192,22748,1,8,0:0:0:0:
256,192,22925,5,8,0:0:0:0:
256,192,23278,5,4,0:0:0:0:
256,192,23984,5,8,0:0:0:0:
256,192,24337,5,0,0:0:0:0:
256,192,24690,5,8,0:0:0:0:
256,192,25219,5,0,0:0:0:0:
256,192,25748,5,8,0:0:0:0:
256,192,25925,5,0,0:0:0:0:
256,192,26101,5,8,0:0:0:0:
256,192,26631,5,0,0:0:0:0:
256,192,27160,5,0,0:0:0:0:
256,192,27337,5,0,0:0:0:0:
256,192,27513,5,8,0:0:0:0:
256,192,28042,5,0,0:0:0:0:
256,192,28395,1,8,0:0:0:0:
256,192,28572,5,8,0:0:0:0:
256,192,28925,5,4,0:0:0:0:
256,192,29631,5,8,0:0:0:0:
256,192,29984,5,0,0:0:0:0:
256,192,30337,5,8,0:0:0:0:
256,192,31395,5,0,0:0:0:0:
256,192,31572,5,0,0:0:0:0:
256,192,31748,5,8,0:0:0:0:
256,192,32454,5,0,0:0:0:0:
256,192,32807,5,8,0:0:0:0:
256,192,32984,5,8,0:0:0:0:
256,192,33337,1,0,0:0:0:0:
256,192,33690,5,0,0:0:0:0:
256,192,34219,5,0,0:0:0:0:
256,192,34395,5,0,0:0:0:0:
256,192,34572,5,8,0:0:0:0:
256,192,35278,5,8,0:0:0:0:
256,192,35454,5,0,0:0:0:0:
256,192,35630,5,0,0:0:0:0:
256,192,35807,5,8,0:0:0:0:
256,192,36160,5,0,0:0:0:0:
256,192,36513,5,0,0:0:0:0:
256,192,36690,5,0,0:0:0:0:
256,192,37042,5,8,0:0:0:0:
256,192,37395,5,12,0:0:0:0:
256,192,37925,5,8,0:0:0:0:
256,192,38101,5,0,0:0:0:0:
256,192,38454,5,0,0:0:0:0:
256,192,38631,5,0,0:0:0:0:
256,192,38807,5,8,0:0:0:0:
256,192,39337,5,8,0:0:0:0:
256,192,39513,5,0,0:0:0:0:
256,192,39866,5,0,0:0:0:0:
256,192,40042,5,0,0:0:0:0:
256,192,40219,5,12,0:0:0:0:
256,192,40925,5,8,0:0:0:0:
256,192,41101,1,8,0:0:0:0:
256,192,41454,5,4,0:0:0:0:
256,192,42160,5,8,0:0:0:0:
256,192,42337,5,0,0:0:0:0:
256,192,42690,5,12,0:0:0:0:
256,192,43219,5,0,0:0:0:0:
256,192,43395,5,8,0:0:0:0:
256,192,43748,5,8,0:0:0:0:
256,192,43925,5,0,0:0:0:0:
256,192,44101,5,0,0:0:0:0:
256,192,44278,5,0,0:0:0:0:
256,192,44454,5,8,0:0:0:0:
256,192,44807,5,0,0:0:0:0:
256,192,45160,5,12,0:0:0:0:
