osu file format v14

[General]
AudioFilename: audio.mp3
AudioLeadIn: 0
PreviewTime: 11454
Countdown: 0
SampleSet: Normal
StackLeniency: 0.7
Mode: 1
LetterboxInBreaks: 0
WidescreenStoryboard: 0

[Editor]
Bookmarks: 6337,11984,17631,23278,28925,34572,40219,45160
DistanceSpacing: 1.1
BeatDivisor: 4
GridSize: 32
TimelineZoom: 1.1

[Metadata]
Title:Opening Groove
TitleUnicode:Opening Groove
Artist:Phonetic Hero
ArtistUnicode:Phonetic Hero
Creator:Ryxliee
Version:Adventure
Source:Wargroove
Tags:pete lepley video game original soundtrack ost music instrumental chucklefish limited indie album tachibana_ froskya revialink
BeatmapID:3506712
BeatmapSetID:1716180

[Difficulty]
HPDrainRate:6.5
CircleSize:2
OverallDifficulty:4
ApproachRate:9
SliderMultiplier:1.4
SliderTickRate:1

[Events]
//Background and Video events
Video,50,"video.mp4"
0,0,"bg.jpg",0,120
//Break Periods
//Storyboard Layer 0 (Background)
//Storyboard Layer 1 (Fail)
//Storyboard Layer 2 (Pass)
//Storyboard Layer 3 (Foreground)
//Storyboard Layer 4 (Overlay)
//Storyboard Sound Samples

[TimingPoints]
690,352.941176470589,4,1,0,40,1,0
690,-111.111111111111,4,1,0,40,0,0
5807,-108.108108108108,4,1,0,40,0,0
5984,-105.263157894737,4,1,0,40,0,0
6160,-102.564102564103,4,1,0,40,0,0
6248,-101.26582278481,4,1,0,40,0,0
6337,-100,4,1,0,50,0,0
11631,-96.8054211035818,4,1,0,50,0,0
11807,-93.8086303939962,4,1,0,50,0,0
11984,-90.9090909090909,4,1,0,70,0,0
17631,-90.9090909090909,4,1,0,60,0,0

[HitObjects]
256,192,690,5,0,0:0:0:0:
256,192,1219,1,8,0:0:0:0:
256,192,1395,1,0,0:0:0:0:
256,192,2278,1,0,0:0:0:0:
256,192,2807,1,8,0:0:0:0:
256,192,3160,1,8,0:0:0:0:
256,192,3337,1,8,0:0:0:0:
256,192,3513,1,0,0:0:0:0:
256,192,4042,1,8,0:0:0:0:
256,192,4219,1,0,0:0:0:0:
256,192,5101,1,0,0:0:0:0:
256,192,5454,1,0,0:0:0:0:
256,192,5631,1,8,0:0:0:0:
256,192,5807,1,0,0:0:0:0:
256,192,5984,1,8,0:0:0:0:
256,192,6160,1,0,0:0:0:0:
256,192,6248,1,0,0:0:0:0:
256,192,6337,1,0,0:0:0:0:
256,192,6690,1,0,0:0:0:0:
256,192,6866,1,8,0:0:0:0:
256,192,7042,1,0,0:0:0:0:
256,192,7395,1,0,0:0:0:0:
256,192,7748,1,8,0:0:0:0:
256,192,7925,1,0,0:0:0:0:
256,192,8278,1,0,0:0:0:0:
256,192,8454,1,8,0:0:0:0:
256,192,8807,1,0,0:0:0:0:
256,192,8984,1,0,0:0:0:0:
256,192,9160,1,8,0:0:0:0:
256,192,9513,1,0,0:0:0:0:
256,192,9690,1,8,0:0:0:0:
256,192,10219,1,8,0:0:0:0:
256,192,10572,1,8,0:0:0:0:
256,192,10748,1,0,0:0:0:0:
256,192,11101,1,8,0:0:0:0:
256,192,11190,1,8,0:0:0:0:
256,192,11278,1,8,0:0:0:0:
256,192,11454,1,0,0:0:0:0:
256,192,11631,1,8,0:0:0:0:
256,192,11807,1,8,0:0:0:0:
256,192,11984,1,4,0:0:0:0:
256,192,12513,1,8,0:0:0:0:
256,192,12690,1,0,0:0:0:0:
256,192,13042,1,0,0:0:0:0:
256,192,13219,1,0,0:0:0:0:
256,192,13395,1,12,0:0:0:0:
256,192,13925,1,8,0:0:0:0:
256,192,14101,1,0,0:0:0:0:
256,192,14454,1,8,0:0:0:0:
256,192,14631,1,8,0:0:0:0:
256,192,14807,1,4,0:0:0:0:
256,192,15337,1,8,0:0:0:0:
256,192,15513,1,0,0:0:0:0:
256,192,15690,1,0,0:0:0:0:
256,192,15866,1,8,0:0:0:0:
256,192,16042,1,8,0:0:0:0:
256,192,16219,1,0,0:0:0:0:
256,192,16748,1,0,0:0:0:0:
256,192,16925,1,8,0:0:0:0:
256,192,17101,1,0,0:0:0:0:
256,192,17278,1,0,0:0:0:0:
256,192,17366,1,0,0:0:0:0:
256,192,17454,1,0,0:0:0:0:
256,192,17631,1,12,0:0:0:0:
256,192,17807,1,8,0:0:0:0:
256,192,17984,1,0,0:0:0:0:
256,192,18337,1,0,0:0:0:0:
256,192,18690,1,0,0:0:0:0:
256,192,18866,1,8,0:0:0:0:
256,192,18954,1,8,0:0:0:0:
256,192,19042,1,8,0:0:0:0:
256,192,19219,1,0,0:0:0:0:
256,192,19572,1,8,0:0:0:0:
256,192,19925,1,0,0:0:0:0:
256,192,20101,1,8,0:0:0:0:
256,192,20278,1,0,0:0:0:0:
256,192,20454,1,8,0:0:0:0:
256,192,20631,1,8,0:0:0:0:
256,192,20984,1,0,0:0:0:0:
256,192,21337,1,0,0:0:0:0:
256,192,21513,1,8,0:0:0:0:
256,192,21690,1,0,0:0:0:0:
256,192,21778,1,0,0:0:0:0:
256,192,21866,1,0,0:0:0:0:
256,192,22219,1,0,0:0:0:0:
256,192,22395,1,8,0:0:0:0:
256,192,22748,1,0,0:0:0:0:
256,192,22837,1,0,0:0:0:0:
256,192,22925,1,0,0:0:0:0:
256,192,23101,1,0,0:0:0:0:
256,192,23278,1,12,0:0:0:0:
256,192,23454,1,8,0:0:0:0:
256,192,23631,1,0,0:0:0:0:
256,192,23984,1,0,0:0:0:0:
256,192,24337,1,0,0:0:0:0:
256,192,24513,1,8,0:0:0:0:
256,192,24601,1,8,0:0:0:0:
256,192,24689,1,8,0:0:0:0:
256,192,24866,1,0,0:0:0:0:
256,192,25219,1,8,0:0:0:0:
256,192,25572,1,0,0:0:0:0:
256,192,25660,1,0,0:0:0:0:
256,192,25748,1,0,0:0:0:0:
256,192,25925,1,0,0:0:0:0:
256,192,26101,1,8,0:0:0:0:
256,192,26454,1,0,0:0:0:0:
256,192,26631,1,8,0:0:0:0:
256,192,26984,1,0,0:0:0:0:
256,192,27160,1,8,0:0:0:0:
256,192,27337,1,0,0:0:0:0:
256,192,27513,1,0,0:0:0:0:
256,192,28042,1,8,0:0:0:0:
256,192,28219,1,0,0:0:0:0:
256,192,28572,1,8,0:0:0:0:
256,192,28748,1,0,0:0:0:0:
256,192,28925,1,12,0:0:0:0:
256,192,29101,1,8,0:0:0:0:
256,192,29278,1,0,0:0:0:0:
256,192,29631,1,0,0:0:0:0:
256,192,29984,1,0,0:0:0:0:
256,192,30160,1,8,0:0:0:0:
256,192,30248,1,8,0:0:0:0:
256,192,30336,1,8,0:0:0:0:
256,192,30513,1,0,0:0:0:0:
256,192,30866,1,8,0:0:0:0:
256,192,31219,1,8,0:0:0:0:
256,192,31395,1,0,0:0:0:0:
256,192,31572,1,0,0:0:0:0:
256,192,31748,1,8,0:0:0:0:
256,192,31925,1,8,0:0:0:0:
256,192,32278,1,0,0:0:0:0:
256,192,32366,1,0,0:0:0:0:
256,192,32454,1,0,0:0:0:0:
256,192,32807,1,0,0:0:0:0:
256,192,32984,1,8,0:0:0:0:
256,192,33337,1,8,0:0:0:0:
256,192,33690,1,8,0:0:0:0:
256,192,34042,1,0,0:0:0:0:
256,192,34219,1,8,0:0:0:0:
256,192,34395,1,0,0:0:0:0:
256,192,34572,1,8,0:0:0:0:
256,192,34748,1,8,0:0:0:0:
256,192,35101,1,0,0:0:0:0:
256,192,35190,1,0,0:0:0:0:
256,192,35278,1,0,0:0:0:0:
256,192,35454,1,8,0:0:0:0:
256,192,35631,1,8,0:0:0:0:
256,192,35807,1,0,0:0:0:0:
256,192,36160,1,0,0:0:0:0:
256,192,36513,1,8,0:0:0:0:
256,192,36601,1,8,0:0:0:0:
256,192,36690,1,8,0:0:0:0:
256,192,36866,1,0,0:0:0:0:
256,192,37042,1,8,0:0:0:0:
256,192,37395,1,12,0:0:0:0:
256,192,37572,1,0,0:0:0:0:
256,192,37925,1,0,0:0:0:0:
256,192,38101,1,8,0:0:0:0:
256,192,38454,1,0,0:0:0:0:
256,192,38631,1,0,0:0:0:0:
256,192,38807,1,8,0:0:0:0:
256,192,38984,1,0,0:0:0:0:
256,192,39337,1,0,0:0:0:0:
256,192,39513,1,8,0:0:0:0:
256,192,39690,1,8,0:0:0:0:
256,192,39866,1,0,0:0:0:0:
256,192,39954,1,0,0:0:0:0:
256,192,40043,1,0,0:0:0:0:
256,192,40219,1,12,0:0:0:0:
256,192,40395,1,0,0:0:0:0:
256,192,40748,1,0,0:0:0:0:
256,192,40925,1,8,0:0:0:0:
256,192,41101,1,8,0:0:0:0:
256,192,41278,1,0,0:0:0:0:
256,192,41454,1,12,0:0:0:0:
256,192,41807,1,0,0:0:0:0:
256,192,42160,1,8,0:0:0:0:
256,192,42337,1,0,0:0:0:0:
256,192,42513,1,0,0:0:0:0:
256,192,42690,1,12,0:0:0:0:
256,192,43042,1,8,0:0:0:0:
256,192,43219,1,8,0:0:0:0:
256,192,43395,1,0,0:0:0:0:
256,192,43748,1,8,0:0:0:0:
256,192,43925,1,0,0:0:0:0:
256,192,44278,1,0,0:0:0:0:
256,192,44454,1,8,0:0:0:0:
256,192,44631,1,0,0:0:0:0:
256,192,44719,1,0,0:0:0:0:
256,192,44807,1,0,0:0:0:0:
256,192,44984,1,0,0:0:0:0:
256,192,45160,1,12,0:0:0:0:
