osu file format v14

[General]
AudioFilename: audio.mp3
AudioLeadIn: 0
PreviewTime: 245465
Countdown: 0
SampleSet: Soft
StackLeniency: 0.3
Mode: 0
LetterboxInBreaks: 0
WidescreenStoryboard: 0

[Editor]
Bookmarks: 89273,122762,156250,178576,200901,234390,267878
DistanceSpacing: 1.7
BeatDivisor: 4
GridSize: 32
TimelineZoom: 4.499998

[Metadata]
Title:Journey
TitleUnicode:Journey
Artist:Phonetic
ArtistUnicode:Phonetic
Creator:Left
Version:Niva & Neil's Hard
Source:osu!
Tags:Mappers' Guild High Tea Music Featured Artist Sonnyc NeilPerry Niva Kibbleru Ringating
BeatmapID:1674210
BeatmapSetID:795432

[Difficulty]
HPDrainRate:5
CircleSize:3.6
OverallDifficulty:7
ApproachRate:8
SliderMultiplier:1.15
SliderTickRate:1

[Events]
//Background and Video events
0,0,"skything.png",0,0
//Break Periods
//Storyboard Layer 0 (Background)
//Storyboard Layer 1 (Fail)
//Storyboard Layer 2 (Pass)
//Storyboard Layer 3 (Foreground)
//Storyboard Sound Samples

[TimingPoints]
22287,348.837209302326,4,2,7,58,1,0
89263,-111.111111111111,4,2,7,58,0,0
90659,-142.857142857143,4,2,7,58,0,0
91531,-90.9090909090909,4,2,7,58,0,0
92054,-111.111111111111,4,2,7,58,0,0
96240,-142.857142857143,4,2,7,58,0,0
97112,-90.9090909090909,4,2,7,58,0,0
97635,-111.111111111111,4,2,7,58,0,0
101821,-142.857142857143,4,2,7,58,0,0
102693,-90.9090909090909,4,2,7,58,0,0
103217,-111.111111111111,4,2,7,58,0,0
107752,-142.857142857143,4,2,7,58,0,0
108798,-111.111111111111,4,2,7,58,0,0
112984,-142.857142857143,4,2,7,58,0,0
113856,-90.9090909090909,4,2,7,58,0,0
114380,-111.111111111111,4,2,7,58,0,0
118566,-142.857142857143,4,2,7,58,0,0
119438,-90.9090909090909,4,2,7,58,0,0
119961,-111.111111111111,4,2,7,58,0,0
124147,-142.857142857143,4,2,7,58,0,0
125019,-90.9090909090909,4,2,7,58,0,0
125542,-111.111111111111,4,2,7,58,0,0
128333,-142.857142857143,4,2,7,58,0,0
129031,-111.111111111111,4,2,7,58,0,0
130077,-142.857142857143,4,2,7,58,0,0
131124,-111.111111111111,4,2,7,58,0,0
133914,-111.111111111111,4,2,7,50,0,0
134612,-142.857142857143,4,2,7,50,0,0
136182,-90.9090909090909,4,2,7,50,0,0
136705,-111.111111111111,4,2,7,50,0,0
140891,-142.857142857143,4,2,7,50,0,0
141763,-90.9090909090909,4,2,7,50,0,0
142287,-111.111111111111,4,2,7,50,0,0
146473,-142.857142857143,4,2,7,50,0,0
147345,-90.9090909090909,4,2,7,50,0,0
147868,-111.111111111111,4,2,7,50,0,0
150659,-142.857142857143,4,2,7,50,0,0
151356,-111.111111111111,4,2,7,50,0,0
152403,-142.857142857143,4,2,7,50,0,0
153449,-111.111111111111,4,2,7,50,0,0
156240,-166.666666666667,4,2,7,35,0,0
164525,-166.666666666667,4,2,7,15,0,0
164612,-166.666666666667,4,2,7,35,0,0
166356,-166.666666666667,4,2,7,35,0,0
166705,-166.666666666667,4,2,7,35,0,0
167054,-166.666666666667,4,2,7,5,0,0
167403,-166.666666666667,4,2,7,35,0,0
175688,-166.666666666667,4,2,7,15,0,0
175775,-166.666666666667,4,2,7,35,0,0
176473,-142.857142857143,4,2,7,35,0,0
177170,-125,4,2,7,35,0,0
178566,-111.111111111111,4,2,7,55,0,0
181269,-111.111111111111,4,2,7,5,0,0
181356,-111.111111111111,4,2,7,55,0,0
186589,-90.9090909090908,4,2,7,55,0,0
186938,-111.111111111111,4,2,7,55,0,0
189728,-111.111111111111,4,2,7,60,0,0
195310,-111.111111111111,4,2,7,65,0,0
197752,-90.9090909090908,4,2,7,65,0,0
198100,-142.857142857143,4,2,7,65,0,0
200542,-142.857142857143,4,2,7,60,0,0
200891,-111.111111111111,4,2,7,70,0,0
201589,-90.9090909090909,4,2,7,70,0,0
203682,-111.111111111111,4,2,7,70,0,0
204031,-90.9090909090909,4,2,7,70,0,0
205077,-111.111111111111,4,2,7,70,0,0
205426,-90.9090909090909,4,2,7,70,0,0
210659,-111.111111111111,4,2,7,70,0,0
211007,-90.9090909090909,4,2,7,70,0,0
212054,-111.111111111111,4,2,7,70,0,0
212752,-90.9090909090909,4,2,7,70,0,0
214845,-111.111111111111,4,2,7,70,0,0
215193,-90.9090909090909,4,2,7,70,0,0
216240,-111.111111111111,4,2,7,70,0,0
216589,-90.9090909090909,4,2,7,70,0,0
221821,-111.111111111111,4,2,7,70,0,0
222170,-90.9090909090909,4,2,7,70,0,0
226007,-111.111111111111,4,2,7,70,0,0
226356,-90.9090909090909,4,2,7,70,0,0
227403,-111.111111111111,4,2,7,70,0,0
227752,-90.9090909090909,4,2,7,70,0,0
231589,-111.111111111111,4,2,7,70,0,0
231938,-90.9090909090909,4,2,7,70,0,0
232984,-111.111111111111,4,2,7,70,0,0
233333,-90.9090909090909,4,2,7,70,0,0
237170,-111.111111111111,4,2,7,70,0,0
237519,-90.9090909090909,4,2,7,70,0,0
238566,-111.111111111111,4,2,7,70,0,0
238914,-90.9090909090909,4,2,7,70,0,0
244147,-111.111111111111,4,2,7,70,0,0
244496,-90.9090909090909,4,2,7,70,0,0
245542,-90.9090909090909,4,2,7,50,0,0
246763,-90.9090909090909,4,2,7,60,0,0
247287,-90.9090909090909,4,2,7,75,0,0
247810,-90.9090909090909,4,2,7,90,0,0
248333,-90.9090909090909,4,2,7,80,0,0
267868,-90.9090909090909,4,2,7,35,0,0

[Colours]
Combo1 : 255,66,70
Combo2 : 198,255,247
Combo3 : 136,181,255
Combo4 : 53,94,255
Combo5 : 255,215,215
Combo6 : 255,139,111

[HitObjects]
1,280,89263,6,0,B|39:278|39:278|64:287|64:287|108:284,1,103.499996841431,4|0,1:0|0:0,0:0:0:0:
185,241,89787,2,0,P|236:242|294:241,1,103.499996841431,2|0,1:0|0:0,0:0:0:0:
360,331,90310,1,0,0:0:0:0:
360,331,90659,6,0,P|436:314|467:234,1,160.99999508667,2|0,0:3|0:0,0:0:0:0:
511,156,91531,6,0,P|507:98|503:24,1,126.500003860474,0|0,0:0|0:0,0:0:0:0:
411,76,92054,54,0,P|357:81|305:85,1,103.499996841431,2|0,1:0|0:0,0:0:0:0:
225,58,92577,2,0,P|259:110|256:159,1,103.499996841431,2|0,1:0|0:0,0:0:0:0:
273,246,93100,2,0,L|209:232,1,51.7499984207154,0|0,0:0|0:0,0:0:0:0:
344,187,93449,6,0,P|391:187|447:187,1,103.499996841431,2|0,0:0|0:0,0:0:0:0:
512,248,93973,2,0,P|475:277|417:273,1,103.499996841431,2|0,0:0|1:0,0:0:0:0:
447,187,94496,2,0,P|443:159|439:127,1,51.7499984207154,0|2,0:0|0:1,0:0:0:0:
346,173,94845,70,0,P|308:171|265:170,1,77.6249976310731
262,155,95193,1,2,0:0:0:0:
170,187,95368,2,0,P|118:198|63:170,1,103.499996841431,0|2,1:0|0:0,0:0:0:0:
20,88,95891,1,0,1:0:0:0:
20,88,96240,6,0,P|25:168|30:252,1,160.99999508667,2|0,0:3|0:0,0:0:0:0:
0,341,97112,6,0,B|36:349|63:341|63:341|90:334|126:342,1,126.500003860474
219,307,97635,54,0,P|268:316|320:293,1,103.499996841431,6|2,1:0|0:0,0:0:0:0:
379,345,98159,2,0,P|374:295|367:223,1,103.499996841431,2|2,1:0|0:0,0:0:0:0:
456,201,98682,2,0,P|458:230|462:260,1,51.7499984207154,0|0,0:0|0:0,0:0:0:0:
499,123,99031,6,0,P|454:142|399:132,1,103.499996841431,2|2,1:0|0:0,0:0:0:0:
305,120,99554,2,0,B|279:124|256:129|256:129|230:123|203:119,1,103.499996841431,2|0,0:1|1:0,0:0:0:0:
112,91,100077,1,0,0:0:0:0:
81,181,100252,1,0,1:0:0:0:
172,209,100426,70,0,P|169:262|166:320,1,103.499996841431,4|0,1:0|0:0,0:0:0:0:
239,372,100949,2,0,P|288:384|341:371,1,103.499996841431,2|0,1:0|0:0,0:0:0:0:
452,384,101473,1,0,0:0:0:0:
452,384,101821,6,0,P|510:332|505:246,1,160.99999508667,2|0,0:3|0:0,0:0:0:0:
452,178,102693,6,0,B|400:174|400:174|361:191|361:191|306:187,1,147.583337837219
222,162,103217,54,0,P|171:173|117:159,1,103.499996841431,2|0,1:0|0:0,0:0:0:0:
58,114,103740,2,0,P|63:166|68:234,1,103.499996841431,2|0,1:0|0:0,0:0:0:0:
50,317,104263,2,0,L|13:321,2,25.8749992103577,0|0|0,0:0|0:0|0:0,0:0:0:0:
148,282,104612,5,2,0:0:0:0:
131,377,104787,2,0,L|197:372,1,51.7499984207154,0|0,1:0|0:0,0:0:0:0:
248,300,105135,2,0,P|300:304|353:300,1,103.499996841431,2|0,1:2|0:0,0:0:0:0:
438,332,105659,2,0,P|467:331|490:332,1,51.7499984207154,0|0,1:0|0:0,0:0:0:0:
459,230,106007,70,0,P|454:177|451:126,1,103.499996841431,4|0,1:2|0:0,0:0:0:0:
392,51,106531,1,0,1:0:0:0:
392,51,106705,2,0,P|431:41|471:27,2,68.9999978942872,2|2|2,0:0|0:0|0:0,0:0:0:0:
305,103,107403,6,0,P|265:100|219:98,1,77.6249976310731,2|0,0:1|0:0,0:0:0:0:
220,87,107752,70,0,P|154:129|79:108,1,160.99999508667,2|2,1:2|0:0,0:0:0:0:
38,190,108624,1,0,1:0:0:0:
5,277,108798,6,0,P|9:329|13:381,1,103.499996841431,4|2,1:0|0:0,0:0:0:0:
100,342,109321,2,0,B|122:349|150:342|150:342|176:336|202:342,1,103.499996841431,0|2,1:0|0:0,0:0:0:0:
296,323,109845,2,0,P|292:351|290:387,1,51.7499984207154,0|0,0:0|0:0,0:0:0:0:
364,269,110193,70,0,P|314:267|262:228,1,103.499996841431,4|0,1:2|0:2,0:0:0:0:
216,162,110717,2,0,P|206:110|223:42,1,103.499996841431,4|2,1:2|1:0,0:0:0:0:
291,0,111240,1,0,0:0:0:0:
307,91,111414,1,2,1:0:0:0:
214,60,111589,6,0,P|163:64|98:58,1,103.499996841431,4|0,1:0|0:0,0:0:0:0:
45,13,112112,2,0,P|50:67|56:134,1,103.499996841431,2|0,1:0|0:0,0:0:0:0:
62,228,112635,1,0,0:0:0:0:
62,228,112984,70,0,B|108:217|140:209|140:209|181:214|225:219,1,160.99999508667,2|0,0:3|0:0,0:0:0:0:
190,131,113856,22,0,P|239:168|304:163,1,126.500003860474
379,98,114380,54,0,P|385:149|393:209,1,103.499996841431,2|0,1:0|0:0,0:0:0:0:
452,273,114903,2,0,P|400:294|343:282,1,103.499996841431,2|0,1:0|0:0,0:0:0:0:
256,313,115426,2,0,L|256:364,1,51.7499984207154,0|0,0:0|0:0,0:0:0:0:
157,287,115775,6,0,P|106:293|60:273,1,103.499996841431,2|0,0:3|0:0,0:0:0:0:
38,184,116298,2,0,P|41:134|45:79,1,103.499996841431,2|0,0:0|1:0,0:0:0:0:
140,51,116821,2,0,P|141:26|143:-1,1,51.7499984207154,0|2,0:0|0:1,0:0:0:0:
229,82,117170,70,0,P|266:80|317:77,1,77.6249976310731
320,87,117519,1,2,0:0:0:0:
383,16,117693,2,0,P|429:40|481:34,1,103.499996841431,0|2,1:0|0:0,0:0:0:0:
512,150,118217,1,0,1:0:0:0:
512,150,118566,6,0,P|506:230|501:317,1,160.99999508667,0|0,0:0|0:0,0:0:0:0:
423,365,119438,6,0,B|394:373|357:364|357:364|325:357|297:364,1,126.500003860474,0|0,0:0|0:0,0:0:0:0:
223,313,119961,54,0,P|277:308|314:274,1,103.499996841431,6|2,1:0|0:0,0:0:0:0:
329,189,120484,2,0,P|322:134|317:74,1,103.499996841431,2|2,1:0|0:0,0:0:0:0:
232,40,121007,2,0,P|228:70|224:106,1,51.7499984207154,0|2,0:0|0:0,0:0:0:0:
133,56,121356,6,0,P|80:55|25:53,1,103.499996841431,2|2,1:0|0:0,0:0:0:0:
0,147,121880,2,0,P|53:148|108:150,1,103.499996841431,2|2,1:0|0:0,0:0:0:0:
188,193,122403,1,0,0:0:0:0:
225,280,122577,1,2,0:0:0:0:
303,343,122752,22,0,P|348:330|390:286,1,103.499996841431,4|0,1:0|0:0,0:0:0:0:
469,244,123275,2,0,P|459:192|444:130,1,103.499996841431,2|0,1:0|0:0,0:0:0:0:
468,48,123798,1,0,0:0:0:0:
468,48,124147,6,0,B|372:44|408:88|361:103|313:103,1,160.99999508667,0|0,0:0|0:0,0:0:0:0:
289,182,125019,6,0,P|269:115|245:35,1,147.583337837219
172,15,125542,54,0,P|128:49|72:29,1,103.499996841431,2|0,1:0|0:0,0:0:0:0:
74,131,126066,2,0,P|22:109|11:47,1,103.499996841431,2|0,1:0|0:0,0:0:0:0:
16,208,126589,2,0,L|3:236,2,25.8749992103577,0|0|0,0:0|0:0|0:0,0:0:0:0:
107,227,126938,5,2,0:3:0:0:
64,307,127112,2,0,P|112:315|157:324,1,77.6249976310731,0|0,1:2|0:0,0:0:0:0:
151,313,127461,1,2,1:2:0:0:
231,353,127635,70,0,L|249:283,1,51.7499984207154
318,243,127984,1,0,1:0:0:0:
405,226,128159,1,0,0:0:0:0:
490,193,128333,6,0,P|501:124|516:61,1,120.749996315003,4|0,1:2|1:0,0:0:0:0:
406,125,129031,70,0,P|409:95|447:59,2,68.9999978942872,2|2|2,0:0|0:0|0:0,0:0:0:0:
302,192,129728,2,0,P|313:231|363:249,1,77.6249976310731,2|0,0:1|0:0,0:0:0:0:
359,256,130077,6,0,B|356:148|327:203|324:95,1,160.99999508667,2|2,1:2|0:0,0:0:0:0:
348,16,130949,1,0,1:0:0:0:
257,43,131124,70,0,P|212:54|157:68,1,103.499996841431,4|2,1:0|0:0,0:0:0:0:
117,168,131647,2,0,P|162:157|217:143,1,103.499996841431,2|2,1:0|0:0,0:0:0:0:
264,214,132170,2,0,L|255:269,1,51.7499984207154,0|2,0:0|0:0,0:0:0:0:
321,314,132519,6,0,P|258:317|218:338,1,103.499996841431,4|0,1:2|0:0,0:0:0:0:
161,268,133042,2,0,P|126:289|60:279,1,103.499996841431,4|0,1:2|1:0,0:0:0:0:
32,197,133566,1,0,0:0:0:0:
83,121,133740,1,0,1:0:0:0:
163,57,133914,70,0,P|172:87|194:159,1,103.499996841431,4|0,1:0|0:0,0:0:0:0:
260,219,134438,1,2,1:2:0:0:
290,138,134612,6,0,P|336:270|197:282,1,321.99999017334,0|0,0:0|0:0,0:0:0:0:
132,332,136182,6,0,P|143:286|167:183,1,126.500003860474,0|0,0:0|0:0,0:0:0:0:
91,149,136705,54,0,P|44:161|-11:173,1,103.499996841431,2|0,0:0|0:0,0:0:0:0:
17,71,137228,2,0,P|67:60|117:47,1,103.499996841431,2|0,0:0|0:0,0:0:0:0:
217,50,137752,2,0,L|236:-8,1,51.7499984207154,0|0,0:0|0:0,0:0:0:0:
319,29,138100,6,0,P|302:83|286:133,1,103.499996841431,2|0,0:3|0:0,0:0:0:0:
222,195,138624,2,0,P|239:249|255:299,1,103.499996841431,2|0,0:0|1:0,0:0:0:0:
334,345,139147,2,0,L|395:367,1,51.7499984207154,0|2,0:0|0:0,0:0:0:0:
461,305,139496,70,0,P|470:267|513:240,1,77.6249976310731
496,232,139845,1,2,0:0:0:0:
437,157,140019,2,0,P|458:120|428:59,1,103.499996841431,0|2,1:0|0:0,0:0:0:0:
356,17,140542,1,0,1:0:0:0:
346,24,140891,6,0,L|168:40,1,160.99999508667
102,25,141763,6,0,B|97:100|135:71|129:152,1,126.500003860474,0|0,0:0|0:0,0:0:0:0:
60,193,142287,54,0,P|104:194|155:233,1,103.499996841431,6|0,1:2|0:0,0:0:0:0:
247,224,142810,2,0,P|231:279|213:341,1,103.499996841431,2|0,0:0|0:0,0:0:0:0:
319,309,143333,2,0,L|375:323,1,51.7499984207154,0|0,0:0|0:0,0:0:0:0:
450,363,143682,6,0,P|466:308|484:246,1,103.499996841431,2|0,0:3|0:0,0:0:0:0:
466,171,144205,2,0,P|419:171|395:108,1,103.499996841431,2|0,0:0|1:0,0:0:0:0:
376,37,144728,1,0,0:0:0:0:
460,68,144903,1,0,1:0:0:0:
391,126,145077,70,0,P|347:145|293:175,1,103.499996841431,4|0,1:2|0:0,0:0:0:0:
215,131,145600,2,0,P|169:156|122:176,1,103.499996841431,2|0,1:2|0:0,0:0:0:0:
47,123,146124,1,0,0:0:0:0:
47,123,146473,6,0,P|74:202|101:284,1,160.99999508667,2|0,0:3|0:0,0:0:0:0:
68,358,147345,6,0,P|99:319|204:318,1,147.583337837219
263,347,147868,54,0,P|308:360|366:353,1,103.499996841431,2|0,0:2|0:0,0:0:0:0:
451,337,148391,2,0,P|463:289|500:238,1,103.499996841431,2|0,0:2|0:0,0:0:0:0:
471,149,148914,2,0,L|456:110,2,25.8749992103577,0|0|0,0:0|0:0|0:0,0:0:0:0:
372,138,149263,5,2,0:3:0:0:
400,221,149438,2,0,L|320:235,1,77.6249976310731,0|0,0:0|0:0,0:0:0:0:
318,245,149787,1,2,0:0:0:0:
236,273,149961,70,0,L|218:338,1,51.7499984207154
138,352,150310,1,0,1:0:0:0:
49,326,150484,1,0,0:0:0:0:
123,269,150659,6,0,P|112:212|98:141,1,120.749996315003,4|0,1:2|1:0,0:0:0:0:
226,108,151356,70,0,P|180:93|142:109,2,68.9999978942872,2|2|2,0:0|0:0|0:0,0:0:0:0:
377,167,152054,2,0,P|364:200|329:219,1,77.6249976310731,2|0,0:3|0:0,0:0:0:0:
312,217,152403,6,0,P|337:128|353:50,1,160.99999508667,2|2,1:2|0:0,0:0:0:0:
281,8,153275,1,0,1:0:0:0:
251,90,153449,70,0,P|219:75|195:6,1,103.499996841431,6|0,1:2|0:0,0:0:0:0:
123,76,153973,2,0,P|78:96|25:121,1,103.499996841431,2|0,1:2|0:0,0:0:0:0:
98,177,154496,2,0,L|123:231,1,51.7499984207154,0|0,0:0|0:0,0:0:0:0:
123,317,154845,6,0,P|169:294|217:273,1,103.499996841431,4|0,1:2|0:0,0:0:0:0:
309,280,155368,2,0,P|294:328|251:355,1,103.499996841431,4|0,1:2|1:0,0:0:0:0:
217,273,155891,1,0,0:0:0:0:
225,185,156066,1,0,1:0:0:0:
234,98,156240,22,0,P|272:95|312:91,1,68.9999978942872,6|0,0:0|0:0,0:0:0:0:
382,137,156763,1,0,0:0:0:0:
382,137,159031,6,0,P|285:162|199:93,1,206.999993682861,2|0,0:0|0:0,0:0:0:0:
157,7,160426,2,0,P|166:120|174:219,1,206.999993682861,2|0,0:0|0:0,0:0:0:0:
182,340,161821,69,2,0:0:0:0:
182,340,164263,2,0,P|210:339|239:338,1,51.7499984207154
250,328,164612,6,0,P|302:341|354:328,1,103.499996841431,2|0,0:0|0:0,0:0:0:0:
422,268,165310,2,0,P|417:220|414:163,1,103.499996841431
418,79,166007,70,0,P|374:174|280:199,1,206.999993682861,2|0,0:0|0:0,0:0:0:0:
157,273,167403,5,2,0:0:0:0:
157,273,170193,70,0,P|240:327|338:290,1,206.999993682861,2|0,0:0|0:0,0:0:0:0:
371,384,171589,2,0,P|377:292|386:169,1,206.999993682861,2|0,0:0|0:0,0:0:0:0:
399,0,172984,5,2,0:0:0:0:
399,0,175426,2,0,P|396:29|393:62,1,51.7499984207154
401,68,175775,70,0,B|374:74|350:68|350:68|326:62|296:68,1,103.499996841431,2|0,0:0|0:0,0:0:0:0:
213,98,176473,2,0,P|154:109|102:78,1,120.749996315003
57,1,177170,6,0,B|69:127|82:276|82:276|94:255|113:233,1,322,2|0,0:0|0:0,0:0:0:0:
174,190,178566,22,0,B|190:212|190:212|189:249,2,51.7499984207154,4|0|8,1:0|0:0|0:0,0:0:0:0:
191,107,179089,2,0,B|217:111|217:111|243:138,2,51.7499984207154,0|0|0,0:0|0:0|1:0,0:0:0:0:
144,38,179612,2,0,B|166:22|166:22|203:23,2,51.7499984207154,8|0|0,0:0|0:0|1:0,0:0:0:0:
97,111,180135,5,0,0:0:0:0:
39,177,180310,2,0,P|46:216|56:282,1,103.499996841431,8|0,0:0|0:0,0:0:0:0:
19,358,180833,1,0,1:0:0:0:
109,343,181007,2,0,L|208:361,1,77.6249976310731,8|0,0:0|0:0,0:0:0:0:
205,358,181356,70,0,P|220:309|240:248,1,103.499996841431,4|8,1:2|0:0,0:0:0:0:
236,259,182228,1,2,0:0:0:0:
340,237,182403,1,8,0:0:0:0:
340,237,182752,6,0,P|323:187|308:138,1,103.499996841431,4|8,1:2|0:0,0:0:0:0:
308,138,183624,1,2,0:0:0:0:
204,134,183798,1,8,0:0:0:0:
204,134,184147,70,0,P|143:121|123:87,2,103.499996841431,4|8|0,1:2|0:0|0:0,0:0:0:0:
238,216,185019,1,0,1:0:0:0:
281,295,185193,2,0,L|269:345,1,51.7499984207154,8|0,0:0|0:0,0:0:0:0:
187,379,185542,6,0,B|315:382|249:325|393:329,1,206.999993682861,0|0,1:0|0:0,0:0:0:0:
473,353,186414,1,0,1:0:0:0:
445,263,186589,70,0,L|461:165,1,94.8750028953553,8|0,0:0|0:0,0:0:0:0:
464,149,186938,6,0,P|413:142|383:97,1,103.499996841431,6|8,1:0|0:0,0:0:0:0:
298,108,187461,2,0,P|305:57|350:27,1,103.499996841431,2|0,0:0|1:0,0:0:0:0:
435,30,187984,1,8,0:0:0:0:
321,191,188333,70,0,P|289:229|256:271,1,103.499996841431,2|8,1:0|0:0,0:0:0:0:
170,243,188856,2,0,P|159:293|144:351,1,103.499996841431,2|0,0:0|1:0,0:0:0:0:
62,362,189380,1,8,0:0:0:0:
194,164,189728,6,0,P|178:126|106:126,1,103.499996841431,4|8,1:0|0:0,0:0:0:0:
72,183,190252,2,0,P|64:137|47:74,1,103.499996841431,2|0,0:0|0:0,0:0:0:0:
118,28,190775,1,8,0:0:0:0:
205,40,190949,1,0,0:0:0:0:
293,57,191124,70,0,L|317:-1,2,51.7499984207154,0|0|8,1:0|0:0|0:0,0:0:0:0:
369,108,191647,2,0,L|393:166,2,51.7499984207154,2|0|0,0:0|0:0|1:0,0:0:0:0:
421,34,192170,1,8,0:0:0:0:
483,103,192345,1,0,0:0:0:0:
483,103,192432,1,0,0:0:0:0:
483,103,192519,6,0,B|456:155|487:157|458:216,1,103.499996841431,4|8,1:2|0:0,0:0:0:0:
460,288,193042,2,0,L|494:303,2,25.8749992103577,2|2|0,0:0|0:0|0:0,0:0:0:0:
386,238,193391,1,0,1:0:0:0:
307,277,193566,2,0,L|223:293,1,77.6249976310731,8|0,0:0|0:0,0:0:0:0:
214,294,193914,70,0,B|187:263|187:263|205:192,1,103.499996841431,2|8,1:2|0:0,0:0:0:0:
184,123,194438,2,0,L|177:94,2,25.8749992103577,2|2|0,0:0|0:0|0:0,0:0:0:0:
273,148,194787,1,0,1:0:0:0:
362,163,194961,2,0,L|438:177,1,77.6249976310731,8|0,0:0|0:0,0:0:0:0:
460,179,195310,6,0,P|472:144|485:109,2,51.7499984207154,4|2|8,1:2|0:0|0:0,0:0:0:0:
452,266,195833,2,0,P|487:278|522:291,2,51.7499984207154,2|2|0,0:2|0:0|1:0,0:0:0:0:
364,283,196356,1,10,0:2:0:0:
281,310,196531,1,2,0:0:0:0:
281,310,196618,1,0,0:0:0:0:
281,310,196705,69,0,1:0:0:0:
238,229,196880,2,0,L|211:164,1,51.7499984207154,2|10,0:2|0:0,0:0:0:0:
261,103,197228,1,0,0:0:0:0:
177,294,197577,1,2,0:0:0:0:
131,225,197752,6,0,P|111:238|96:310,1,94.8750028953553,10|0,0:1|0:0,0:0:0:0:
101,323,198100,70,0,B|269:314|153:359|351:349,1,241.499992630005,4|0,0:0|0:0,0:0:0:0:
256,192,199496,12,4,200542,0:0:0:0:
123,141,200891,38,0,B|163:134|163:134|201:142,1,77.6249976310731,4|0,1:0|0:0,0:0:0:0:
216,135,201240,2,0,B|255:141|255:141|296:133,1,77.6249976310731,0|0,1:0|0:0,0:0:0:0:
313,138,201589,22,0,P|315:107|317:71,2,63.2500019302369,10|2|0,0:1|0:2|0:0,0:0:0:0:
369,227,202112,2,0,P|389:198|412:170,2,63.2500019302369,10|2|0,0:1|0:0|0:0,0:0:0:0:
349,328,202635,2,0,P|380:324|433:322,2,63.2500019302369,10|2|0,0:1|0:0|0:0,0:0:0:0:
276,261,203159,2,0,B|239:269|197:260|197:260|158:253|118:261,1,158.125004825592,10|0,0:1|0:0,0:0:0:0:
109,270,203682,54,0,L|101:202,1,51.7499984207154,4|0,1:0|0:0,0:0:0:0:
22,146,204031,6,0,P|14:185|5:224,2,63.2500019302369,10|2|0,0:1|0:0|0:0,0:0:0:0:
0,56,204554,2,0,P|60:104|141:96,1,158.125004825592,10|0,0:1|0:0,0:0:0:0:
144,110,205077,70,0,P|169:107|200:106,1,51.7499984207154,4|0,1:0|0:0,0:0:0:0:
271,26,205426,22,0,P|235:22|193:14,2,63.2500019302369,8|2|0,0:0|0:0|0:0,0:0:0:0:
366,16,205949,1,2,1:2:0:0:
280,125,206124,1,10,0:1:0:0:
375,117,206298,1,2,1:2:0:0:
475,155,206473,53,4,1:0:0:0:
475,155,206647,1,0,1:0:0:0:
475,155,206821,6,0,P|477:118|480:80,2,63.2500019302369,10|2|0,0:1|0:0|0:0,0:0:0:0:
459,255,207345,2,0,P|492:248|528:240,2,63.2500019302369,10|2|0,0:1|0:0|0:0,0:0:0:0:
382,189,207868,2,0,P|350:197|320:202,2,63.2500019302369,10|2|0,0:1|0:0|0:0,0:0:0:0:
366,288,208392,2,0,P|364:319|362:351,2,63.2500019302369,10|2|0,0:1|0:0|0:0,0:0:0:0:
268,318,208914,2,0,P|221:316|169:317,1,94.8750028953553,10|0,0:1|0:0,0:0:0:0:
161,310,209263,69,4,1:0:0:0:
72,350,209438,1,0,1:0:0:0:
77,250,209612,22,0,P|75:218|72:186,2,63.2500019302369,10|2|0,0:1|0:0|0:0,0:0:0:0:
170,216,210135,2,0,P|243:214|279:144,1,158.125004825592,10|0,0:1|0:0,0:0:0:0:
273,130,210659,54,0,L|330:135,1,51.7499984207154,4|0,1:0|0:0,0:0:0:0:
390,52,211007,6,0,P|356:49|319:46,2,63.2500019302369,8|2|0,0:0|0:0|0:0,0:0:0:0:
469,0,211531,1,2,1:2:0:0:
475,98,211705,1,10,0:1:0:0:
479,193,211880,1,2,1:2:0:0:
486,292,212054,70,0,P|483:332|480:373,1,77.6249976310731,4|0,1:0|0:0,0:0:0:0:
486,384,212403,2,0,B|447:375|447:375|407:376,1,77.6249976310731,0|0,1:0|0:0,0:0:0:0:
395,365,212752,22,0,P|362:373|327:372,2,63.2500019302369,10|2|0,0:1|0:0|0:0,0:0:0:0:
351,277,213275,2,0,P|320:261|294:238,2,63.2500019302369,10|2|0,0:1|0:0|0:0,0:0:0:0:
375,181,213798,2,0,P|361:149|356:115,2,63.2500019302369,10|2|0,0:1|0:0|0:0,0:0:0:0:
455,248,214321,2,0,B|418:257|378:247|378:247|342:236|282:244,1,158.125004825592,10|0,0:1|0:0,0:0:0:0:
290,230,214845,54,0,P|261:233|237:237,1,51.7499984207154,4|0,1:0|0:0,0:0:0:0:
178,324,215193,6,0,P|216:329|258:337,2,63.2500019302369,10|2|0,0:1|0:0|0:0,0:0:0:0:
100,251,215717,2,0,P|37:229|10:148,1,158.125004825592,10|0,0:1|0:0,0:0:0:0:
0,160,216240,70,0,P|4:128|9:90,1,51.7499984207154,4|0,1:0|0:0,0:0:0:0:
105,124,216589,22,0,P|102:90|100:54,2,63.2500019302369,8|2|0,0:0|0:0|0:0,0:0:0:0:
110,224,217112,1,2,1:2:0:0:
196,173,217287,1,10,0:1:0:0:
201,273,217461,1,2,1:2:0:0:
213,378,217635,53,4,1:0:0:0:
213,378,217810,1,0,1:0:0:0:
213,378,217984,6,0,P|178:376|139:371,2,63.2500019302369,10|2|0,0:1|0:0|0:0,0:0:0:0:
298,320,218507,2,0,P|332:318|366:316,2,63.2500019302369,10|2|0,0:1|0:0|0:0,0:0:0:0:
201,273,219031,2,0,P|166:271|127:266,2,63.2500019302369,10|2|0,0:1|0:0|0:0,0:0:0:0:
301,217,219554,2,0,P|335:215|369:213,2,63.2500019302369,10|2|0,0:1|0:0|0:0,0:0:0:0:
202,153,220077,2,0,P|153:158|103:138,1,94.8750028953553,10|0,0:1|0:0,0:0:0:0:
100,134,220426,69,4,1:0:0:0:
47,223,220600,1,0,1:0:0:0:
96,311,220775,22,0,P|58:314|26:318,2,63.2500019302369,10|2|0,0:1|0:0|0:0,0:0:0:0:
189,272,221298,2,0,P|244:325|330:315,1,158.125004825592,10|0,0:1|0:0,0:0:0:0:
328,306,221821,54,0,P|333:331|338:358,1,51.7499984207154,4|0,1:0|0:0,0:0:0:0:
429,304,222170,22,0,P|432:272|438:235,2,63.2500019302369,8|6|2,0:0|0:0|0:0,0:0:0:0:
320,320,222693,1,2,1:2:0:0:
208,303,222868,1,10,0:1:0:0:
97,319,223042,1,10,0:1:0:0:
142,217,223217,53,4,1:0:0:0:
142,217,223392,1,2,1:2:0:0:
142,217,223566,6,0,P|140:188|137:151,2,63.2500019302369,10|2|0,0:1|0:0|0:0,0:0:0:0:
208,303,224089,2,0,P|184:318|153:340,2,63.2500019302369,10|2|0,0:1|0:0|0:0,0:0:0:0:
248,209,224612,2,0,P|273:221|307:237,2,63.2500019302369,10|2|0,0:1|0:0|0:0,0:0:0:0:
142,217,225135,2,0,P|140:188|137:151,2,63.2500019302369,10|2|0,0:1|0:0|0:0,0:0:0:0:
107,312,225659,2,0,P|155:306|207:301,1,94.8750028953553,10|0,0:1|0:0,0:0:0:0:
214,293,226007,70,0,P|245:295|273:296,1,51.7499984207154,4|0,1:0|0:0,0:0:0:0:
324,380,226356,22,0,P|289:382|250:386,2,63.2500019302369,10|2|0,0:1|0:0|0:0,0:0:0:0:
400,308,226880,2,0,P|469:292|490:214,1,158.125004825592,10|0,0:1|0:0,0:0:0:0:
507,222,227403,54,0,P|505:189|503:158,1,51.7499984207154,4|0,1:0|0:0,0:0:0:0:
411,106,227752,6,0,P|409:138|408:170,2,63.2500019302369,8|2|2,0:0|0:0|0:0,0:0:0:0:
487,37,228275,1,2,1:2:0:0:
507,137,228449,1,10,0:1:0:0:
411,106,228624,1,2,1:2:0:0:
323,80,228798,69,4,1:0:0:0:
323,80,228973,1,0,1:0:0:0:
323,80,229147,22,0,P|289:81|247:83,2,63.2500019302369,10|2|0,0:1|0:0|0:0,0:0:0:0:
438,90,229670,2,0,P|422:58|403:12,2,63.2500019302369,10|2|0,0:1|0:0|0:0,0:0:0:0:
459,197,230193,2,0,P|483:176|519:148,2,63.2500019302369,10|2|0,0:1|0:0|0:0,0:0:0:0:
370,257,230717,2,0,P|399:277|428:298,2,63.2500019302369,10|2|0,0:1|0:0|0:0,0:0:0:0:
284,203,231240,2,0,P|237:204|179:203,1,94.8750028953553,10|0,0:1|0:0,0:0:0:0:
178,194,231589,53,4,1:0:0:0:
184,294,231763,1,0,1:0:0:0:
90,254,231938,6,0,P|87:221|83:185,2,63.2500019302369,10|2|0,0:1|0:0|0:0,0:0:0:0:
12,302,232461,2,0,B|49:315|88:301|88:301|129:288|169:302,1,158.125004825592,10|0,0:1|0:0,0:0:0:0:
184,294,232984,70,0,P|211:298|240:301,1,51.7499984207154,4|0,1:0|0:0,0:0:0:0:
328,261,233333,22,0,P|331:294|337:335,2,63.2500019302369,8|2|2,0:0|0:0|0:0,0:0:0:0:
246,206,233856,1,2,1:2:0:0:
317,129,234031,1,10,0:1:0:0:
265,43,234205,1,2,1:2:0:0:
193,129,234380,6,0,P|147:138|99:146,1,94.8750028953553,4|0,1:0|0:0,0:0:0:0:
84,158,234728,2,0,P|65:194|36:245,1,94.8750028953553,0|0,1:0|0:0,0:0:0:0:
44,264,235077,22,0,L|63:342,2,63.2500019302369,10|2|0,0:1|0:0|0:0,0:0:0:0:
142,279,235600,2,0,L|226:298,2,63.2500019302369,10|2|0,0:1|0:0|0:0,0:0:0:0:
202,197,236124,2,0,L|216:135,2,63.2500019302369,10|2|0,0:1|0:0|0:0,0:0:0:0:
286,253,236647,2,0,B|392:241|334:209|435:204,1,158.125004825592,10|0,0:1|0:0,0:0:0:0:
447,212,237170,54,0,L|468:142,1,51.7499984207154,4|0,1:0|0:0,0:0:0:0:
420,57,237519,6,0,L|388:-11,2,63.2500019302369,10|2|0,0:1|0:0|0:0,0:0:0:0:
509,93,238042,2,0,P|437:82|378:153,1,158.125004825592,10|0,0:1|0:0,0:0:0:0:
376,154,238566,70,0,P|366:182|331:207,1,51.7499984207154,4|0,1:0|0:0,0:0:0:0:
257,214,238914,22,0,P|272:242|288:270,2,63.2500019302369,8|2|2,0:0|0:0|0:0,0:0:0:0:
289,131,239438,1,2,1:2:0:0:
171,155,239612,1,10,0:1:0:0:
214,72,239787,1,2,1:2:0:0:
143,11,239961,53,4,1:0:0:0:
143,11,240135,1,0,1:0:0:0:
143,11,240310,6,0,L|78:1,2,63.2500019302369,10|2|0,0:1|0:0|0:0,0:0:0:0:
214,72,240833,2,0,L|276:62,2,63.2500019302369,10|2|0,0:1|0:0|0:0,0:0:0:0:
173,153,241356,2,0,P|136:124|126:89,2,63.2500019302369,10|2|0,0:1|0:0|0:0,0:0:0:0:
187,248,241880,2,0,P|143:265|108:256,2,63.2500019302369,10|2|0,0:1|0:0|0:0,0:0:0:0:
254,192,242403,2,0,L|371:171,1,94.8750028953553,10|0,0:1|0:0,0:0:0:0:
363,174,242752,69,4,1:0:0:0:
441,115,242926,1,2,1:2:0:0:
452,211,243100,22,0,L|436:273,2,63.2500019302369,10|2|0,0:1|0:0|0:0,0:0:0:0:
441,115,243624,2,0,P|414:69|314:95,1,158.125004825592,10|0,0:1|0:0,0:0:0:0:
308,69,244147,54,0,L|318:124,1,51.7499984207154,4|0,1:0|0:0,0:0:0:0:
224,107,244496,6,0,L|210:38,2,63.2500019302369,8|2|2,0:0|0:0|0:0,0:0:0:0:
236,199,245019,1,0,1:0:0:0:
151,226,245193,1,10,0:1:0:0:
66,252,245368,1,10,0:1:0:0:
45,339,245542,70,0,P|67:298|57:259,1,63.2500019302369,4|0,1:0|0:0,0:0:0:0:
19,183,245891,2,0,P|22:151|40:126,1,63.2500019302369,0|0,1:0|0:0,0:0:0:0:
114,83,246240,21,8,0:0:0:0:
195,47,246414,2,0,L|204:6,2,31.6250009651184,2|0|0,0:0|0:0|0:0,0:0:0:0:
270,101,246763,69,10,0:0:0:0:
321,180,246938,2,0,L|330:221,2,31.6250009651184,0|0|2,0:0|0:0|0:0,0:0:0:0:
232,179,247287,5,8,0:0:0:0:
146,210,247461,2,0,L|137:169,2,31.6250009651184,2|0|2,0:0|0:0|0:0,0:0:0:0:
229,266,247810,69,10,0:1:0:0:
299,328,247984,2,0,L|290:369,2,31.6250009651184,2|0|2,0:1|0:0|0:1,0:0:0:0:
385,282,248333,6,0,L|503:268,1,94.8750028953553,4|0,1:0|0:0,0:0:0:0:
488,266,248682,1,10,0:1:0:0:
499,174,248856,2,0,L|506:98,1,63.2500019302369,2|0,0:0|0:0,0:0:0:0:
413,133,249205,1,10,0:1:0:0:
324,117,249380,2,0,L|331:193,1,63.2500019302369,2|0,0:0|0:0,0:0:0:0:
334,277,249728,70,0,P|390:281|420:328,1,94.8750028953553,4|0,1:0|0:0,0:0:0:0:
413,322,250077,2,0,B|328:363|352:291|236:347,1,158.125004825592,8|0,0:0|0:0,0:0:0:0:
248,341,250600,1,2,1:2:0:0:
197,230,250775,1,10,0:1:0:0:
148,306,250949,1,2,1:2:0:0:
66,344,251124,69,4,1:0:0:0:
66,344,251298,1,0,1:0:0:0:
66,344,251473,22,0,L|1:353,2,63.2500019302369,10|2|0,0:1|0:0|0:0,0:0:0:0:
88,245,251996,69,10,0:1:0:0:
110,156,252170,2,0,L|80:115,2,31.6250009651184,2|2|0,0:0|0:0|0:0,0:0:0:0:
205,164,252519,5,10,0:1:0:0:
288,205,252693,2,0,L|335:177,2,31.6250009651184,2|2|0,0:0|0:0|0:0,0:0:0:0:
197,251,253042,69,10,0:1:0:0:
104,261,253217,2,0,L|57:233,2,31.6250009651184,2|2|0,0:0|0:0|0:0,0:0:0:0:
183,337,253566,5,10,0:0:0:0:
205,164,253914,53,6,1:0:0:0:
205,164,254089,1,2,1:0:0:0:
205,164,254263,6,0,L|216:93,2,63.2500019302369,8|2|0,0:0|0:0|0:0,0:0:0:0:
218,257,254787,2,0,P|250:263|304:275,2,63.2500019302369,10|0|2,0:0|0:0|0:0,0:0:0:0:
129,228,255310,6,0,L|56:254,1,63.2500019302369,2|2,1:0|0:1,0:0:0:0:
39,156,255659,2,0,P|21:100|-5:25,1,126.500003860474,8|0,0:0|0:0,0:0:0:0:
93,63,256182,1,0,1:2:0:0:
183,96,256356,1,10,0:0:0:0:
271,61,256531,1,2,1:2:0:0:
359,93,256705,54,0,P|404:103|455:113,1,94.8750028953553,4|0,1:0|0:0,0:0:0:0:
466,124,257054,2,0,P|473:167|483:221,1,94.8750028953553,0|0,1:0|0:0,0:0:0:0:
479,236,257403,5,10,0:1:0:0:
420,312,257577,2,0,L|431:351,2,31.6250009651184,2|2|0,0:0|0:0|0:0,0:0:0:0:
395,218,257926,5,10,0:1:0:0:
362,129,258100,2,0,L|371:94,2,31.6250009651184,2|2|0,0:0|0:0|0:0,0:0:0:0:
309,206,258449,69,10,0:1:0:0:
248,285,258624,2,0,L|259:324,2,31.6250009651184,2|2|0,0:0|0:0|0:0,0:0:0:0:
223,195,258973,5,10,0:1:0:0:
186,111,259147,2,0,L|195:76,2,31.6250009651184,2|2|0,0:0|0:0|0:0,0:0:0:0:
122,194,259496,70,0,L|28:226,1,94.8750028953553,4|0,1:0|0:0,0:0:0:0:
39,237,259845,1,10,0:1:0:0:
103,304,260019,2,0,P|98:328|89:377,1,63.2500019302369,2|0,0:0|0:0,0:0:0:0:
185,348,260368,1,10,0:1:0:0:
275,364,260542,2,0,L|317:373,2,31.6250009651184,2|2|0,0:0|0:0|0:0,0:0:0:0:
238,276,260891,6,0,P|225:236|243:185,1,94.8750028953553,4|0,1:0|0:0,0:0:0:0:
231,176,261240,2,0,P|276:197|354:171,1,126.500003860474,8|2,0:0|0:0,0:0:0:0:
388,102,261763,1,2,1:2:0:0:
437,232,261938,1,10,0:1:0:0:
493,150,262112,1,2,1:2:0:0:
472,58,262287,53,4,1:0:0:0:
472,58,262461,1,0,1:0:0:0:
472,58,262635,6,0,L|445:-11,1,63.2500019302369,10|2,0:1|0:0,0:0:0:0:
342,10,262984,1,0,0:0:0:0:
263,65,263159,6,0,P|236:70|187:78,2,63.2500019302369,10|2|0,0:1|0:0|0:0,0:0:0:0:
308,153,263682,2,0,P|281:158|232:166,2,63.2500019302369,10|2|0,0:1|0:0|0:0,0:0:0:0:
370,243,264205,2,0,P|343:248|294:256,2,63.2500019302369,10|2|0,0:1|0:0|0:0,0:0:0:0:
444,315,264728,2,0,P|467:281|467:250,1,63.2500019302369,10|2,0:0|1:2,0:0:0:0:
425,168,265077,53,6,1:0:0:0:
425,168,265252,1,2,0:1:0:0:
425,168,265426,6,0,L|401:81,2,63.2500019302369,10|2|0,0:0|0:0|0:0,0:0:0:0:
370,243,265949,2,0,P|346:274|345:307,2,63.2500019302369,10|0|2,0:0|0:0|0:0,0:0:0:0:
329,157,266473,6,0,P|273:152|244:123,1,94.8750028953553,2|0,1:0|0:0,0:0:0:0:
239,150,266821,2,0,P|229:76|213:6,1,126.500003860474,10|2,0:0|0:0,0:0:0:0:
326,18,267345,69,2,1:0:0:0:
434,119,267519,1,10,0:1:0:0:
382,211,267693,1,10,0:1:0:0:
424,280,267868,69,4,0:0:0:0:
