osu file format v14

[General]
AudioFilename: audio.mp3
AudioLeadIn: 0
PreviewTime: 77754
Countdown: 0
SampleSet: Soft
StackLeniency: 0.7
Mode: 2
LetterboxInBreaks: 0
WidescreenStoryboard: 0

[Editor]
DistanceSpacing: 0.6
BeatDivisor: 4
GridSize: 16
TimelineZoom: 2.192

[Metadata]
Title:autonomous obscure terrain (type 4)
TitleUnicode:autonomous obscure terrain (type 4)
Artist:Phlit
ArtistUnicode:Phlit
Creator:fayew
Version:tiebreaker (type sf)
Source:Australian Open Tournament 4
Tags:aot4 custom song marathon electronic instrumental gothic hardcore tiebreaker tb sf semi finals semifinals skill issue lol phlitphliphlphp
BeatmapID:4518843
BeatmapSetID:2145432

[Difficulty]
HPDrainRate:5
CircleSize:4.2
OverallDifficulty:9.6
ApproachRate:9.6
SliderMultiplier:2.2
SliderTickRate:2

[Events]
//Background and Video events
0,0,"AOT4 BG.jpg",0,0
//Break Periods
//Storyboard Layer 0 (Background)
//Storyboard Layer 1 (Fail)
//Storyboard Layer 2 (Pass)
//Storyboard Layer 3 (Foreground)
//Storyboard Layer 4 (Overlay)
//Storyboard Sound Samples

[TimingPoints]
34,405.405405405405,4,2,22,5,1,0
3277,-100,4,2,22,8,0,0
6520,-100,4,2,22,12,0,0
9763,-100,4,2,22,18,0,0
13006,-200,4,2,22,30,0,0
25979,-100,4,2,22,40,0,0
51925,-133.333333333333,4,2,22,40,0,0
71385,-100,4,2,22,45,0,0
77871,-76.9230769230769,4,2,22,70,0,1
91250,-40,4,2,22,70,0,1
91655,-76.9230769230769,4,2,22,70,0,1
92871,-38.4615384615385,4,2,22,70,0,1
93277,-76.9230769230769,4,2,22,70,0,1
94493,-38.4615384615385,4,2,22,70,0,1
94898,-76.9230769230769,4,2,22,70,0,1
96115,-38.4615384615385,4,2,22,70,0,1
96520,-76.9230769230769,4,2,22,70,0,1
97736,-38.4615384615385,4,2,22,70,0,1
98142,-76.9230769230769,4,2,22,70,0,1
99358,-38.4615384615385,4,2,22,70,0,1
99764,-76.9230769230769,4,2,22,70,0,1
100979,-38.4615384615385,4,2,22,70,0,1
101385,-76.9230769230769,4,2,22,70,0,1
102601,-38.4615384615385,4,2,22,70,0,1
103007,-76.9230769230769,4,2,22,70,0,1
103716,-100,4,2,22,70,0,0
104628,-50,4,2,22,5,0,0
105439,-50,4,2,22,10,0,0
106250,-50,4,2,22,20,0,0
107061,-200,4,2,22,50,0,0
108682,-200,4,2,44,50,0,0
108885,-200,4,2,22,50,0,0
111925,-200,4,2,44,50,0,0
112128,-200,4,2,22,50,0,0
113547,-100,4,2,22,50,0,0
115169,-200,4,2,22,50,0,0
116790,-100,4,2,22,50,0,0
118412,-200,4,2,22,50,0,0
120033,-100,4,2,22,50,0,0
132905,-57.1428571428571,4,2,22,50,0,0
133006,-76.9230769230769,4,2,22,70,0,1
139493,-71.4285714285714,4,2,22,70,0,1
145975,400,4,2,22,70,1,1
145975,-76.9230769230769,4,2,22,70,0,1
152377,394.736842105263,4,2,22,70,1,1
152377,-76.9230769230769,4,2,22,70,0,1
158692,389.610389610389,4,2,22,70,1,0
158886,-100,4,2,22,30,0,0
171161,384.615384615384,4,2,22,60,1,0
195776,-76.9230769230769,4,2,22,70,0,1
196064,-58.8235294117647,4,2,22,70,0,1
196353,-40,4,2,22,70,0,1
197314,-71.4285714285714,4,2,22,70,0,1
197603,-55.5555555555556,4,2,22,70,0,1
197891,-40,4,2,22,70,0,1
198468,-33.3333333333333,4,2,22,70,0,1
198853,-76.9230769230769,4,2,22,70,0,1
199141,-58.8235294117647,4,2,22,70,0,1
199430,-40,4,2,22,70,0,1
200391,-71.4285714285714,4,2,22,70,0,1
200680,-55.5555555555556,4,2,22,70,0,1
200968,-40,4,2,22,70,0,1
201545,-33.3333333333333,4,2,22,70,0,1
201930,-66.6666666666667,4,2,22,70,0,1
205007,-76.9230769230769,4,2,22,70,0,1
205295,-58.8235294117647,4,2,22,70,0,1
205584,-40,4,2,22,70,0,1
206545,-40,4,2,22,70,0,1
206930,-71.4285714285714,4,2,22,70,0,1
207314,-33.3333333333333,4,2,22,70,0,1
208084,-66.6666666666667,4,2,22,70,0,1
220391,-200,4,2,22,40,0,0
232699,-100,4,2,22,40,0,0
245007,-83.3333333333333,4,2,22,55,0,0
257314,-76.9230769230769,4,2,22,75,0,1
268084,-66.6666666666667,4,2,22,75,0,1
269620,405.405405405405,4,2,22,70,1,0
269620,-200,4,2,22,70,0,0
269721,-200,4,2,22,40,0,0
292322,-66.6666666666667,4,2,22,90,0,0
295565,-66.6666666666667,4,2,22,50,0,0
295667,-66.6666666666667,4,2,22,20,0,0
298809,-66.6666666666667,4,2,22,90,0,0
298910,-66.6666666666667,4,2,22,10,0,0

[Colours]
Combo1 : 128,255,0
Combo2 : 255,255,128
Combo3 : 128,255,128
Combo4 : 255,255,0

[HitObjects]
256,192,34,12,0,3175,0:0:0:0:
256,192,3277,12,0,6419,0:0:0:0:
256,192,6520,12,0,9662,0:0:0:0:
256,192,9763,12,0,12804,0:0:0:0:
240,352,13006,6,0,P|256:80|272:352,1,825,2|0,0:0|0:0,0:0:0:0:
96,352,16250,6,0,P|391:201|96:16,1,825,2|0,0:0|0:0,0:0:0:0:
384,368,19493,6,0,P|432:272|272:80,1,385,6|0,0:0|0:0,0:0:0:0:
208,80,21115,2,0,P|160:176|320:368,1,385,4|0,0:0|0:0,0:0:0:0:
128,368,22736,6,0,P|80:272|240:80,1,385,6|0,0:0|0:0,0:0:0:0:
304,80,24358,2,0,P|323:192|92:275,1,385,4|0,0:0|0:0,0:0:0:0:
410,340,25979,6,0,P|448:302|389:246,1,110,6|0,0:0|0:0,0:0:0:0:
375,246,26283,1,0,0:0:0:0:
319,243,26385,1,0,0:0:0:0:
378,226,26486,2,0,L|385:134,1,55
441,152,26689,1,0,0:0:0:0:
320,225,26790,6,0,P|282:187|341:131,1,110
355,131,27094,1,0,0:0:0:0:
411,128,27196,1,0,0:0:0:0:
352,111,27297,2,0,L|345:19,1,55
289,37,27500,1,0,0:0:0:0:
95,40,27601,6,0,L|116:165,1,110,4|0,0:0|0:0,0:0:0:0:
165,166,27905,1,0,0:0:0:0:
217,181,28006,2,0,L|216:263,1,55
160,237,28209,2,0,L|159:319,1,55
286,361,28412,6,0,L|265:236,1,110
216,235,28716,1,0,0:0:0:0:
164,220,28817,2,0,L|165:138,1,55
221,164,29020,2,0,L|222:82,1,55
42,76,29223,6,0,P|63:136|118:186,1,110,6|0,0:0|0:0,0:0:0:0:
148,174,29527,1,0,0:0:0:0:
93,170,29628,1,0,0:0:0:0:
43,156,29729,1,0,0:0:0:0:
38,104,29830,1,0,0:0:0:0:
84,81,29932,1,0,0:0:0:0:
208,129,30033,6,0,P|187:189|132:239,1,110
102,227,30337,1,0,0:0:0:0:
156,223,30438,1,0,0:0:0:0:
206,209,30539,1,0,0:0:0:0:
211,157,30642,1,0,0:0:0:0:
165,134,30742,1,0,0:0:0:0:
371,307,30844,6,0,L|390:180,1,110,4|0,0:0|0:0,0:0:0:0:
335,179,31148,1,0,0:0:0:0:
289,150,31249,1,0,0:0:0:0:
280,98,31350,1,0,0:0:0:0:
314,57,31452,1,0,0:0:0:0:
368,55,31553,1,0,0:0:0:0:
251,252,31655,6,0,L|402:240,1,110
313,214,31959,2,0,L|220:209,1,55
309,189,32162,2,0,L|415:174,1,55
315,154,32365,1,0,0:0:0:0:
109,326,32466,6,0,P|105:295|169:261,1,110,6|0,0:0|0:0,0:0:0:0:
220,262,32770,1,0,0:0:0:0:
247,201,32871,1,0,0:0:0:0:
221,139,32972,1,0,0:0:0:0:
158,117,33074,1,0,0:0:0:0:
99,148,33175,1,0,0:0:0:0:
223,327,33277,6,0,L|217:198,1,110
163,207,33581,1,0,0:0:0:0:
126,151,33682,1,0,0:0:0:0:
142,86,33783,1,0,0:0:0:0:
201,55,33885,1,0,0:0:0:0:
264,79,33986,1,0,0:0:0:0:
49,266,34088,6,0,L|206:249,1,110,4|0,0:0|0:0,0:0:0:0:
99,237,34392,1,0,0:0:0:0:
38,209,34493,1,0,0:0:0:0:
23,144,34594,1,0,0:0:0:0:
64,92,34696,1,0,0:0:0:0:
131,93,34797,1,0,0:0:0:0:
251,302,34898,6,0,L|382:290,1,110
307,237,35202,2,0,L|299:144,1,55
241,151,35405,1,0,0:0:0:0:
303,182,35506,2,0,L|307:237,1,55
133,333,35709,6,0,P|129:293|213:261,1,110,6|0,0:0|0:0,0:0:0:0:
251,247,36013,1,0,0:0:0:0:
257,193,36114,1,0,0:0:0:0:
228,147,36215,1,0,0:0:0:0:
177,130,36317,1,0,0:0:0:0:
117,139,36419,1,0,0:0:0:0:
234,233,36520,6,0,P|272:186|206:166,1,110
185,152,36824,1,0,0:0:0:0:
163,102,36925,1,0,0:0:0:0:
182,52,37026,1,0,0:0:0:0:
230,28,37128,1,0,0:0:0:0:
281,45,37229,1,0,0:0:0:0:
443,234,37331,6,0,L|449:79,1,110,4|0,0:0|0:0,0:0:0:0:
386,116,37635,1,0,0:0:0:0:
334,128,37736,1,0,0:0:0:0:
315,177,37837,1,0,0:0:0:0:
345,220,37939,1,0,0:0:0:0:
398,220,38040,1,0,0:0:0:0:
274,340,38142,6,0,P|264:287|333:256,1,110
363,246,38446,1,0,0:0:0:0:
396,203,38547,1,0,0:0:0:0:
390,150,38648,1,0,0:0:0:0:
349,116,38750,1,0,0:0:0:0:
295,120,38851,1,0,0:0:0:0:
98,125,38952,6,0,L|266:123,1,165,6|0,3:2|3:0,0:0:0:0:
39,258,39662,2,0,L|36:50,1,165,0|0,3:0|3:0,0:0:0:0:
262,123,40371,2,0,L|170:124,1,55,0|0,3:0|0:0,0:0:0:0:
414,125,40574,6,0,L|246:123,1,165,4|0,3:2|3:0,0:0:0:0:
473,258,41284,2,0,L|476:50,1,165,0|0,3:0|3:0,0:0:0:0:
296,158,41892,2,0,L|388:159,1,55,0|0,3:0|3:0,0:0:0:0:
64,331,42196,5,6,3:2:0:0:
176,300,42398,2,0,L|185:218,1,55,0|0,0:0|3:0,0:0:0:0:
401,221,42905,1,0,3:0:0:0:
286,181,43108,2,0,L|362:179,1,55,0|0,0:0|3:0,0:0:0:0:
122,150,43615,2,0,L|210:149,1,55,0|0,3:0|0:0,0:0:0:0:
448,331,43817,5,4,3:2:0:0:
336,300,44019,2,0,L|327:218,1,55,0|0,0:0|3:0,0:0:0:0:
111,221,44526,1,0,3:0:0:0:
226,181,44729,2,0,L|150:179,1,55,0|0,0:0|3:0,0:0:0:0:
335,151,45135,2,0,L|426:151,1,55,0|0,3:0|3:0,0:0:0:0:
113,345,45439,6,0,P|73:314|155:234,1,165,6|0,3:2|3:0,0:0:0:0:
281,225,46148,2,0,L|104:227,1,165,0|0,3:0|3:0,0:0:0:0:
281,225,46858,2,0,L|206:221,1,55,0|0,3:0|0:0,0:0:0:0:
399,345,47061,6,0,P|439:314|357:234,1,165,4|0,3:2|3:0,0:0:0:0:
231,225,47770,2,0,L|408:227,1,165,0|0,3:0|3:0,0:0:0:0:
249,208,48378,2,0,L|324:204,1,55,0|0,3:0|3:0,0:0:0:0:
45,346,48682,5,6,3:2:0:0:
225,301,48986,1,0,3:0:0:0:
8,247,49392,1,0,3:0:0:0:
223,301,49696,1,0,3:0:0:0:
53,165,50101,1,0,3:0:0:0:
467,346,50304,5,4,3:2:0:0:
287,301,50608,1,0,3:0:0:0:
504,247,51014,1,0,3:0:0:0:
289,301,51318,1,0,3:0:0:0:
459,189,51621,1,0,3:0:0:0:
405,186,51723,1,0,3:0:0:0:
64,192,51925,5,4,0:3:0:0:
256,192,52128,12,0,54966,0:0:0:0:
256,192,55169,5,2,0:2:0:0:
256,192,55371,12,0,58209,0:0:0:0:
256,192,58412,5,2,0:2:0:0:
256,192,58615,12,0,61452,0:0:0:0:
256,192,61655,5,2,0:2:0:0:
256,192,61858,12,0,64696,0:0:0:0:
123,286,64898,6,0,L|129:141,1,123.750004720688,2|0,3:2|3:0,0:0:0:0:
261,153,65608,2,0,L|262:76,1,41.2500015735627,0|0,3:0|0:0,0:0:0:0:
128,67,65912,1,0,3:0:0:0:
302,235,66216,1,0,0:0:0:0:
303,184,66317,1,0,3:0:0:0:
255,165,66419,1,0,0:0:0:0:
421,308,66520,6,0,L|415:163,1,123.750004720688,0|0,3:2|3:0,0:0:0:0:
283,175,67230,2,0,L|282:98,1,41.2500015735627,0|0,3:0|0:0,0:0:0:0:
416,89,67534,1,0,3:0:0:0:
242,257,67838,1,0,3:0:0:0:
241,206,67939,1,0,3:0:0:0:
289,187,68041,1,0,0:0:0:0:
121,301,68142,6,0,L|15:309,1,82.5000031471254,2|0,3:2|0:0,0:0:0:0:
79,315,68446,1,0,3:0:0:0:
181,336,68547,1,0,0:0:0:0:
313,308,68750,2,0,L|320:252,1,41.2500015735627,0|0,0:0|3:0,0:0:0:0:
122,304,69155,1,0,3:0:0:0:
251,303,69358,1,0,0:0:0:0:
260,263,69459,1,0,0:0:0:0:
220,234,69560,1,0,3:0:0:0:
415,269,69763,6,0,L|302:262,1,82.5000031471254,0|0,3:2|0:0,0:0:0:0:
292,269,70067,2,0,L|365:261,1,41.2500015735627,0|0,3:0|0:0,0:0:0:0:
189,225,70371,2,0,L|110:222,1,41.2500015735627,0|0,0:0|3:0,0:0:0:0:
324,311,70777,1,0,3:0:0:0:
173,271,70979,1,0,0:0:0:0:
254,262,71081,1,0,3:0:0:0:
173,271,71182,1,0,3:0:0:0:
433,333,71385,6,0,L|436:211,1,110,2|4,3:2|0:1,0:0:0:0:
381,212,71689,1,0,3:0:0:0:
272,221,71790,1,0,0:0:0:0:
326,216,71891,1,0,0:0:0:0:
381,212,71992,1,4,0:1:0:0:
213,311,72196,2,0,L|137:315,2,55,0|0|0,0:0|0:0|3:0,0:0:0:0:
389,265,72601,1,0,0:0:0:0:
313,260,72702,1,0,0:0:0:0:
389,265,72804,1,4,3:1:0:0:
79,333,73006,6,0,L|76:211,1,110,0|4,3:2|0:1,0:0:0:0:
131,212,73310,1,0,3:0:0:0:
240,221,73411,1,0,0:0:0:0:
186,216,73512,1,0,0:0:0:0:
131,212,73615,1,4,0:1:0:0:
299,311,73817,2,0,L|375:315,2,55,0|0|0,0:0|0:0|3:0,0:0:0:0:
145,266,74222,1,0,0:0:0:0:
221,261,74323,1,0,3:0:0:0:
145,266,74425,1,0,3:0:0:0:
415,330,74628,6,0,L|288:325,1,110,2|4,3:2|0:1,0:0:0:0:
354,279,74932,1,0,3:0:0:0:
425,243,75033,2,0,L|313:238,1,110,0|4,0:0|0:1,0:0:0:0:
453,159,75439,2,0,L|464:90,2,55,0|0|0,0:0|0:0|3:0,0:0:0:0:
293,246,75844,1,0,0:0:0:0:
347,244,75945,1,0,0:0:0:0:
402,242,76046,1,4,3:1:0:0:
128,320,76250,6,0,L|255:315,1,110,0|4,3:2|0:1,0:0:0:0:
189,269,76554,1,0,3:0:0:0:
87,243,76655,2,0,L|199:238,1,110,0|4,0:0|0:1,0:0:0:0:
59,159,77061,2,0,L|48:90,2,55
173,227,77466,1,0,0:0:0:0:
118,225,77567,1,0,0:0:0:0:
118,225,77669,1,4,0:1:0:0:
400,339,77871,6,0,L|471:342,1,71.4999967269899,4|0,3:0|0:0,0:0:0:0:
201,283,78074,2,0,L|189:179,1,71.4999967269899,4|0,0:1|3:0,0:0:0:0:
405,248,78277,2,0,L|213:261,1,142.99999345398,8|4,3:2|0:1,0:0:0:0:
428,174,78581,1,0,3:0:0:0:
244,342,78682,6,0,L|355:340,1,71.4999967269899,0|0,0:0|3:0,0:0:0:0:
142,288,78885,2,0,L|247:291,1,71.4999967269899,0|0,3:0|0:0,0:0:0:0:
396,285,79088,1,8,3:2:0:0:
230,239,79189,2,0,L|326:239,1,71.4999967269899,0|4,0:0|3:1,0:0:0:0:
139,180,79392,1,0,0:0:0:0:
348,322,79493,6,0,L|249:322,1,71.4999967269899,4|0,3:2|0:0,0:0:0:0:
455,244,79696,2,0,L|473:147,1,71.4999967269899,4|0,0:1|3:0,0:0:0:0:
238,286,79898,2,0,P|230:231|332:182,1,142.99999345398,8|4,3:2|0:1,0:0:0:0:
468,173,80202,1,0,3:0:0:0:
289,176,80304,5,0,0:0:0:0:
260,238,80405,1,0,0:0:0:0:
296,296,80506,1,0,3:0:0:0:
365,298,80608,1,0,3:0:0:0:
176,341,80709,2,0,L|312:340,1,71.4999967269899,8|0,3:2|3:0,0:0:0:0:
69,290,80912,1,4,3:1:0:0:
247,340,81013,1,0,0:0:0:0:
69,290,81115,6,0,L|140:287,1,71.4999967269899,4|0,3:2|0:0,0:0:0:0:
311,283,81318,2,0,L|323:179,1,71.4999967269899,4|0,0:1|3:0,0:0:0:0:
107,248,81521,2,0,L|299:261,1,142.99999345398,8|4,3:2|0:1,0:0:0:0:
84,174,81825,1,0,3:0:0:0:
268,342,81926,6,0,L|157:340,1,71.4999967269899,0|0,0:0|3:0,0:0:0:0:
370,288,82129,2,0,L|265:291,1,71.4999967269899,0|0,3:0|0:0,0:0:0:0:
116,285,82332,1,8,3:2:0:0:
282,239,82433,2,0,L|186:239,1,71.4999967269899,0|4,0:0|3:1,0:0:0:0:
373,180,82636,1,0,0:0:0:0:
164,322,82737,6,0,L|263:322,1,71.4999967269899,4|0,3:2|0:0,0:0:0:0:
57,244,82940,2,0,L|39:147,1,71.4999967269899,4|0,0:1|3:0,0:0:0:0:
274,286,83142,2,0,P|282:231|180:182,1,142.99999345398,8|4,3:2|0:1,0:0:0:0:
44,173,83446,1,0,3:0:0:0:
223,176,83548,5,0,0:0:0:0:
252,238,83649,1,0,0:0:0:0:
216,296,83750,1,0,3:0:0:0:
147,298,83852,1,0,3:0:0:0:
336,341,83953,2,0,L|200:340,1,71.4999967269899,8|0,3:2|3:0,0:0:0:0:
443,290,84156,1,4,3:1:0:0:
265,340,84257,1,0,0:0:0:0:
443,290,84358,5,4,3:2:0:0:
377,269,84459,1,0,0:0:0:0:
361,203,84560,1,4,0:1:0:0:
411,156,84662,1,0,3:0:0:0:
172,265,84763,2,0,L|349:262,1,142.99999345398,8|4,3:2|0:1,0:0:0:0:
138,192,85067,1,0,3:0:0:0:
314,262,85169,6,0,L|318:164,1,71.4999967269899,0|0,0:0|3:0,0:0:0:0:
138,192,85371,2,0,L|142:94,1,71.4999967269899,0|0,3:0|0:0,0:0:0:0:
333,103,85574,2,0,L|243:99,1,71.4999967269899,8|0,3:2|0:0,0:0:0:0:
460,54,85777,2,0,L|371:54,1,71.4999967269899,4|0,3:1|0:0,0:0:0:0:
166,284,85979,5,4,3:2:0:0:
238,240,86080,1,0,0:0:0:0:
238,240,86181,1,4,0:1:0:0:
166,284,86283,1,0,3:0:0:0:
340,265,86384,2,0,L|163:262,1,142.99999345398,8|4,3:2|0:1,0:0:0:0:
374,192,86688,1,0,3:0:0:0:
198,262,86790,6,0,L|194:164,1,71.4999967269899
374,192,86992,2,0,L|370:94,1,71.4999967269899,0|0,3:0|3:0,0:0:0:0:
179,103,87195,2,0,L|269:99,1,71.4999967269899,8|0,3:2|3:0,0:0:0:0:
52,54,87398,2,0,L|141:54,1,71.4999967269899,4|0,3:1|0:0,0:0:0:0:
331,245,87601,5,4,3:2:0:0:
247,224,87702,2,0,L|231:124,1,71.4999967269899,0|4,0:0|0:1,0:0:0:0:
149,124,87905,1,0,3:0:0:0:
331,245,88006,2,0,P|346:194|258:164,1,142.99999345398,8|4,3:2|0:1,0:0:0:0:
456,127,88311,1,0,3:0:0:0:
278,153,88412,5,0,0:0:0:0:
283,223,88513,1,0,3:0:0:0:
325,280,88614,1,0,3:0:0:0:
391,304,88716,1,0,0:0:0:0:
217,344,88817,2,0,L|304:336,1,71.4999967269899,8|0,3:2|0:0,0:0:0:0:
451,304,89020,2,0,L|361:297,1,71.4999967269899,4|0,3:1|0:0,0:0:0:0:
181,245,89223,5,4,3:2:0:0:
265,224,89324,2,0,L|281:124,1,71.4999967269899,0|4,0:0|0:1,0:0:0:0:
363,124,89527,1,0,3:0:0:0:
181,245,89628,2,0,P|166:194|254:164,1,142.99999345398,8|4,3:2|0:1,0:0:0:0:
56,127,89932,1,0,3:0:0:0:
233,153,90034,1,0,0:0:0:0:
228,223,90135,5,0,0:0:0:0:
186,280,90237,1,0,3:0:0:0:
120,304,90338,1,0,3:0:0:0:
295,344,90439,2,0,L|208:336,1,71.4999967269899,8|0,3:2|3:0,0:0:0:0:
396,296,90642,1,4,3:1:0:0:
223,337,90743,1,0,0:0:0:0:
475,278,90844,5,6,3:2:0:0:
315,235,90946,2,0,L|304:142,1,71.4999967269899,0|4,0:0|0:1,0:0:0:0:
148,105,91148,1,0,3:0:0:0:
306,163,91250,2,0,L|26:163,1,275,10|4,3:2|0:1,0:0:0:0:
128,203,91554,1,0,3:0:0:0:
354,330,91655,6,0,L|233:327,1,71.4999967269899,0|0,0:0|3:0,0:0:0:0:
457,284,91858,2,0,L|462:201,1,71.4999967269899,0|0,3:0|0:0,0:0:0:0:
198,271,92061,1,8,3:2:0:0:
378,222,92162,2,0,L|286:226,1,71.4999967269899,0|4,0:0|3:1,0:0:0:0:
484,176,92365,1,0,0:0:0:0:
207,343,92466,6,0,L|219:237,1,71.4999967269899,6|0,3:2|0:0,0:0:0:0:
391,237,92669,2,0,L|283:235,1,71.4999967269899,4|0,0:1|3:0,0:0:0:0:
137,223,92871,2,0,L|448:199,1,285.99998690796,10|4,3:2|0:1,0:0:0:0:
342,141,93175,1,0,3:0:0:0:
139,84,93277,6,0,L|240:82,1,71.4999967269899
49,125,93479,2,0,L|54:227,1,71.4999967269899,0|2,3:0|3:2,0:0:0:0:
266,312,93682,1,8,3:2:0:0:
94,269,93783,2,0,L|203:270,1,71.4999967269899,2|4,3:2|3:1,0:0:0:0:
338,252,93986,1,2,0:0:0:0:
165,269,94088,5,6,3:2:0:0:
235,217,94189,2,0,L|237:133,1,71.4999967269899,0|4,0:0|0:1,0:0:0:0:
45,102,94392,1,0,3:0:0:0:
218,137,94493,2,0,L|503:136,1,285.99998690796,10|4,3:2|0:1,0:0:0:0:
432,91,94797,1,0,3:0:0:0:
234,97,94898,5,0,0:0:0:0:
209,161,94999,1,0,3:0:0:0:
245,220,95100,1,0,3:0:0:0:
314,228,95202,1,0,0:0:0:0:
124,306,95304,2,0,L|224:292,1,71.4999967269899,8|0,3:2|0:0,0:0:0:0:
14,224,95506,2,0,L|117:235,1,71.4999967269899,4|0,3:1|0:0,0:0:0:0:
305,306,95709,6,0,L|191:309,2,71.4999967269899,6|0|4,3:2|0:0|0:1,0:0:0:0:
128,285,96013,1,0,3:0:0:0:
305,306,96115,2,0,L|-6:295,1,285.99998690796,10|4,3:2|0:1,0:0:0:0:
92,244,96419,1,0,3:0:0:0:
286,227,96520,6,0,L|182:230,1,71.4999967269899
139,176,96723,2,0,L|245:174,1,71.4999967269899,0|2,3:0|3:2,0:0:0:0:
378,280,96925,1,8,3:2:0:0:
202,327,97027,2,0,L|117:322,1,71.4999967269899,2|4,3:2|3:1,0:0:0:0:
302,275,97229,1,2,0:0:0:0:
37,278,97331,5,6,3:2:0:0:
197,235,97433,2,0,L|208:142,1,71.4999967269899,0|4,0:0|0:1,0:0:0:0:
364,105,97635,1,0,3:0:0:0:
206,163,97737,2,0,L|499:161,1,285.99998690796,10|4,3:2|0:1,0:0:0:0:
384,203,98041,1,0,3:0:0:0:
158,330,98142,6,0,L|279:327,1,71.4999967269899,0|0,0:0|3:0,0:0:0:0:
55,284,98345,2,0,L|50:201,1,71.4999967269899,0|0,3:0|0:0,0:0:0:0:
314,271,98548,1,8,3:2:0:0:
134,222,98649,2,0,L|226:226,1,71.4999967269899,0|4,0:0|3:1,0:0:0:0:
28,176,98852,1,0,0:0:0:0:
305,343,98953,6,0,L|293:237,1,71.4999967269899,6|0,3:2|0:0,0:0:0:0:
121,237,99156,2,0,L|229:235,1,71.4999967269899,4|0,0:1|3:0,0:0:0:0:
375,223,99358,2,0,L|64:199,1,285.99998690796,10|4,3:2|0:1,0:0:0:0:
170,141,99662,1,0,3:0:0:0:
373,84,99764,6,0,L|272:82,1,71.4999967269899
463,125,99966,2,0,L|458:227,1,71.4999967269899,0|2,3:0|3:2,0:0:0:0:
246,312,100169,1,8,3:2:0:0:
418,269,100270,2,0,L|309:270,1,71.4999967269899,2|4,3:2|3:1,0:0:0:0:
174,252,100473,1,2,0:0:0:0:
347,269,100575,5,6,3:2:0:0:
277,217,100676,2,0,L|275:133,1,71.4999967269899,0|4,0:0|0:1,0:0:0:0:
467,102,100879,1,0,3:0:0:0:
294,137,100979,2,0,L|9:136,1,285.99998690796,10|4,3:2|0:1,0:0:0:0:
80,91,101284,1,0,3:0:0:0:
278,97,101385,5,0,0:0:0:0:
303,161,101486,1,0,3:0:0:0:
267,220,101587,1,0,3:0:0:0:
198,228,101689,1,0,0:0:0:0:
388,306,101791,2,0,L|288:292,1,71.4999967269899,8|0,3:2|0:0,0:0:0:0:
498,224,101993,2,0,L|395:235,1,71.4999967269899,4|0,3:1|0:0,0:0:0:0:
207,306,102196,6,0,L|321:309,2,71.4999967269899,6|0|4,3:2|0:0|0:1,0:0:0:0:
384,285,102500,1,0,3:0:0:0:
207,306,102601,2,0,L|518:295,1,285.99998690796,10|4,3:2|0:1,0:0:0:0:
420,244,102906,1,0,3:0:0:0:
226,227,103007,6,0,L|330:230,1,71.4999967269899
373,176,103210,2,0,L|267:174,1,71.4999967269899,0|2,3:0|3:2,0:0:0:0:
80,272,103412,1,8,3:2:0:0:
294,192,103513,1,2,3:2:0:0:
217,192,103615,1,4,3:1:0:0:
432,272,103716,1,2,0:0:0:0:
432,288,104628,6,0,B|416:32|416:32|400:288|400:288|368:32|368:32|336:288|336:288|288:32|288:32|240:288|240:288|128:32|128:32|16:288|16:288|16:384,1,2200
240,352,107061,6,0,P|249:80|272:352,1,825,4|0,0:3|0:0,0:0:0:0:
144,352,110304,6,0,P|64:272|434:177,1,825,4|0,0:0|0:0,0:0:0:0:
272,352,113547,6,0,P|260:98|240:352,1,770,4|0,0:0|0:0,0:0:0:0:
331,349,115169,2,0,P|433:263|316:61,1,385,4|0,0:0|0:0,0:0:0:0:
240,352,116790,6,0,P|252:98|272:352,1,770,4|0,0:0|0:0,0:0:0:0:
181,349,118412,2,0,P|79:263|196:61,1,385,4|0,0:0|0:0,0:0:0:0:
441,349,120033,5,6,0:0:0:0:
334,344,120236,1,0,0:0:0:0:
283,325,120337,1,0,0:0:0:0:
255,279,120438,1,0,0:0:0:0:
262,226,120540,1,0,0:0:0:0:
302,189,120641,1,0,0:0:0:0:
356,186,120742,1,0,0:0:0:0:
463,181,120844,5,0,0:0:0:0:
356,186,121047,1,0,0:0:0:0:
305,205,121148,1,0,0:0:0:0:
277,251,121249,1,0,0:0:0:0:
277,251,121351,1,0,0:0:0:0:
237,288,121452,1,0,0:0:0:0:
183,291,121553,1,0,0:0:0:0:
76,296,121655,5,6,0:0:0:0:
183,291,121858,1,0,0:0:0:0:
234,272,121959,1,0,0:0:0:0:
262,226,122060,1,0,0:0:0:0:
255,173,122162,1,0,0:0:0:0:
215,136,122263,1,0,0:0:0:0:
161,133,122364,1,0,0:0:0:0:
54,128,122466,5,0,0:0:0:0:
161,133,122669,1,0,0:0:0:0:
212,152,122770,1,0,0:0:0:0:
240,198,122871,1,0,0:0:0:0:
240,198,122973,1,0,0:0:0:0:
280,235,123074,1,2,0:0:0:0:
334,238,123175,1,0,0:0:0:0:
432,240,123277,5,6,0:0:0:0:
313,235,123479,1,0,0:0:0:0:
259,231,123580,1,0,0:0:0:0:
220,194,123681,1,0,0:0:0:0:
216,140,123783,1,0,0:0:0:0:
248,97,123884,1,0,0:0:0:0:
300,85,123985,1,0,0:0:0:0:
181,80,124088,5,0,0:0:0:0:
300,85,124290,1,0,0:0:0:0:
353,88,124391,1,0,0:0:0:0:
392,125,124492,1,0,0:0:0:0:
396,179,124594,1,0,0:0:0:0:
364,222,124695,1,0,0:0:0:0:
312,234,124796,1,0,0:0:0:0:
193,239,124898,5,6,0:0:0:0:
312,234,125100,1,0,0:0:0:0:
259,231,125201,1,0,0:0:0:0:
220,194,125304,1,0,0:0:0:0:
216,140,125405,1,0,0:0:0:0:
248,97,125506,1,0,0:0:0:0:
300,85,125608,1,0,0:0:0:0:
181,80,125709,5,0,0:0:0:0:
300,85,125911,1,0,0:0:0:0:
247,88,126012,1,0,0:0:0:0:
208,125,126115,1,0,0:0:0:0:
208,125,126215,1,0,0:0:0:0:
176,168,126316,1,2,0:0:0:0:
151,181,126368,1,0,0:0:0:0:
124,180,126419,1,0,0:0:0:0:
318,174,126520,6,0,L|156:342,1,220,6|0,0:0|0:0,0:0:0:0:
138,330,126976,1,0,0:0:0:0:
123,307,127027,1,0,0:0:0:0:
138,330,127077,1,0,0:0:0:0:
166,332,127128,1,0,0:0:0:0:
45,335,127331,6,0,L|43:219,1,110,8|0,0:1|0:0,0:0:0:0:
98,214,127635,1,0,0:0:0:0:
195,223,127736,2,0,L|79:223,1,110,8|2,0:1|0:0,0:0:0:0:
138,204,128040,1,0,0:0:0:0:
328,174,128142,6,0,L|183:149,1,110,6|0,0:0|0:0,0:0:0:0:
279,112,128446,2,0,L|287:45,1,55,0|8,0:0|0:1,0:0:0:0:
353,28,128648,1,0,0:0:0:0:
279,63,128750,2,0,L|192:71,1,55
340,223,128952,6,0,P|344:164|270:141,1,110,0|0,0:0|1:1,0:0:0:0:
233,124,129256,1,0,0:0:0:0:
287,119,129357,1,8,0:1:0:0:
342,115,129458,1,0,0:0:0:0:
397,110,129560,1,2,0:0:0:0:
452,106,129661,1,8,0:1:0:0:
216,318,129763,6,0,L|211:184,1,110,0|0,1:0|0:0,0:0:0:0:
296,185,130067,2,0,L|308:110,1,55,0|4,0:0|1:0,0:0:0:0:
262,125,130219,1,0,0:0:0:0:
243,88,130270,1,0,0:0:0:0:
262,125,130321,1,0,0:0:0:0:
304,130,130371,2,0,L|296:185,1,55
125,271,130574,6,0,L|276:263,1,110,8|0,0:1|1:0,0:0:0:0:
169,216,130878,1,0,1:0:0:0:
163,148,130979,1,0,1:0:0:0:
196,89,131080,1,8,1:1:0:0:
257,59,131182,1,8,1:1:0:0:
324,68,131283,1,0,0:0:0:0:
159,325,131385,6,0,P|155:264|223:235,1,110,8|0,1:1|0:0,0:0:0:0:
254,231,131689,2,0,L|172:222,1,55,8|0,1:1|0:0,0:0:0:0:
257,193,131892,2,0,L|186:181,1,55,0|8,0:0|1:1,0:0:0:0:
264,142,132094,1,0,0:0:0:0:
78,275,132196,6,0,P|58:194|89:165,1,110,8|0,1:1|0:0,0:0:0:0:
123,166,132500,1,0,0:0:0:0:
290,190,132601,2,0,L|350:196,1,55,8|0,1:1|1:1,0:0:0:0:
170,240,132804,2,0,L|122:241,1,27.5,8|8,1:1|1:1,0:0:0:0:
178,208,132905,2,0,L|113:211,1,48.1250004589558,8|8,1:1|1:1,0:0:0:0:
320,286,133006,6,0,P|366:225|299:188,1,142.99999345398,4|0,3:0|1:0,0:0:0:0:
256,182,133311,1,8,1:0:0:0:
415,129,133412,2,0,L|295:120,1,71.4999967269899,8|0,3:2|0:0,0:0:0:0:
427,80,133615,2,0,L|315:74,1,71.4999967269899,0|8,1:0|1:0,0:0:0:0:
176,254,133817,6,0,L|358:246,1,142.99999345398,0|0,3:0|1:0,0:0:0:0:
257,202,134121,1,8,1:0:0:0:
71,234,134223,2,0,L|110:151,1,71.4999967269899,8|0,3:2|0:0,0:0:0:0:
282,167,134425,2,0,L|393:165,1,71.4999967269899,0|0,1:0|0:0,0:0:0:0:
130,328,134628,6,0,P|84:267|151:230,1,142.99999345398,4|0,3:2|1:0,0:0:0:0:
194,224,134933,1,8,1:0:0:0:
35,171,135034,2,0,L|155:162,1,71.4999967269899,8|0,3:2|0:0,0:0:0:0:
23,122,135237,2,0,L|135:116,1,71.4999967269899,8|8,1:0|1:0,0:0:0:0:
274,296,135439,6,0,L|92:288,1,142.99999345398,0|8,3:0|1:0,0:0:0:0:
193,244,135743,1,0,1:0:0:0:
374,210,135845,2,0,L|375:122,1,71.4999967269899,8|8,3:2|1:0,0:0:0:0:
204,128,136047,1,4,1:0:0:0:
374,138,136148,1,4,1:0:0:0:
151,353,136250,6,0,L|314:352,1,142.99999345398,4|0,3:2|1:0,0:0:0:0:
301,283,136554,1,8,1:0:0:0:
140,268,136655,2,0,L|129:168,1,71.4999967269899,8|0,3:2|0:0,0:0:0:0:
199,162,136858,2,0,L|119:153,1,71.4999967269899,0|8,1:0|1:0,0:0:0:0:
348,244,137061,6,0,L|171:226,1,142.99999345398,0|0,3:0|1:0,1:0:0:0:
196,114,137364,1,8,1:0:0:0:
395,85,137466,2,0,L|289:85,1,71.4999967269899,8|0,3:2|0:0,0:0:0:0:
420,83,137669,2,0,L|411:201,1,71.4999967269899,0|0,1:0|0:0,0:0:0:0:
224,317,137871,6,0,L|368:309,1,142.99999345398,4|0,3:2|1:0,0:0:0:0:
301,279,138175,1,8,1:0:0:0:
136,255,138277,2,0,L|253:269,1,71.4999967269899,8|0,3:2|0:0,0:0:0:0:
122,310,138479,2,0,L|12:319,1,71.4999967269899,8|8,1:0|1:0,0:0:0:0:
271,321,138682,6,0,L|101:323,1,142.99999345398,0|0,3:0|1:0,0:0:0:0:
196,245,138986,1,0,1:0:0:0:
380,258,139088,2,0,L|293:262,1,71.4999967269899,8|8,3:2|1:0,0:0:0:0:
478,207,139290,1,4,1:0:0:0:
239,205,139392,1,4,1:0:0:0:
274,209,139442,1,0,0:0:0:0:
430,340,139493,6,0,L|454:183,1,153.999995300293,4|0,3:0|1:0,0:0:0:0:
372,164,139797,1,8,1:0:0:0:
191,253,139898,2,0,L|304:243,1,76.9999976501466,8|0,3:2|0:0,0:0:0:0:
97,195,140101,2,0,L|209:206,1,76.9999976501466,0|8,1:0|1:0,0:0:0:0:
363,342,140304,6,0,L|181:332,1,153.999995300293,0|0,3:0|1:0,0:0:0:0:
276,295,140608,1,8,1:0:0:0:
106,279,140709,2,0,L|98:194,1,76.9999976501466,8|0,3:2|0:0,0:0:0:0:
327,188,140912,2,0,L|215:188,1,76.9999976501466,0|0,1:0|0:0,0:0:0:0:
82,340,141115,6,0,L|58:183,1,153.999995300293,4|0,3:2|1:0,0:0:0:0:
140,164,141419,1,8,1:0:0:0:
321,253,141520,2,0,L|208:243,1,76.9999976501466,8|0,3:2|0:0,0:0:0:0:
415,195,141723,2,0,L|303:206,1,76.9999976501466,8|8,1:0|1:0,0:0:0:0:
149,342,141926,6,0,L|331:332,1,153.999995300293,0|8,3:0|1:0,0:0:0:0:
236,295,142230,1,0,1:0:0:0:
406,279,142331,2,0,L|414:194,1,76.9999976501466,8|8,3:2|1:0,0:0:0:0:
204,187,142534,2,0,L|316:187,1,76.9999976501466,4|4,1:0|1:0,0:0:0:0:
97,330,142736,5,4,3:2:0:0:
241,279,142939,2,0,L|154:280,1,76.9999976501466,0|8,1:0|1:0,0:0:0:0:
366,254,143142,1,8,3:2:0:0:
295,214,143243,2,0,L|284:124,1,76.9999976501466,0|0,0:0|1:0,0:0:0:0:
465,95,143446,1,8,1:0:0:0:
212,228,143547,6,0,L|384:224,1,153.999995300293,0|0,3:0|1:0,0:0:0:0:
295,192,143851,1,8,1:0:0:0:
103,200,143952,2,0,L|208:195,2,76.9999976501466,8|0|0,3:2|0:0|1:0,0:0:0:0:
334,293,144256,1,0,0:0:0:0:
149,337,144358,6,0,L|361:344,1,153.999995300293,4|0,3:2|1:0,0:0:0:0:
234,304,144662,1,8,1:0:0:0:
54,312,144763,2,0,L|187:310,1,76.9999976501466,8|0,3:2|0:0,0:0:0:0:
321,238,144966,2,0,L|182:233,1,76.9999976501466,8|8,1:0|1:0,0:0:0:0:
459,167,145169,5,0,3:0:0:0:
368,312,145371,2,0,L|490:303,1,76.9999976501466,8|0,1:0|1:0,0:0:0:0:
216,268,145574,2,0,L|327:266,1,76.9999976501466,8|8,3:2|1:0,0:0:0:0:
121,217,145777,1,4,1:0:0:0:
375,209,145878,1,4,1:0:0:0:
336,216,145929,1,0,0:0:0:0:
109,329,145975,6,0,L|104:250,1,71.4999967269899,4|0,3:0|0:0,0:0:0:0:
317,227,146175,1,0,1:0:0:0:
245,224,146275,1,8,1:0:0:0:
174,222,146375,1,8,3:2:0:0:
245,224,146475,1,0,0:0:0:0:
55,99,146575,2,0,L|172:107,1,71.4999967269899,0|8,1:0|1:0,0:0:0:0:
286,322,146775,6,0,L|190:316,1,71.4999967269899,0|0,3:0|0:0,0:0:0:0:
408,259,146975,2,0,L|407:152,1,71.4999967269899,0|8,1:0|1:0,0:0:0:0:
222,168,147175,2,0,L|334:164,1,71.4999967269899,8|0,3:2|0:0,0:0:0:0:
212,114,147375,2,0,L|310:110,1,71.4999967269899,0|0,1:0|0:0,0:0:0:0:
92,332,147575,5,4,3:2:0:0:
33,296,147675,1,0,0:0:0:0:
38,228,147775,1,0,1:0:0:0:
102,204,147875,1,8,1:0:0:0:
294,242,147975,2,0,L|188:240,1,71.4999967269899,8|0,3:2|0:0,0:0:0:0:
409,182,148175,2,0,L|321:188,1,71.4999967269899,8|8,1:0|1:0,0:0:0:0:
146,333,148375,6,0,L|135:214,1,71.4999967269899,0|0,3:0|0:0,0:0:0:0:
225,220,148575,2,0,L|237:132,1,71.4999967269899,8|0,1:0|1:0,0:0:0:0:
44,145,148775,2,0,L|116:135,1,71.4999967269899,8|8,3:2|1:0,0:0:0:0:
300,223,148975,1,4,1:0:0:0:
229,169,149075,1,4,1:0:0:0:
264,171,149125,1,0,0:0:0:0:
403,329,149175,6,0,L|408:250,1,71.4999967269899,4|0,3:2|0:0,0:0:0:0:
195,227,149375,1,0,1:0:0:0:
267,224,149475,1,8,1:0:0:0:
338,222,149575,1,8,3:2:0:0:
267,224,149675,1,0,0:0:0:0:
457,99,149775,2,0,L|340:107,1,71.4999967269899,0|8,1:0|1:0,0:0:0:0:
226,322,149975,6,0,L|322:316,1,71.4999967269899,0|0,3:0|0:0,0:0:0:0:
104,259,150175,2,0,L|105:152,1,71.4999967269899,0|8,1:0|1:0,0:0:0:0:
290,168,150375,2,0,L|178:164,1,71.4999967269899,8|0,3:2|0:0,0:0:0:0:
300,114,150575,2,0,L|202:110,1,71.4999967269899,0|0,1:0|0:0,0:0:0:0:
420,332,150775,5,4,3:2:0:0:
479,296,150875,1,0,0:0:0:0:
474,228,150975,1,0,1:0:0:0:
410,204,151075,1,8,1:0:0:0:
218,242,151175,2,0,L|324:240,1,71.4999967269899,8|0,3:2|0:0,0:0:0:0:
103,182,151375,2,0,L|191:188,1,71.4999967269899,8|8,1:0|1:0,0:0:0:0:
366,333,151575,6,0,L|377:214,1,71.4999967269899,0|0,3:0|0:0,0:0:0:0:
287,220,151775,2,0,L|275:132,1,71.4999967269899,8|0,1:0|1:0,0:0:0:0:
468,145,151975,2,0,L|396:135,1,71.4999967269899,8|8,3:2|1:0,0:0:0:0:
212,223,152175,1,4,1:0:0:0:
398,135,152275,1,4,1:0:0:0:
362,140,152325,1,0,0:0:0:0:
171,309,152377,6,0,L|49:312,2,71.4999967269899,4|0|0,3:0|0:0|1:0,0:0:0:0:
365,311,152673,1,8,1:0:0:0:
203,237,152771,2,0,L|325:238,1,71.4999967269899,8|0,3:2|0:0,0:0:0:0:
80,184,152969,2,0,L|72:60,1,71.4999967269899,0|8,1:0|1:0,0:0:0:0:
297,335,153166,5,0,3:0:0:0:
225,334,153264,1,0,0:0:0:0:
154,333,153363,1,0,1:0:0:0:
221,310,153462,1,8,1:0:0:0:
390,268,153561,2,0,L|291:269,1,71.4999967269899,8|0,3:2|0:0,0:0:0:0:
311,192,153758,1,0,1:0:0:0:
475,134,153857,1,0,0:0:0:0:
240,335,153955,6,0,L|245:232,1,71.4999967269899,4|0,3:2|0:0,0:0:0:0:
314,229,154153,1,0,1:0:0:0:
126,204,154252,1,8,1:0:0:0:
288,291,154350,2,0,L|181:300,2,71.4999967269899,8|0|8,3:2|0:0|1:0,0:0:0:0:
456,257,154646,1,8,1:0:0:0:
252,339,154745,6,0,L|233:215,1,71.4999967269899,0|0,3:0|0:0,0:0:0:0:
318,229,154942,2,0,L|330:137,1,71.4999967269899,8|0,1:0|1:0,0:0:0:0:
133,151,155140,2,0,L|234:142,1,71.4999967269899,8|8,3:2|1:0,0:0:0:0:
23,69,155337,2,0,L|38:153,1,71.4999967269899,4|4,1:0|1:0,0:0:0:0:
69,153,155485,1,0,0:0:0:0:
290,301,155534,6,0,L|118:297,1,142.99999345398,4|0,3:2|1:0,0:0:0:0:
208,260,155830,1,8,1:0:0:0:
389,223,155929,1,8,3:2:0:0:
217,162,156028,2,0,L|318:164,1,71.4999967269899,0|0,0:0|1:0,0:0:0:0:
454,160,156225,1,8,1:0:0:0:
249,322,156324,6,0,L|146:328,1,71.4999967269899,0|0,3:0|0:0,0:0:0:0:
299,262,156521,2,0,L|308:183,1,71.4999967269899,0|8,1:0|1:0,0:0:0:0:
99,160,156719,2,0,L|181:163,2,71.4999967269899,8|0|0,3:2|0:0|1:0,0:0:0:0:
295,99,157015,1,0,0:0:0:0:
88,319,157113,6,0,P|59:240|95:187,1,142.99999345398,4|0,3:2|1:0,0:0:0:0:
292,201,157409,1,8,3:1:0:0:
112,297,157508,2,0,L|288:290,1,142.99999345398,8|0,3:2|3:0,0:0:0:0:
333,286,157804,1,0,1:0:0:0:
157,352,157903,6,0,L|168:246,1,71.4999967269899,0|0,1:0|3:0,0:0:0:0:
353,230,158100,2,0,L|454:226,1,71.4999967269899,8|0,1:0|1:0,0:0:0:0:
160,192,158298,1,8,3:2:0:0:
336,192,158396,1,8,3:2:0:0:
160,192,158495,1,8,3:2:0:0:
336,192,158593,1,8,3:2:0:0:
160,160,158692,5,4,3:0:0:0:
256,192,158886,12,0,160055,0:0:0:0:
256,144,160250,5,4,0:0:0:0:
256,192,160445,12,0,161614,0:0:0:0:
256,144,161809,5,4,0:0:0:0:
256,192,162003,12,0,163172,0:0:0:0:
256,144,163367,5,4,0:0:0:0:
256,192,163562,12,0,164731,0:0:0:0:
256,144,164926,5,4,0:0:0:0:
256,192,165120,12,0,166289,0:0:0:0:
256,144,166484,5,4,0:0:0:0:
256,192,166679,12,0,167848,0:0:0:0:
256,144,168043,5,4,0:0:0:0:
256,192,168237,12,0,169406,0:0:0:0:
256,144,169601,5,4,0:0:0:0:
256,192,169795,12,0,169893,0:0:0:0:
256,192,169990,12,0,170088,0:0:0:0:
256,192,170136,12,0,170234,0:0:0:0:
256,192,170282,12,0,170331,0:0:0:0:
256,192,170380,12,0,170429,0:0:0:0:
256,192,170477,12,0,170526,0:0:0:0:
256,192,170575,12,0,170624,0:0:0:0:
256,192,170648,12,0,170672,0:0:0:0:
256,192,170696,12,0,170720,0:0:0:0:
256,192,170745,12,0,170769,0:0:0:0:
256,192,170794,12,0,170818,0:0:0:0:
256,192,170842,12,0,170866,0:0:0:0:
63,256,171161,6,0,L|260:240,2,165,2|2|2,3:2|0:2|0:2,0:0:0:0:
224,352,171930,2,0,L|144:352,1,55,0|2,3:2|0:2,0:0:0:0:
416,277,172314,2,0,L|306:288,1,110,2|2,3:2|0:2,0:0:0:0:
50,249,172699,6,0,L|247:233,2,165,2|2|2,3:2|0:2|0:2,0:0:0:0:
256,352,173468,2,0,L|176:352,1,55,0|2,3:2|0:2,0:0:0:0:
449,275,173852,2,0,L|339:286,1,110,2|2,3:2|0:2,0:0:0:0:
16,224,174237,6,0,L|213:208,2,165,2|2|2,3:2|0:2|0:2,0:0:0:0:
304,352,175006,2,0,L|224:352,1,55,0|2,3:2|0:2,0:0:0:0:
496,256,175390,2,0,L|386:267,1,110,2|2,3:2|0:2,0:0:0:0:
16,192,175776,6,0,L|192:192,2,165,2|2|2,3:2|0:2|0:2,0:0:0:0:
352,352,176545,2,0,L|272:352,1,55,0|2,3:2|0:2,0:0:0:0:
496,192,176930,1,2,3:2:0:0:
160,192,177122,1,2,3:2:0:0:
464,320,177314,6,0,L|464:160,1,110,2|4,3:2|0:1,0:0:0:0:
409,200,177603,1,2,0:2:0:0:
243,297,177699,1,0,3:2:0:0:
297,295,177795,1,0,0:0:0:0:
352,293,177891,1,2,0:2:0:0:
101,321,178084,5,0,3:2:0:0:
71,276,178180,1,2,0:2:0:0:
78,222,178276,1,0,0:0:0:0:
223,192,178468,1,2,3:2:0:0:
168,194,178564,1,0,0:0:0:0:
113,196,178660,1,2,0:2:0:0:
378,326,178853,6,0,L|234:317,1,110,2|4,3:2|0:1,0:0:0:0:
316,292,179141,1,2,0:2:0:0:
478,272,179237,1,0,3:2:0:0:
493,217,179333,1,0,0:0:0:0:
478,162,179429,1,2,0:2:0:0:
182,179,179622,5,0,3:2:0:0:
236,177,179718,1,2,0:2:0:0:
291,176,179814,1,0,0:0:0:0:
124,271,180007,2,0,L|41:278,2,55,2|0|2,3:2|0:0|0:2,0:0:0:0:
385,352,180391,6,0,L|408:242,1,110,2|4,3:2|0:1,0:0:0:0:
352,237,180680,1,2,0:2:0:0:
174,297,180776,2,0,L|102:290,2,55,0|0|2,3:2|0:0|0:2,0:0:0:0:
426,348,181160,6,0,L|321:350,2,55,0|2|0,3:2|0:2|0:0,0:0:0:0:
288,296,181545,1,2,3:2:0:0:
342,302,181641,1,0,0:0:0:0:
397,308,181737,1,2,0:2:0:0:
135,337,181930,6,0,L|11:346,1,110,2|4,3:2|0:1,0:0:0:0:
78,331,182218,1,2,0:2:0:0:
230,301,182314,2,0,L|239:195,1,55,0|0,3:2|0:0,0:0:0:0:
183,225,182507,1,2,0:2:0:0:
455,141,182699,6,0,L|451:227,1,55,0|2,3:2|0:2,0:0:0:0:
400,212,182891,1,0,0:0:0:0:
204,315,183084,2,0,L|346:310,1,110,2|2,3:2|3:2,0:0:0:0:
131,258,183372,1,0,3:2:0:0:
333,282,183468,6,0,L|356:141,1,110,0|4,3:0|0:1,0:0:0:0:
178,246,183757,2,0,L|169:169,1,55,0|0,0:0|3:0,0:0:0:0:
351,144,183949,2,0,L|355:55,1,55,0|4,0:0|0:1,0:0:0:0:
80,257,184237,6,0,L|181:242,2,55,0|0|4,3:0|0:0|0:1,0:0:0:0:
266,334,184622,2,0,L|132:319,1,110,0|4,3:0|0:1,0:0:0:0:
347,265,184910,1,0,3:0:0:0:
154,303,185007,6,0,L|131:162,1,110,0|4,3:0|0:1,0:0:0:0:
309,267,185296,2,0,L|318:190,1,55,0|0,0:0|3:0,0:0:0:0:
136,165,185488,2,0,L|132:76,1,55,0|4,0:0|0:1,0:0:0:0:
407,278,185776,6,0,L|306:263,2,55,0|0|4,3:0|0:0|0:1,0:0:0:0:
233,347,186160,1,0,3:0:0:0:
302,347,186257,1,0,3:0:0:0:
129,293,186353,1,4,3:1:0:0:
198,293,186450,1,0,3:0:0:0:
32,265,186545,6,0,L|33:137,1,110,0|4,3:0|0:1,0:0:0:0:
210,194,186834,2,0,L|216:122,1,55,0|0,0:0|3:0,0:0:0:0:
402,119,187026,2,0,L|416:51,1,55,0|4,0:0|0:1,0:0:0:0:
161,274,187314,5,0,3:0:0:0:
215,268,187410,1,0,0:0:0:0:
270,263,187506,1,4,0:1:0:0:
76,223,187699,2,0,P|58:162|98:137,1,110,0|4,3:0|0:1,0:0:0:0:
266,124,187987,1,0,3:0:0:0:
96,299,188084,6,0,L|233:298,1,110,0|4,3:0|0:1,0:0:0:0:
46,230,188372,2,0,L|31:170,1,55,0|0,0:0|3:0,0:0:0:0:
228,158,188564,2,0,L|233:85,1,55,0|4,0:0|0:1,0:0:0:0:
487,35,188853,6,0,L|479:118,1,55,0|0,3:0|0:0,0:0:0:0:
275,228,189045,2,0,L|363:222,1,55,4|0,3:1|0:0,0:0:0:0:
484,169,189237,1,0,3:0:0:0:
329,152,189334,1,0,3:0:0:0:
174,169,189430,1,4,3:1:0:0:
329,152,189527,1,0,3:0:0:0:
160,174,189622,6,0,L|153:281,1,55,0|0,3:0|0:0,0:0:0:0:
200,261,189814,1,4,0:1:0:0:
368,325,189910,2,0,L|364:254,1,55,0|0,0:0|3:0,0:0:0:0:
310,258,190103,1,0,0:0:0:0:
475,165,190199,2,0,L|465:255,1,55,4|0,0:1|0:0,0:0:0:0:
287,261,190391,6,0,L|285:167,1,55,0|0,3:0|0:0,0:0:0:0:
337,186,190584,1,4,0:1:0:0:
25,128,190776,2,0,L|187:130,1,110,0|4,3:0|0:1,0:0:0:0:
416,337,191160,5,0,3:0:0:0:
421,282,191256,1,0,0:0:0:0:
427,227,191352,1,4,0:1:0:0:
255,205,191449,2,0,L|334:197,1,55,0|0,0:0|3:0,0:0:0:0:
321,145,191641,1,0,0:0:0:0:
166,122,191737,2,0,L|253:124,1,55,4|0,0:1|0:0,0:0:0:0:
38,239,191930,6,0,L|130:232,2,55,0|0|4,3:0|0:0|0:1,0:0:0:0:
306,346,192314,2,0,L|190:340,1,110,0|4,3:0|0:1,0:0:0:0:
378,277,192603,1,0,3:0:0:0:
134,272,192699,6,0,L|101:160,1,110,0|4,3:0|0:1,0:0:0:0:
312,147,192987,1,0,0:0:0:0:
257,147,193083,1,0,3:0:0:0:
202,147,193179,1,0,0:0:0:0:
378,220,193276,1,4,0:1:0:0:
123,347,193468,6,0,L|103:253,1,55,0|0,3:0|0:0,0:0:0:0:
284,234,193660,1,4,0:1:0:0:
27,236,193853,2,0,L|107:224,1,55,0|0,3:0|0:0,0:0:0:0:
328,243,194045,1,4,0:1:0:0:
55,328,194237,6,0,L|46:178,1,110,0|4,3:0|0:1,0:0:0:0:
230,212,194526,2,0,L|238:134,1,55,0|0,0:0|3:0,0:0:0:0:
425,89,194718,2,0,L|419:177,1,55,0|4,0:0|0:1,0:0:0:0:
112,321,195007,6,0,L|27:340,2,55,0|0|4,3:0|0:0|0:1,0:0:0:0:
366,260,195391,2,0,L|359:213,1,27.5,0|0,3:0|3:0,0:0:0:0:
242,184,195487,2,0,L|194:178,1,27.5,0|0,3:0|3:0,0:0:0:0:
90,256,195584,2,0,L|97:209,1,27.5,4|0,3:1|3:0,0:0:0:0:
253,172,195680,2,0,L|301:166,1,27.5,0|0,3:0|3:0,0:0:0:0:
84,194,195776,6,0,L|283:192,1,142.99999345398,6|4,3:0|0:1,0:0:0:0:
403,260,196064,2,0,L|169:259,1,187.000003566742
58,190,196353,2,0,L|406:187,2,275,4|2|4,0:1|3:3|0:1,0:0:0:0:
240,327,196930,2,0,L|261:100,1,137.5,10|0,3:3|0:0,0:0:0:0:
165,161,197122,1,4,0:1:0:0:
448,235,197314,6,0,L|268:227,1,153.999995300293,2|4,3:0|0:1,0:0:0:0:
96,236,197603,2,0,L|325:226,1,197.99999395752
117,134,197891,2,0,L|405:150,2,275,4|2|4,0:1|3:3|0:1,0:0:0:0:
416,240,198468,2,0,L|52:243,1,330.000012588501,10|4,3:3|0:1,0:0:0:0:
457,331,198853,6,0,L|275:319,1,142.99999345398,2|4,3:0|0:1,0:0:0:0:
127,330,199141,2,0,L|326:321,1,187.000003566742
130,247,199430,2,0,L|447:275,2,275,4|2|4,0:1|3:3|0:1,0:0:0:0:
424,245,200007,2,0,L|445:87,1,137.5,10|0,3:3|0:0,0:0:0:0:
339,47,200199,2,0,L|428:197,1,137.5,4|0,0:1|0:0,0:0:0:0:
178,327,200391,6,0,L|382:317,1,153.999995300293,2|4,3:0|0:1,0:0:0:0:
132,297,200680,2,0,L|399:318,1,197.99999395752
496,240,200968,2,0,L|198:255,2,275,4|2|4,0:1|3:3|0:1,0:0:0:0:
133,203,201545,2,0,L|477:226,1,330.000012588501,10|4,3:3|0:1,0:0:0:0:
175,337,201930,6,0,P|124:271|197:253,1,165.000006294251,2|0,3:3|0:0,0:0:0:0:
343,274,202218,2,0,L|218:273,2,82.5000031471254,2|8|0,3:3|3:3|0:0,0:0:0:0:
343,274,202507,1,0,0:0:0:0:
146,342,202603,2,0,L|141:192,1,82.5000031471254,2|0,3:3|0:0,0:0:0:0:
213,239,202795,1,0,0:0:0:0:
32,228,202891,2,0,L|25:143,1,82.5000031471254,2|0,3:3|0:0,0:0:0:0:
124,134,203084,2,0,L|-1:125,1,82.5000031471254,8|0,3:3|0:0,0:0:0:0:
233,125,203276,2,0,L|131:129,1,82.5000031471254,2|0,3:3|0:0,0:0:0:0:
337,337,203468,6,0,P|388:271|315:253,1,165.000006294251,2|0,3:3|0:0,0:0:0:0:
169,274,203756,2,0,L|294:273,2,82.5000031471254,2|8|0,3:3|3:3|0:0,0:0:0:0:
169,274,204045,1,0,0:0:0:0:
366,342,204141,2,0,L|371:192,1,82.5000031471254,2|0,3:3|0:0,0:0:0:0:
299,239,204333,1,0,0:0:0:0:
480,228,204429,2,0,L|487:143,1,82.5000031471254,2|0,3:3|0:0,0:0:0:0:
388,134,204622,2,0,L|513:125,1,82.5000031471254,8|2,3:3|3:3,0:0:0:0:
201,129,204814,1,2,3:3:0:0:
476,309,205007,6,0,L|312:309,1,142.99999345398,2|4,3:0|0:1,0:0:0:0:
152,312,205295,2,0,L|359:315,1,187.000003566742
175,230,205584,2,0,L|474:239,2,275,4|2|4,0:1|3:3|0:1,0:0:0:0:
458,90,206160,2,0,L|453:275,1,137.5,10|0,3:3|0:0,0:0:0:0:
366,359,206353,2,0,L|367:208,1,137.5,4|0,0:1|0:0,0:0:0:0:
105,182,206545,6,0,L|419:196,1,275,2|2,3:0|3:3,0:0:0:0:
52,289,206930,2,0,L|262:281,1,153.999995300293,10|2,3:3|3:3,0:0:0:0:
400,192,207314,2,0,L|224:192,3,165.000006294251,2|2|2|2,3:3|3:3|3:3|3:3,0:0:0:0:
448,192,207699,1,10,3:3:0:0:
192,192,207795,1,2,3:3:0:0:
368,272,207891,1,2,3:3:0:0:
304,272,207987,1,2,3:3:0:0:
97,349,208084,6,0,P|73:310|191:247,1,165.000006294251,2|4,3:3|0:1,0:0:0:0:
296,227,208372,2,0,L|298:109,1,82.5000031471254,2|8,3:3|3:3,0:0:0:0:
218,113,208564,1,0,0:0:0:0:
303,64,208660,1,4,0:1:0:0:
116,49,208757,1,2,3:3:0:0:
193,81,208853,2,0,P|231:147|166:209,1,165.000006294251,0|2,0:0|3:3,0:0:0:0:
16,208,209237,1,8,3:3:0:0:
96,192,209333,1,0,0:0:0:0:
16,192,209429,1,2,3:3:0:0:
290,329,209622,6,0,L|301:123,1,165.000006294251,2|4,3:3|0:1,0:0:0:0:
144,154,209910,2,0,L|279:152,1,82.5000031471254,2|8,3:3|3:3,0:0:0:0:
226,152,210103,1,0,0:0:0:0:
144,154,210199,1,4,0:1:0:0:
328,332,210295,1,2,3:3:0:0:
245,304,210391,2,0,L|236:179,1,82.5000031471254
447,207,210584,2,0,L|453:112,1,82.5000031471254,2|0,3:3|0:0,0:0:0:0:
256,132,210776,2,0,L|370:127,1,82.5000031471254,8|2,3:3|3:3,0:0:0:0:
144,212,210968,2,0,L|130:104,1,82.5000031471254,2|0,3:3|0:0,0:0:0:0:
348,344,211160,6,0,P|349:254|261:222,1,165.000006294251,2|4,3:3|0:1,0:0:0:0:
208,223,211449,1,2,3:3:0:0:
393,162,211545,2,0,L|386:261,1,82.5000031471254,8|0,3:3|0:0,0:0:0:0:
295,291,211737,2,0,L|397:289,1,82.5000031471254,4|2,0:1|3:3,0:0:0:0:
151,328,211930,2,0,L|373:328,1,165.000006294251,0|2,0:0|3:3,0:0:0:0:
247,282,212218,1,0,0:0:0:0:
56,239,212314,2,0,L|179:237,1,82.5000031471254,8|0,3:3|0:0,0:0:0:0:
31,180,212507,2,0,L|24:74,1,82.5000031471254,2|0,3:3|0:0,0:0:0:0:
284,327,212699,6,0,L|79:322,1,165.000006294251,2|4,3:3|0:1,0:0:0:0:
305,274,212987,1,2,3:3:0:0:
123,262,213084,2,0,L|12:272,1,82.5000031471254,8|0,3:3|0:0,0:0:0:0:
134,234,213276,2,0,L|23:244,1,82.5000031471254,4|2,0:1|3:3,0:0:0:0:
254,302,213468,2,0,P|245:205|165:169,1,165.000006294251,0|2,0:0|3:3,0:0:0:0:
110,175,213757,1,0,0:0:0:0:
315,193,213853,1,8,3:3:0:0:
110,175,213949,2,0,L|211:170,2,82.5000031471254,2|2|0,3:3|3:3|0:0,0:0:0:0:
348,349,214237,6,0,L|152:340,1,165.000006294251,2|4,3:3|0:1,0:0:0:0:
388,304,214526,1,2,3:3:0:0:
228,273,214622,2,0,L|237:174,1,82.5000031471254,8|0,3:3|0:0,0:0:0:0:
325,171,214814,2,0,L|347:67,1,82.5000031471254,4|2,0:1|3:3,0:0:0:0:
95,265,215007,2,0,L|268:250,1,165.000006294251,0|2,0:0|3:3,0:0:0:0:
187,210,215295,1,0,0:0:0:0:
350,210,215391,2,0,L|354:80,1,82.5000031471254,8|0,3:3|0:0,0:0:0:0:
150,136,215584,2,0,L|260:136,1,82.5000031471254,2|0,3:3|0:0,0:0:0:0:
33,299,215776,6,0,P|45:218|173:199,1,165.000006294251,2|4,3:3|0:1,0:0:0:0:
312,177,216064,1,2,3:3:0:0:
147,259,216160,2,0,L|277:254,1,82.5000031471254,8|0,3:3|0:0,0:0:0:0:
123,313,216353,2,0,L|245:309,1,82.5000031471254,4|2,0:1|3:3,0:0:0:0:
406,352,216545,2,0,L|218:354,1,165.000006294251,0|2,0:0|3:3,0:0:0:0:
314,314,216834,1,0,0:0:0:0:
116,248,216930,1,8,3:3:0:0:
312,284,217026,2,0,L|218:290,1,82.5000031471254,2|2,3:3|3:3,0:0:0:0:
229,289,217218,1,0,0:0:0:0:
440,321,217314,6,0,P|480:245|450:168,1,165.000006294251,2|4,3:3|0:1,0:0:0:0:
372,175,217603,1,0,0:0:0:0:
197,283,217699,2,0,L|330:290,3,82.5000031471254,10|0|4|0,3:3|0:0|0:1|0:0,0:0:0:0:
90,344,218084,2,0,L|80:192,1,82.5000031471254,2|0,3:3|0:0,0:0:0:0:
164,240,218276,1,4,0:1:0:0:
328,242,218468,2,0,L|129:239,1,165.000006294251,10|4,3:3|0:1,0:0:0:0:
461,352,218853,6,0,L|258:357,1,165.000006294251,2|4,3:3|0:1,0:0:0:0:
481,280,219141,2,0,L|379:275,1,82.5000031471254,2|10,3:0|3:3,0:0:0:0:
138,263,219430,1,2,3:3:0:0:
435,238,219622,1,2,3:3:0:0:
239,324,219718,1,2,3:3:0:0:
435,238,219814,1,2,3:3:0:0:
239,324,219910,1,2,3:3:0:0:
435,238,220007,2,0,L|501:240,2,41.2500015735627,2|2|2,3:3|3:3|3:3,0:0:0:0:
155,344,220199,2,0,L|89:346,2,41.2500015735627,2|2|2,3:3|3:3|3:3,0:0:0:0:
400,352,220391,6,0,L|304:352,2,82.5,4|2|2,3:3|0:0|0:0,0:0:0:0:
256,272,221257,1,2,0:0:0:0:
400,224,221545,2,0,L|320:224,1,55,2|2,0:0|0:0,0:0:0:0:
112,352,221930,6,0,L|208:352,2,82.5,2|2|2,0:0|0:0|0:0,0:0:0:0:
256,272,222796,1,2,0:0:0:0:
112,224,223084,2,0,L|192:224,1,55,2|2,0:0|0:0,0:0:0:0:
368,320,223468,6,0,L|368:224,1,82.5,2|2,0:0|0:0,0:0:0:0:
256,192,224045,2,0,L|352:192,1,82.5,2|2,0:0|0:0,0:0:0:0:
448,160,224622,2,0,L|368:160,1,55,2|2,0:0|0:0,0:0:0:0:
144,320,225007,6,0,L|144:224,1,82.5,2|2,0:0|0:0,0:0:0:0:
256,192,225584,2,0,L|160:192,1,82.5,2|2,0:0|0:0,0:0:0:0:
64,160,226161,2,0,L|144:160,1,55,2|2,0:0|0:0,0:0:0:0:
448,336,226545,6,0,L|352:336,1,82.5,6|2,0:0|0:0,0:0:0:0:
224,352,227122,2,0,L|320:352,1,82.5,2|2,0:0|0:0,0:0:0:0:
160,304,227699,2,0,L|80:304,1,55,2|2,0:0|0:0,0:0:0:0:
400,288,228084,6,0,L|304:288,1,82.5,2|2,0:0|0:0,0:0:0:0:
176,304,228661,2,0,L|272:304,1,82.5,2|2,0:0|0:0,0:0:0:0:
112,256,229238,2,0,L|32:256,1,55,2|2,0:0|0:0,0:0:0:0:
480,288,229622,6,0,L|384:288,1,82.5,6|2,0:0|0:0,0:0:0:0:
32,288,230199,2,0,L|128:288,1,82.5,2|2,0:0|0:0,0:0:0:0:
480,352,230776,2,0,L|425:352,1,55,2|2,0:0|0:0,0:0:0:0:
32,288,231160,6,0,L|128:288,1,82.5,2|2,0:0|0:0,0:0:0:0:
480,288,231737,2,0,L|384:288,1,82.5,2|2,0:0|0:0,0:0:0:0:
32,352,232314,2,0,L|87:352,1,55,2|2,0:0|0:0,0:0:0:0:
410,299,232699,6,0,P|469:237|359:154,1,220,6|4,1:2|1:0,0:0:0:0:
370,148,233132,1,0,0:0:0:0:
261,151,233276,1,0,1:0:0:0:
453,333,233468,6,0,P|453:258|420:228,1,110,8|0,1:0|0:0,0:0:0:0:
376,228,233757,1,0,0:0:0:0:
251,220,233853,2,0,L|369:218,1,110,8|0,1:0|1:0,0:0:0:0:
313,190,234141,1,0,0:0:0:0:
120,143,234237,6,0,L|128:290,1,110,0|4,1:0|1:0,0:0:0:0:
238,350,234526,2,0,L|246:255,1,55,0|8,1:0|1:0,0:0:0:0:
170,286,234718,1,0,0:0:0:0:
242,295,234814,2,0,L|251:211,1,55,0|0,1:0|0:0,0:0:0:0:
329,219,235007,6,0,L|256:218,1,55
140,295,235199,2,0,L|224:285,1,55,0|0,1:0|0:0,0:0:0:0:
201,224,235391,1,0,0:0:0:0:
85,253,235487,1,8,1:0:0:0:
201,218,235584,1,8,1:0:0:0:
459,319,235776,5,6,1:2:0:0:
251,373,236160,2,0,L|279:374,1,27.5,4|0,1:0|0:0,0:0:0:0:
384,353,236353,2,0,L|310:349,1,55,0|0,1:0|0:0,0:0:0:0:
229,338,236545,6,0,P|224:274|283:235,1,110,8|0,1:0|0:0,0:0:0:0:
307,236,236834,1,0,1:0:0:0:
243,201,236930,2,0,L|231:116,1,55,8|0,1:0|1:0,0:0:0:0:
158,131,237122,2,0,L|76:130,1,55,0|0,1:0|0:0,0:0:0:0:
322,307,237314,6,0,L|182:299,1,110,0|4,1:0|1:0,0:0:0:0:
290,249,237603,2,0,L|412:241,1,110,0|0,1:0|0:0,0:0:0:0:
286,175,237891,1,0,1:0:0:0:
399,241,237987,1,0,1:0:0:0:
279,215,238084,6,0,L|186:220,2,55,8|0|0,1:0|1:0|1:0,0:0:0:0:
376,171,238372,1,8,1:0:0:0:
266,159,238468,2,0,L|249:70,1,55,0|0,1:0|1:0,0:0:0:0:
356,46,238660,1,8,1:0:0:0:
391,59,238708,1,8,1:0:0:0:
391,59,238756,1,8,1:0:0:0:
356,46,238804,1,8,1:0:0:0:
102,299,238853,6,0,P|43:237|153:154,1,220,6|4,1:2|1:0,0:0:0:0:
142,148,239286,1,0,0:0:0:0:
251,151,239430,1,0,1:0:0:0:
59,333,239622,6,0,P|59:258|92:228,1,110,8|0,1:0|0:0,0:0:0:0:
136,228,239911,1,0,0:0:0:0:
261,220,240007,2,0,L|143:218,1,110,8|0,1:0|1:0,0:0:0:0:
199,190,240295,1,0,0:0:0:0:
392,143,240391,6,0,L|384:290,1,110,0|4,1:0|1:0,0:0:0:0:
269,351,240680,2,0,L|261:256,1,55,0|8,1:0|1:0,0:0:0:0:
337,287,240872,1,0,0:0:0:0:
265,296,240968,2,0,L|256:212,1,55,0|0,1:0|0:0,0:0:0:0:
178,220,241161,6,0,L|251:219,1,55
367,296,241353,2,0,L|283:286,1,55,0|0,1:0|0:0,0:0:0:0:
306,225,241545,1,0,0:0:0:0:
422,254,241641,1,8,1:0:0:0:
306,219,241738,1,8,1:0:0:0:
53,319,241930,5,6,1:2:0:0:
261,373,242314,2,0,L|233:374,1,27.5,4|0,1:0|0:0,0:0:0:0:
128,353,242507,2,0,L|202:349,1,55,0|0,1:0|0:0,0:0:0:0:
283,338,242699,6,0,P|288:274|229:235,1,110,8|0,1:0|0:0,0:0:0:0:
205,236,242988,1,0,1:0:0:0:
269,201,243084,2,0,L|281:116,1,55,8|0,1:0|1:0,0:0:0:0:
354,131,243276,2,0,L|436:130,1,55,0|0,1:0|0:0,0:0:0:0:
190,307,243468,6,0,L|330:299,1,110,0|4,1:0|1:0,0:0:0:0:
222,249,243757,2,0,L|100:241,1,110,0|0,1:0|0:0,0:0:0:0:
226,175,244045,1,0,1:0:0:0:
113,241,244141,1,0,1:0:0:0:
233,215,244238,6,0,L|326:220,2,55,8|0|0,1:0|1:0|1:0,0:0:0:0:
123,165,244526,1,8,1:0:0:0:
246,159,244622,2,0,L|263:70,1,55,0|0,1:0|1:0,0:0:0:0:
153,37,244814,1,8,1:0:0:0:
106,47,244862,1,8,1:0:0:0:
106,47,244910,1,8,1:0:0:0:
153,37,244958,1,8,1:0:0:0:
359,306,245007,6,0,P|371:243|260:192,1,197.99999395752,6|0,1:2|0:0,0:0:0:0:
439,181,245391,1,4,1:0:0:0:
469,158,245439,1,0,0:0:0:0:
443,126,245487,1,0,0:0:0:0:
369,115,245584,1,0,1:0:0:0:
180,310,245776,6,0,L|351:300,1,131.99999597168,8|0,1:0|0:0,0:0:0:0:
256,265,246064,1,0,0:0:0:0:
141,248,246160,2,0,L|297:252,1,131.99999597168,8|0,1:0|1:0,0:0:0:0:
100,274,246545,6,0,L|143:131,1,131.99999597168,0|4,1:0|1:0,0:0:0:0:
361,269,246834,2,0,L|244:264,1,65.9999979858399,0|8,1:0|1:0,0:0:0:0:
427,197,247122,2,0,L|440:112,1,65.9999979858399,0|0,1:0|0:0,0:0:0:0:
371,108,247314,6,0,L|356:15,1,65.9999979858399
160,158,247507,1,0,1:0:0:0:
225,156,247603,1,0,0:0:0:0:
291,154,247699,1,0,0:0:0:0:
122,235,247795,2,0,L|41:231,1,65.9999979858399,8|8,1:0|1:0,0:0:0:0:
343,346,248084,6,0,L|140:345,1,197.99999395752,6|0,1:2|0:0,0:0:0:0:
340,233,248468,2,0,L|381:239,2,32.99999899292,4|0|0,1:0|0:0|0:0,0:0:0:0:
267,277,248660,2,0,L|335:277,1,65.9999979858399,0|0,1:0|0:0,0:0:0:0:
133,330,248853,6,0,L|116:176,1,131.99999597168,8|0,1:0|0:0,0:0:0:0:
297,197,249141,2,0,L|196:191,1,65.9999979858399,0|8,1:0|1:0,0:0:0:0:
402,157,249334,2,0,L|397:236,1,65.9999979858399,0|0,1:0|1:0,0:0:0:0:
344,260,249526,1,0,0:0:0:0:
167,333,249622,6,0,L|337:338,1,131.99999597168,0|4,1:0|1:0,0:0:0:0:
135,283,249910,2,0,L|310:284,1,131.99999597168,0|0,1:0|0:0,0:0:0:0:
102,223,250199,2,0,L|93:144,1,65.9999979858399,0|0,1:0|1:0,0:0:0:0:
313,206,250391,5,8,1:0:0:0:
231,179,250487,2,0,L|212:95,1,65.9999979858399,0|0,1:0|1:0,0:0:0:0:
381,103,250680,1,8,1:0:0:0:
305,152,250776,2,0,L|411:148,1,65.9999979858399,0|0,1:0|1:0,0:0:0:0:
179,265,250968,1,8,1:0:0:0:
222,262,251016,1,8,1:0:0:0:
266,260,251064,1,8,1:0:0:0:
310,257,251112,1,8,1:0:0:0:
99,322,251160,6,0,P|61:237|149:225,1,197.99999395752,6|0,1:2|0:0,0:0:0:0:
328,171,251545,2,0,L|374:165,2,32.99999899292,4|0|0,1:0|0:0|0:0,0:0:0:0:
250,223,251737,2,0,L|182:216,1,65.9999979858399,0|0,1:0|0:0,0:0:0:0:
380,358,251930,6,0,L|393:218,1,131.99999597168,8|0,1:0|0:0,0:0:0:0:
327,212,252218,1,0,0:0:0:0:
149,303,252314,2,0,L|322:294,1,131.99999597168,8|0,1:0|1:0,0:0:0:0:
280,296,252603,1,0,0:0:0:0:
100,250,252699,6,0,L|82:137,2,65.9999979858399,0|0|4,1:0|0:0|1:0,0:0:0:0:
255,325,252987,2,0,L|173:324,1,65.9999979858399,0|8,1:0|1:0,0:0:0:0:
325,266,253276,2,0,L|334:163,1,65.9999979858399,0|0,1:0|0:0,0:0:0:0:
399,176,253468,6,0,L|408:73,1,65.9999979858399
205,184,253660,1,0,1:0:0:0:
404,110,253757,2,0,L|399:176,1,65.9999979858399
330,200,253949,1,8,1:0:0:0:
136,195,254045,1,8,1:0:0:0:
483,327,254237,6,0,L|280:327,1,197.99999395752,6|0,1:2|0:0,0:0:0:0:
442,239,254622,2,0,L|495:237,2,32.99999899292,4|0|0,1:0|0:0|0:0,0:0:0:0:
358,277,254814,2,0,L|445:281,1,65.9999979858399,0|0,1:0|0:0,0:0:0:0:
198,316,255007,6,0,L|199:180,1,131.99999597168,8|0,1:0|0:0,0:0:0:0:
262,167,255295,1,0,1:0:0:0:
62,123,255391,2,0,L|65:221,1,65.9999979858399,8|0,1:0|1:0,0:0:0:0:
173,250,255583,2,0,L|59:243,1,65.9999979858399,0|0,1:0|0:0,0:0:0:0:
352,326,255776,6,0,L|205:320,1,131.99999597168,0|4,1:0|1:0,0:0:0:0:
426,290,256064,2,0,L|279:284,1,131.99999597168,0|0,1:0|0:0,0:0:0:0:
477,228,256353,2,0,L|366:226,1,65.9999979858399,0|0,1:0|1:0,0:0:0:0:
191,248,256545,5,8,1:0:0:0:
352,206,256641,2,0,L|264:203,1,65.9999979858399,0|0,1:0|1:0,0:0:0:0:
127,200,256834,1,8,1:0:0:0:
281,145,256930,2,0,L|287:38,1,65.9999979858399,0|0,1:0|1:0,0:0:0:0:
116,120,257122,1,8,1:0:0:0:
79,138,257170,1,8,1:0:0:0:
83,179,257218,1,8,1:0:0:0:
122,190,257266,1,8,1:0:0:0:
324,309,257314,6,0,L|158:301,1,142.99999345398,0|0,1:0|0:0,0:0:0:0:
248,274,257603,1,8,1:0:0:0:
410,243,257699,2,0,L|421:141,1,71.4999967269899,8|0,1:0|0:0,0:0:0:0:
335,125,257891,2,0,L|436:116,1,71.4999967269899,0|0,1:0|1:0,0:0:0:0:
204,267,258084,6,0,L|80:278,1,71.4999967269899,4|0,1:0|0:0,0:0:0:0:
359,194,258276,1,8,1:0:0:0:
294,192,258372,1,0,0:0:0:0:
108,179,258468,1,8,1:0:0:0:
256,317,258660,2,0,L|172:319,1,71.4999967269899
399,287,258853,6,0,L|228:285,1,142.99999345398,0|0,1:0|0:0,0:0:0:0:
473,194,259141,2,0,L|397:200,1,71.4999967269899,0|8,1:0|1:0,0:0:0:0:
210,323,259430,1,0,1:0:0:0:
174,263,259526,1,0,1:0:0:0:
199,199,259622,5,4,1:0:0:0:
266,181,259718,1,0,1:0:0:0:
337,181,259814,2,0,L|255:181,1,71.4999967269899,8|0,1:0|0:0,0:0:0:0:
452,318,260007,2,0,L|350:315,2,71.4999967269899,8|0|8,1:0|0:0|1:0,0:0:0:0:
276,249,260295,2,0,L|226:247,1,35.749998363495,8|8,1:0|1:0,0:0:0:0:
78,334,260391,6,0,L|249:322,1,142.99999345398,0|0,1:0|0:0,0:0:0:0:
292,315,260680,1,8,1:0:0:0:
103,277,260776,2,0,P|85:231|161:174,1,142.99999345398,8|0,1:0|1:0,0:0:0:0:
215,161,261064,1,0,1:0:0:0:
402,263,261160,6,0,L|273:255,1,71.4999967269899,4|0,1:0|0:0,0:0:0:0:
133,203,261353,1,8,1:0:0:0:
202,181,261449,1,0,0:0:0:0:
392,178,261545,1,8,1:0:0:0:
248,325,261737,2,0,L|359:328,1,71.4999967269899
111,299,261930,6,0,L|285:296,1,142.99999345398,0|0,1:0|0:0,0:0:0:0:
52,233,262218,2,0,L|154:228,1,71.4999967269899,0|8,1:0|1:0,0:0:0:0:
302,320,262507,2,0,L|298:218,1,71.4999967269899,0|0,1:0|1:0,0:0:0:0:
223,223,262699,6,0,L|323:220,1,71.4999967269899,4|0,1:0|1:0,0:0:0:0:
222,173,262891,2,0,L|132:170,1,71.4999967269899,8|0,1:0|0:0,0:0:0:0:
353,242,263084,2,0,L|404:245,1,35.749998363495,8|8,1:0|1:0,0:0:0:0:
263,196,263180,2,0,L|226:192,1,35.749998363495,8|8,1:0|1:0,0:0:0:0:
384,170,263276,2,0,L|291:161,1,71.4999967269899,8|8,1:0|1:0,0:0:0:0:
117,296,263468,6,0,L|268:293,1,142.99999345398,0|0,1:0|0:0,0:0:0:0:
199,254,263757,1,8,1:0:0:0:
379,220,263853,2,0,L|386:105,1,71.4999967269899,8|0,1:0|0:0,0:0:0:0:
302,106,264045,2,0,L|397:103,1,71.4999967269899,0|0,1:0|1:0,0:0:0:0:
111,258,264237,6,0,L|290:255,1,142.99999345398,4|8,1:0|1:0,0:0:0:0:
318,249,264526,1,0,0:0:0:0:
52,171,264622,1,8,1:0:0:0:
204,335,264814,2,0,L|105:337,1,71.4999967269899,0|0,0:0|1:0,0:0:0:0:
370,319,265007,6,0,L|208:310,1,142.99999345398,0|0,1:0|1:0,0:0:0:0:
453,266,265295,2,0,L|357:261,1,71.4999967269899,0|8,1:0|1:0,0:0:0:0:
230,267,265584,1,0,1:0:0:0:
297,254,265680,1,0,1:0:0:0:
319,189,265776,5,4,1:0:0:0:
274,138,265872,1,0,1:0:0:0:
203,138,265968,2,0,L|311:137,1,71.4999967269899,8|0,1:0|0:0,0:0:0:0:
83,272,266160,2,0,L|167:263,2,71.4999967269899,8|0|8,1:0|0:0|1:0,0:0:0:0:
308,313,266449,1,8,1:0:0:0:
79,300,266545,6,0,L|186:306,1,71.4999967269899,0|0,1:0|1:0,0:0:0:0:
330,294,266737,2,0,L|334:197,1,71.4999967269899,0|0,0:0|1:0,0:0:0:0:
151,173,266930,1,8,1:0:0:0:
330,178,267026,1,0,1:0:0:0:
152,216,267122,2,0,L|69:212,1,71.4999967269899,0|0,1:0|0:0,0:0:0:0:
311,306,267314,6,0,L|195:308,1,71.4999967269899,4|0,1:0|0:0,0:0:0:0:
432,245,267507,1,8,1:0:0:0:
361,243,267603,1,0,0:0:0:0:
149,230,267699,1,8,1:0:0:0:
317,196,267795,1,0,0:0:0:0:
149,230,267891,1,8,1:0:0:0:
452,312,268084,6,0,L|348:314,4,82.5000031471254,0|0|0|0|0,1:0|1:0|1:0|1:0|1:0,0:0:0:0:
412,299,268516,1,0,1:0:0:0:
232,285,268564,1,8,1:0:0:0:
412,299,268660,2,0,L|308:302,1,82.5000031471254,0|0,1:0|1:0,0:0:0:0:
126,341,268853,5,8,1:0:0:0:
320,272,268949,1,0,1:0:0:0:
288,272,268997,1,0,1:0:0:0:
256,272,269045,1,0,1:0:0:0:
416,272,269141,1,8,1:0:0:0:
256,272,269237,1,8,1:0:0:0:
96,272,269334,1,8,1:0:0:0:
256,272,269430,1,8,1:0:0:0:
288,272,269478,1,8,1:0:0:0:
144,224,269526,1,8,1:0:0:0:
112,224,269574,1,8,1:0:0:0:
401,348,269620,6,0,P|120:242|436:64,1,825,4|0,0:3|0:0,0:0:0:0:
111,348,272863,2,0,P|392:242|76:64,1,825,2|0,0:0|0:0,0:0:0:0:
432,352,276106,6,0,B|192:240|192:240|384:288|272:-48|96:-16|0:160|64:265,1,825,6|0,0:0|0:0,0:0:0:0:
331,358,279349,2,0,P|194:318|486:103,1,825,6|0,0:0|0:0,0:0:0:0:
51,360,282592,5,6,0:0:0:0:
41,334,282693,1,0,0:0:0:0:
43,307,282794,1,0,0:0:0:0:
57,284,282896,1,0,0:0:0:0:
81,270,282997,1,0,0:0:0:0:
187,252,283201,2,0,L|229:250,1,27.5
130,231,283403,5,0,0:0:0:0:
167,213,283504,1,0,0:0:0:0:
193,182,283605,1,0,0:0:0:0:
204,143,283707,1,0,0:0:0:0:
197,102,283808,1,0,0:0:0:0:
174,69,283909,1,0,0:0:0:0:
138,48,284011,1,0,0:0:0:0:
97,45,284112,1,0,0:0:0:0:
258,344,284214,5,2,0:0:0:0:
267,318,284315,1,0,0:0:0:0:
265,291,284416,1,0,0:0:0:0:
251,268,284518,1,0,0:0:0:0:
227,254,284619,1,0,0:0:0:0:
122,236,284823,2,0,L|80:234,1,27.5
179,215,285025,5,0,0:0:0:0:
142,197,285126,1,0,0:0:0:0:
116,166,285227,1,0,0:0:0:0:
105,127,285329,1,0,0:0:0:0:
112,86,285430,1,0,0:0:0:0:
135,53,285531,1,0,0:0:0:0:
171,32,285633,1,0,0:0:0:0:
212,29,285734,1,0,0:0:0:0:
380,23,285836,6,0,L|371:72,1,27.5,6|0,0:0|0:0,0:0:0:0:
326,73,286038,2,0,L|317:122,1,27.5
271,131,286241,1,0,0:0:0:0:
371,299,286444,2,0,L|322:310,1,27.5
397,278,286647,5,0,0:0:0:0:
414,234,286748,1,0,0:0:0:0:
414,187,286849,1,0,0:0:0:0:
398,143,286951,1,0,0:0:0:0:
366,109,287052,1,0,0:0:0:0:
324,88,287153,1,0,0:0:0:0:
278,84,287255,1,0,0:0:0:0:
233,97,287356,1,0,0:0:0:0:
437,54,287457,6,0,L|428:103,1,27.5,2|0,0:0|0:0,0:0:0:0:
383,104,287659,2,0,L|374:153,1,27.5
328,162,287862,1,0,0:0:0:0:
428,330,288065,2,0,L|379:341,1,27.5
454,309,288268,5,0,0:0:0:0:
471,265,288369,1,0,0:0:0:0:
471,218,288470,1,0,0:0:0:0:
455,174,288572,1,0,0:0:0:0:
423,140,288673,1,0,0:0:0:0:
381,119,288774,1,0,0:0:0:0:
335,115,288876,1,0,0:0:0:0:
290,128,288977,1,0,0:0:0:0:
129,315,289079,6,0,L|79:318,1,27.5,6|0,0:0|0:0,0:0:0:0:
186,280,289282,2,0,L|158:278,1,27.5
261,279,289484,2,0,L|273:213,1,55
316,210,289788,1,0,0:0:0:0:
362,192,289890,5,0,0:0:0:0:
312,185,289991,1,0,0:0:0:0:
267,208,290092,1,0,0:0:0:0:
244,253,290194,1,0,0:0:0:0:
251,303,290295,1,0,0:0:0:0:
285,339,290396,1,0,0:0:0:0:
334,350,290498,1,0,0:0:0:0:
380,330,290599,1,0,0:0:0:0:
197,326,290701,6,0,L|147:329,1,27.5,2|0,0:0|0:0,0:0:0:0:
254,291,290904,2,0,L|226:289,1,27.5
329,286,291106,2,0,L|341:220,1,55
384,217,291410,1,0,0:0:0:0:
430,199,291511,5,0,0:0:0:0:
380,192,291613,1,0,0:0:0:0:
335,215,291714,1,0,0:0:0:0:
312,260,291816,1,0,0:0:0:0:
319,310,291917,1,0,0:0:0:0:
353,346,292018,1,0,0:0:0:0:
402,357,292120,1,0,0:0:0:0:
448,337,292221,1,0,0:0:0:0:
160,192,292322,6,0,L|48:192,1,82.5000031471254,0|0,1:0|1:0,0:0:0:0:
352,192,292525,6,0,L|464:192,1,82.5000031471254,0|0,1:0|1:0,0:0:0:0:
160,192,292728,6,0,L|48:192,1,82.5000031471254,0|0,1:0|1:0,0:0:0:0:
352,192,292931,6,0,L|464:192,1,82.5000031471254,0|0,1:0|1:0,0:0:0:0:
160,192,293133,6,0,L|48:192,1,82.5000031471254,0|0,1:0|1:0,0:0:0:0:
352,192,293336,6,0,L|464:192,1,82.5000031471254,0|0,1:0|1:0,0:0:0:0:
160,192,293539,6,0,L|48:192,1,82.5000031471254,0|0,1:0|1:0,0:0:0:0:
352,192,293742,6,0,L|464:192,1,82.5000031471254,0|0,1:0|1:0,0:0:0:0:
276,192,293944,6,0,L|228:192,1,41.2500015735627,0|0,1:0|1:0,0:0:0:0:
80,160,294045,6,0,L|80:112,1,41.2500015735627,0|0,1:0|1:0,0:0:0:0:
236,192,294147,6,0,L|284:192,1,41.2500015735627,0|0,1:0|1:0,0:0:0:0:
432,160,294248,6,0,L|432:112,1,41.2500015735627,0|0,1:0|1:0,0:0:0:0:
276,192,294349,6,0,L|228:192,1,41.2500015735627,0|0,1:0|1:0,0:0:0:0:
80,160,294450,6,0,L|80:112,1,41.2500015735627,0|0,1:0|1:0,0:0:0:0:
236,192,294552,6,0,L|284:192,1,41.2500015735627,0|0,1:0|1:0,0:0:0:0:
432,160,294653,6,0,L|432:112,1,41.2500015735627,0|0,1:0|1:0,0:0:0:0:
276,192,294755,6,0,L|228:192,1,41.2500015735627,0|0,1:0|1:0,0:0:0:0:
80,160,294856,6,0,L|80:112,1,41.2500015735627,0|0,1:0|1:0,0:0:0:0:
236,192,294958,6,0,L|284:192,1,41.2500015735627,0|0,1:0|1:0,0:0:0:0:
432,160,295059,6,0,L|432:112,1,41.2500015735627,0|0,1:0|1:0,0:0:0:0:
276,192,295159,6,0,L|228:192,1,41.2500015735627,0|0,1:0|1:0,0:0:0:0:
80,160,295261,6,0,L|80:112,1,41.2500015735627,0|0,1:0|1:0,0:0:0:0:
236,192,295362,6,0,L|284:192,1,41.2500015735627,0|0,1:0|1:0,0:0:0:0:
432,160,295463,6,0,L|432:112,1,41.2500015735627,0|0,1:0|1:0,0:0:0:0:
256,144,295565,5,4,0:0:0:0:
256,192,295667,12,0,298707,0:0:0:0:
256,192,298809,12,0,302052,0:0:0:0:
