osu file format v14

[General]
AudioFilename: audio.mp3
AudioLeadIn: 0
PreviewTime: -1
Countdown: 1
SampleSet: None
StackLeniency: 0.7
Mode: 0
LetterboxInBreaks: 0
WidescreenStoryboard: 0

[Editor]
DistanceSpacing: 2.4
BeatDivisor: 4
GridSize: 16
TimelineZoom: 1

[Metadata]
Title:Por donde hay que empezar
TitleUnicode:Por donde hay que empezar
Artist:Phineas Y Ferb
ArtistUnicode:Phineas Y Ferb
Creator:Lian2002
Version:For you
Source:Phineas y Ferb: A través de la segunda dimensión
Tags:
BeatmapID:1466892
BeatmapSetID:693230

[Difficulty]
HPDrainRate:5
CircleSize:4
OverallDifficulty:4
ApproachRate:9
SliderMultiplier:1.4
SliderTickRate:1

[Events]
//Background and Video events
0,0,"PnF_AT2D_14.jpg",0,0
//Break Periods
//Storyboard Layer 0 (Background)
//Storyboard Layer 1 (Fail)
//Storyboard Layer 2 (Pass)
//Storyboard Layer 3 (Foreground)
//Storyboard Sound Samples

[TimingPoints]
5266,392.156862745098,4,2,0,100,1,0
53515,368.098159509202,4,2,0,100,1,0
68454,392.156862745098,4,2,0,100,1,0

[HitObjects]
56,80,8402,5,0,0:0:0:0:
232,48,8794,1,0,0:0:0:0:
72,80,9186,1,0,0:0:0:0:
240,48,9578,1,0,0:0:0:0:
136,184,9774,1,0,0:0:0:0:
208,256,9970,1,0,0:0:0:0:
288,136,10166,1,0,0:0:0:0:
288,256,10363,2,0,L|360:264,1,70
448,184,10756,2,0,L|360:160,1,70
176,168,11343,1,0,0:0:0:0:
280,88,11539,1,0,0:0:0:0:
168,80,11735,1,0,0:0:0:0:
280,55,11931,2,0,L|368:71,1,70
448,152,12323,2,0,L|368:128,1,70
160,208,12913,1,0,0:0:0:0:
232,296,13109,2,0,L|312:288,1,70
272,192,13501,2,0,L|352:208,1,70
424,296,13893,1,0,0:0:0:0:
272,64,14089,2,0,L|192:80,1,70
72,80,14481,1,0,0:0:0:0:
144,184,14677,2,0,L|216:168,1,70
208,288,15069,1,0,0:0:0:0:
344,280,15266,1,0,0:0:0:0:
256,344,15462,1,0,0:0:0:0:
408,328,15658,1,0,0:0:0:0:
448,240,15854,2,0,L|464:160,1,70
352,120,16246,1,0,0:0:0:0:
176,32,16442,2,0,L|248:40,1,70
400,48,16834,1,0,0:0:0:0:
400,48,16932,1,0,0:0:0:0:
400,56,17030,1,0,0:0:0:0:
280,184,17226,2,0,L|224:240,1,70
56,296,17618,1,0,0:0:0:0:
184,312,17815,2,0,L|256:336,1,70
136,208,18207,2,0,L|104:128,1,70
240,128,18599,1,0,0:0:0:0:
88,56,18795,1,0,0:0:0:0:
232,56,18991,2,0,L|312:48,1,70
464,120,19383,2,0,L|376:144,1,70
296,208,19775,1,0,0:0:0:0:
446,296,19971,2,0,L|376:296,1,70
264,232,20364,1,0,0:0:0:0:
224,344,20560,2,0,L|296:336,1,70
232,264,20952,1,0,0:0:0:0:
96,136,21148,1,0,0:0:0:0:
112,248,21344,1,0,0:0:0:0:
272,144,21540,1,0,0:0:0:0:
272,144,21638,1,0,0:0:0:0:
272,144,21736,1,0,0:0:0:0:
376,152,21932,1,0,0:0:0:0:
384,152,22128,2,0,B|304:96|304:96|376:72,1,140
136,40,22716,2,0,L|216:48,1,70
336,80,23109,1,0,0:0:0:0:
272,248,23305,2,0,L|248:168,1,70
152,352,23697,1,0,0:0:0:0:
304,344,23893,2,0,L|384:376,1,70
400,240,24285,1,0,0:0:0:0:
176,272,24481,2,0,L|96:288,1,70
32,192,24873,1,0,0:0:0:0:
32,192,25069,1,0,0:0:0:0:
112,96,25266,2,0,L|192:120,1,70
248,48,25658,2,0,L|336:32,1,70
368,112,26050,1,0,0:0:0:0:
440,248,26246,2,0,L|456:152,1,70
312,280,26638,2,0,L|392:288,1,70
472,360,27030,1,0,0:0:0:0:
272,360,27226,2,0,L|192:384,1,70
160,272,27618,1,0,0:0:0:0:
48,352,27815,1,0,0:0:0:0:
48,352,27913,1,0,0:0:0:0:
48,352,28011,1,0,0:0:0:0:
88,176,28207,1,0,0:0:0:0:
264,192,28403,2,0,L|176:216,1,70
80,104,28795,1,0,0:0:0:0:
192,96,28991,2,0,L|200:24,1,70
264,184,29383,2,0,L|296:120,1,70
344,272,29775,2,0,L|408:240,1,70
360,368,30167,2,0,L|448:360,1,70
256,328,30560,2,0,L|168:344,1,70
368,368,30952,2,0,L|448:352,1,70
328,232,31344,1,0,0:0:0:0:
456,216,31540,2,0,L|464:136,1,70
360,80,31932,1,0,0:0:0:0:
216,112,32128,2,0,L|208:32,1,70
128,160,32520,2,0,P|176:192|208:192,1,70
336,272,32913,2,0,P|280:280|240:304,1,70
392,360,33305,1,0,0:0:0:0:
168,312,33501,1,0,0:0:0:0:
352,200,33697,1,0,0:0:0:0:
128,200,33893,1,0,0:0:0:0:
128,200,33991,1,0,0:0:0:0:
128,200,34089,1,0,0:0:0:0:
128,200,34187,1,0,0:0:0:0:
128,200,34285,1,0,0:0:0:0:
128,200,34383,1,0,0:0:0:0:
136,216,34481,1,0,0:0:0:0:
176,112,34677,2,0,L|264:96,1,70
312,112,35069,1,0,0:0:0:0:
176,40,35266,2,0,L|248:64,1,70
408,112,35658,1,0,0:0:0:0:
360,264,35854,2,0,P|384:192|448:200,1,140
416,336,36442,1,0,0:0:0:0:
368,304,36638,1,0,0:0:0:0:
344,232,36834,2,0,P|264:240|216:304,1,140
352,320,37422,1,0,0:0:0:0:
136,352,37618,2,0,L|224:368,1,70
312,184,38011,1,0,0:0:0:0:
208,128,38207,1,0,0:0:0:0:
288,288,38403,1,0,0:0:0:0:
120,216,38599,1,0,0:0:0:0:
304,120,38795,1,0,0:0:0:0:
208,256,38991,1,0,0:0:0:0:
272,240,39187,1,0,0:0:0:0:
400,152,39383,1,0,0:0:0:0:
360,64,39579,1,0,0:0:0:0:
304,64,39775,1,0,0:0:0:0:
264,64,39971,1,0,0:0:0:0:
208,88,40167,1,0,0:0:0:0:
168,112,40364,1,0,0:0:0:0:
128,144,40560,1,0,0:0:0:0:
120,176,40756,1,0,0:0:0:0:
120,176,40952,2,0,L|32:168,1,70
128,272,41344,1,0,0:0:0:0:
296,328,41540,2,0,L|208:352,1,70
104,256,41932,2,0,L|200:256,1,70
240,144,42324,2,0,P|288:112|312:112,1,70
256,264,42716,1,0,0:0:0:0:
392,176,42913,2,0,L|320:200,1,70
392,272,43305,1,0,0:0:0:0:
456,112,43501,2,0,L|424:184,1,70
408,304,43893,1,0,0:0:0:0:
304,304,44089,2,0,L|224:320,1,70
56,224,44481,1,0,0:0:0:0:
144,352,44677,2,0,L|144:272,1,70
192,176,45069,2,0,P|232:120|256:112,1,70
357,185,45462,2,0,L|288:192,2,70
283,75,46050,1,0,0:0:0:0:
367,116,46246,1,0,0:0:0:0:
380,128,46442,2,0,L|458:99,1,70
422,260,46834,2,0,L|462:197,1,70
336,317,47226,2,0,L|248:329,1,70
178,263,47618,1,0,0:0:0:0:
80,348,47815,2,0,B|85:302|85:302|40:254|40:254|94:239,1,140
156,168,48403,1,0,0:0:0:0:
162,98,48599,2,0,L|233:84,1,70
80,52,48991,1,0,0:0:0:0:
216,215,49187,2,0,P|248:175|253:150,1,70
162,98,49579,1,0,0:0:0:0:
114,175,49775,1,0,0:0:0:0:
270,71,49971,2,0,L|332:103,1,70
348,197,50364,1,0,0:0:0:0:
440,325,50560,2,0,L|457:244,1,70
355,199,50952,2,0,L|286:212,1,70
209,317,51344,2,0,L|300:331,1,70
37,341,51736,2,0,L|136:310,1,70
169,220,52128,1,0,0:0:0:0:
169,220,52226,1,0,0:0:0:0:
169,220,52324,1,0,0:0:0:0:
123,131,52520,2,0,P|80:131|56:112,1,70
128,64,52913,1,0,0:0:0:0:
128,64,53109,1,0,0:0:0:0:
128,64,53305,1,0,0:0:0:0:
189,66,53515,2,0,P|282:43|344:72,1,140
328,158,54067,1,0,0:0:0:0:
334,159,54251,2,0,L|409:137,1,70
406,298,54619,2,0,L|321:279,1,70
196,298,54987,1,0,0:0:0:0:
69,335,55171,1,0,0:0:0:0:
133,220,55355,2,0,L|115:132,1,70
31,95,55723,1,0,0:0:0:0:
111,41,55907,1,0,0:0:0:0:
197,106,56091,2,0,L|266:68,1,70
384,31,56459,1,0,0:0:0:0:
350,188,56643,2,0,L|423:167,1,70
288,113,57011,1,0,0:0:0:0:
250,341,57195,2,0,L|230:242,1,70
119,237,57564,1,0,0:0:0:0:
189,187,57932,2,0,L|209:105,1,70
338,66,58300,2,0,P|271:67|259:73,1,70
125,105,58668,2,0,P|159:134|191:135,1,70
299,150,59036,2,0,P|346:164|366:187,1,70
360,289,59404,2,0,P|423:269|444:244,1,70
246,245,59772,1,0,0:0:0:0:
87,335,59956,2,0,L|161:342,1,70
124,244,60324,1,0,0:0:0:0:
124,244,60508,2,0,L|203:224,1,70
63,158,60876,1,0,0:0:0:0:
222,88,61061,2,0,L|290:117,1,70
357,100,61429,1,0,0:0:0:0:
373,243,61613,2,0,L|285:270,1,70
231,182,61981,2,0,L|155:210,1,70
143,300,62349,1,0,0:0:0:0:
143,300,62533,1,0,0:0:0:0:
148,304,62717,2,0,L|235:332,1,70
75,339,63085,1,0,0:0:0:0:
94,251,63269,1,0,0:0:0:0:
102,169,63453,2,0,P|85:123|153:71,1,140
291,124,68454,1,0,0:0:0:0:
291,124,68650,2,0,P|360:85|449:180,1,210
