osu file format v14

[General]
AudioFilename: audio.mp3
AudioLeadIn: 0
PreviewTime: 168567
Countdown: 0
SampleSet: Soft
StackLeniency: 0.7
Mode: 0
LetterboxInBreaks: 0
WidescreenStoryboard: 1

[Editor]
Bookmarks: 16927,45989,61927,78802,82552,138802,146302,153802,161302,168802
DistanceSpacing: 1.2
BeatDivisor: 3
GridSize: 4
TimelineZoom: 1.6

[Metadata]
Title:Tsvet nastroyeniya siniy
TitleUnicode:Цвет настроения синий
Artist:Philipp Kirkorov
ArtistUnicode:Филипп Киркоров
Creator:Shmiklak
Version:Normal
Source:
Tags:marvollo m_a_r_v_o_l_l_o russian русский поп cvet filipp
BeatmapID:1643086
BeatmapSetID:782498

[Difficulty]
HPDrainRate:3.5
CircleSize:3
OverallDifficulty:4
ApproachRate:4.5
SliderMultiplier:1.4
SliderTickRate:1

[Events]
//Background and Video events
0,0,"bg.jpg",0,0
//Break Periods
2,79002,81292
2,146502,152542
2,168802,171292
//Storyboard Layer 0 (Background)
//Storyboard Layer 1 (Fail)
//Storyboard Layer 2 (Pass)
//Storyboard Layer 3 (Foreground)
//Storyboard Sound Samples

[TimingPoints]
1927,468.75,4,2,1,40,1,0
16927,-133.333333333333,4,2,1,40,0,0
23958,-133.333333333333,4,2,0,30,0,0
24427,-133.333333333333,4,2,1,40,0,0
31927,-100,4,2,1,60,0,0
43177,-100,4,2,1,75,0,0
45052,-100,4,2,1,80,0,0
45989,-100,4,2,1,80,0,0
46458,-100,4,2,1,60,0,0
46927,-100,4,2,1,80,0,1
61458,-100,4,2,1,80,0,0
61927,-100,4,2,1,80,0,1
76927,-100,4,2,1,60,0,0
78802,-100,4,2,1,60,0,0
93333,-100,4,2,1,70,0,0
93802,-100,4,2,1,60,0,0
105052,-100,4,2,1,75,0,0
106927,-100,4,2,1,80,0,0
107864,-100,4,2,1,80,0,0
108333,-100,4,2,1,60,0,0
108802,-100,4,2,1,80,0,1
123333,-100,4,2,1,80,0,0
123802,-100,4,2,1,80,0,1
138802,-100,4,2,1,60,0,0
153802,-100,4,2,1,70,0,0
166927,-100,4,2,1,90,0,0
168802,-100,4,2,1,5,0,0
171458,-100,4,2,1,80,0,0
172083,-100,4,2,1,80,0,0
172434,-100,4,2,1,5,0,0
172552,-100,4,2,1,80,0,1
183333,-100,4,2,1,80,0,0
183802,-100,4,2,1,80,0,1
198333,-100,4,2,1,80,0,1
198802,-100,4,2,1,80,0,0
200677,-100,4,2,1,5,0,0

[Colours]
Combo1 : 240,113,234
Combo2 : 56,131,243
Combo3 : 35,55,237

[HitObjects]
68,160,16927,6,0,P|108:168|176:160,1,105.000004005432,4|4,3:2|0:3,0:0:0:0:
284,104,17864,2,0,P|324:96|392:104,1,105.000004005432,2|4,0:0|0:3,0:0:0:0:
454,150,18567,1,0,0:0:0:0:
415,221,18802,2,0,P|419:280|422:328,2,105.000004005432,0|4|2,0:0|0:3|0:0,0:0:0:0:
304,164,20208,1,4,0:3:0:0:
228,264,20677,6,0,P|170:268|112:262,1,105.000004005432,4|4,3:2|0:3,0:0:0:0:
24,184,21614,2,0,P|20:126|26:68,1,105.000004005432,2|8,0:0|0:3,0:0:0:0:
93,41,22317,1,0,0:0:0:0:
160,83,22552,2,0,P|215:79|271:75,1,105.000004005432,0|0,0:0|0:0,0:0:0:0:
340,176,23489,2,0,P|284:172|229:168,1,105.000004005432,0|2,0:0|0:0,0:0:0:0:
172,280,24427,22,0,P|212:288|280:280,1,105.000004005432,4|4,3:2|0:3,0:0:0:0:
340,176,25364,2,0,P|335:121|332:68,1,105.000004005432,2|4,0:0|0:3,0:0:0:0:
263,33,26067,1,0,0:0:0:0:
203,85,26302,2,0,L|92:76,2,105.000004005432,2|4|2,0:0|0:3|0:0,0:0:0:0:
113,174,27708,1,4,0:3:0:0:
202,263,28177,6,0,P|260:267|318:261,1,105.000004005432,4|4,3:2|0:3,0:0:0:0:
417,203,29114,2,0,P|421:145|415:87,1,105.000004005432,2|4,0:0|0:3,0:0:0:0:
355,46,29817,1,0,0:0:0:0:
303,108,30052,2,0,P|250:103|198:100,2,105.000004005432,0|0|0,0:0|0:0|0:0,0:0:0:0:
380,280,31692,21,0,0:0:0:0:
320,339,31927,2,0,P|275:352|168:352,1,140,2|8,0:0|0:0,0:0:0:0:
63,235,32864,2,0,P|108:248|215:248,1,140,2|8,0:0|0:0,0:0:0:0:
272,205,33567,1,0,0:0:0:0:
331,145,33802,6,0,B|392:119|392:119|469:148,1,140,2|8,0:0|0:0,0:0:0:0:
496,220,34505,1,0,0:0:0:0:
436,279,34739,2,0,L|356:272,1,70,2|0,0:0|0:0,0:0:0:0:
306,332,35208,2,0,L|226:339,1,70,8|0,0:0|0:0,0:0:0:0:
176,278,35677,22,0,P|207:236|212:144,1,140,2|8,0:0|0:0,0:0:0:0:
92,36,36614,2,0,P|92:105|129:163,1,140,2|8,0:0|0:0,0:0:0:0:
213,150,37317,1,0,0:0:0:0:
292,123,37552,6,0,P|366:129|452:135,1,140,2|8,0:0|0:0,0:0:0:0:
491,193,38255,1,0,0:0:0:0:
448,264,38489,2,0,P|396:286|309:276,1,140,2|8,0:0|0:0,0:0:0:0:
252,224,39192,1,0,0:0:0:0:
192,283,39427,22,0,L|50:274,2,140,2|8|2,0:0|0:0|0:0,0:0:0:0:
256,340,40598,1,0,0:0:0:0:
314,278,40833,2,0,P|310:240|306:196,1,70,8|0,0:0|0:0,0:0:0:0:
247,148,41302,6,0,P|203:156|103:128,1,140,2|8,0:0|0:0,0:0:0:0:
48,76,42005,1,0,0:0:0:0:
116,28,42239,2,0,L|192:36,1,70,2|0,0:0|0:0,0:0:0:0:
268,60,42708,2,0,L|344:52,1,70,8|0,0:0|0:0,0:0:0:0:
412,96,43177,6,0,P|410:175|395:245,3,140,2|8|2|8,0:0|0:0|0:0|0:0,0:0:0:0:
284,360,45052,2,0,P|210:346|141:357,2,140,8|8|12,0:3|0:3|3:3,0:0:0:0:
324,320,46145,2,0,L|319:217,1,93.3333333333333,12|6,3:0|0:0,0:0:0:0:
368,64,46927,6,0,P|318:74|205:57,1,140,6|8,0:0|0:0,0:0:0:0:
148,44,47630,1,0,0:0:0:0:
84,100,47864,2,0,P|88:138|100:176,1,70,2|0,0:0|0:0,0:0:0:0:
140,240,48333,2,0,P|135:278|124:316,1,70,8|0,0:0|0:0,0:0:0:0:
186,368,48802,6,0,P|255:358|343:349,2,140,2|8|2,0:0|0:0|0:0,0:0:0:0:
126,308,49973,1,0,0:0:0:0:
200,268,50208,2,0,P|234:264|272:270,1,70,8|0,0:0|0:0,0:0:0:0:
348,236,50677,22,0,P|360:196|364:156,1,70,2|0,0:0|0:0,0:0:0:0:
340,88,51145,2,0,P|305:89|270:94,1,70,8|0,0:0|0:0,0:0:0:0:
224,164,51614,2,0,P|177:176|91:150,1,140,2|8,0:0|0:0,0:0:0:0:
28,96,52317,1,0,0:0:0:0:
4,176,52552,6,0,L|16:328,2,140,2|8|2,0:0|0:0|0:0,0:0:0:0:
28,96,53723,1,0,0:0:0:0:
100,53,53958,2,0,P|151:48|195:51,1,70,8|0,0:0|0:0,0:0:0:0:
229,108,54427,21,2,0:0:0:0:
288,48,54661,1,0,0:0:0:0:
347,107,54895,2,0,P|350:171|357:256,1,140,8|2,0:0|0:0,0:0:0:0:
415,306,55598,1,0,0:0:0:0:
340,344,55833,2,0,P|294:336|269:325,1,70,8|0,0:0|0:0,0:0:0:0:
213,267,56302,6,0,P|148:275|64:285,2,140,2|8|2,0:0|0:0|0:0,0:0:0:0:
272,207,57473,1,0,0:0:0:0:
212,147,57708,2,0,P|177:142|132:145,1,70,8|0,0:0|0:0,0:0:0:0:
142,59,58177,22,0,P|176:60|211:55,1,70,2|0,0:0|0:0,0:0:0:0:
284,12,58645,1,8,0:0:0:0:
352,60,58880,1,0,0:0:0:0:
428,24,59114,2,0,P|454:88|444:176,1,140,2|8,0:0|0:0,0:0:0:0:
400,224,59817,1,0,0:0:0:0:
328,178,60052,6,0,P|278:176|183:214,3,140,2|8|2|12,0:0|0:0|0:0|0:0,0:0:0:0:
321,317,61927,22,0,P|323:247|329:161,1,140,6|8,0:0|0:0,0:0:0:0:
387,117,62630,1,0,0:0:0:0:
328,56,62864,2,0,P|285:49|247:50,1,70,2|0,0:0|0:0,0:0:0:0:
181,82,63333,2,0,P|174:124|175:163,1,70,8|0,0:0|0:0,0:0:0:0:
134,225,63802,6,0,P|79:214|-7:264,2,140,2|8|2,0:0|0:0|0:0,0:0:0:0:
193,284,64973,1,0,0:0:0:0:
252,224,65208,2,0,P|284:226|328:232,1,70,8|0,0:0|0:0,0:0:0:0:
381,171,65677,22,0,L|379:91,1,70,2|0,0:0|0:0,0:0:0:0:
300,80,66145,2,0,L|298:149,1,70,8|0,0:0|0:0,0:0:0:0:
252,224,66614,2,0,P|197:226|104:191,1,140,2|8,0:0|0:0,0:0:0:0:
52,144,67317,1,0,0:0:0:0:
95,72,67552,6,0,P|160:47|229:47,2,140,2|8|2,0:0|0:0|0:0,0:0:0:0:
36,132,68723,1,0,0:0:0:0:
103,184,68958,2,0,P|101:222|95:260,1,70,8|0,0:0|0:0,0:0:0:0:
156,313,69427,21,2,0:0:0:0:
230,274,69661,1,0,0:0:0:0:
289,333,69895,2,0,L|430:321,1,140,8|2,0:0|0:0,0:0:0:0:
488,261,70598,1,0,0:0:0:0:
412,224,70833,2,0,P|395:187|391:157,1,70,8|0,0:0|0:0,0:0:0:0:
331,98,71302,6,0,P|283:123|193:98,2,140,2|8|2,0:0|0:0|0:0,0:0:0:0:
396,44,72473,1,0,0:0:0:0:
455,103,72708,2,0,L|452:176,1,70,8|0,0:0|0:0,0:0:0:0:
392,232,73177,22,0,P|354:224|317:228,1,70,2|0,0:0|0:0,0:0:0:0:
256,276,73645,1,8,0:0:0:0:
184,236,73880,1,0,0:0:0:0:
124,295,74114,2,0,P|77:302|24:224,1,140,2|8,0:0|0:0,0:0:0:0:
52,156,74817,1,0,0:0:0:0:
111,96,75052,6,0,L|265:106,3,140,2|8|2|12,0:0|0:0|0:0|0:0,0:0:0:0:
256,192,76927,12,2,78802,0:0:0:0:
105,325,82552,22,0,L|97:181,1,140,6|8,0:0|0:0,0:0:0:0:
217,69,83489,2,0,L|209:208,1,140,2|8,0:0|0:0,0:0:0:0:
268,268,84192,1,0,0:0:0:0:
327,208,84427,6,0,P|375:196|474:219,1,140,2|8,0:0|0:0,0:0:0:0:
372,72,85364,2,0,P|304:89|236:76,1,140,2|8,0:0|0:0,0:0:0:0:
160,40,86067,1,0,0:0:0:0:
100,99,86302,22,0,P|108:162|114:240,1,140,2|8,0:0|0:0,0:0:0:0:
228,360,87239,2,0,P|232:290|241:220,1,140,2|8,0:0|0:0,0:0:0:0:
287,150,87942,1,0,0:0:0:0:
346,209,88177,6,0,P|390:218|474:175,1,140,2|8,0:0|0:0,0:0:0:0:
420,336,89114,2,0,P|362:298|293:304,1,140,2|8,0:0|0:0,0:0:0:0:
228,360,89817,1,0,0:0:0:0:
168,300,90052,22,0,P|166:235|165:141,1,140,2|8,0:0|0:0,0:0:0:0:
300,64,90989,2,0,P|298:133|297:203,1,140,2|8,0:0|0:0,0:0:0:0:
356,263,91692,1,0,0:0:0:0:
296,322,91927,6,0,P|222:314|150:323,1,140,2|8,0:0|0:0,0:0:0:0:
79,353,92630,1,0,0:0:0:0:
36,280,92864,2,0,P|38:235|42:191,1,70,2|0,0:0|0:0,0:0:0:0:
110,163,93333,2,0,P|108:118|104:74,1,70,4|0,1:2|0:0,0:0:0:0:
165,33,93802,22,0,P|228:52|310:44,1,140,6|8,0:0|0:0,0:0:0:0:
420,165,94739,2,0,P|375:152|268:152,1,140,2|8,0:0|0:0,0:0:0:0:
222,209,95442,1,0,0:0:0:0:
281,268,95677,6,0,B|342:294|342:294|419:265,1,140,2|8,0:0|0:0,0:0:0:0:
482,223,96380,1,0,0:0:0:0:
420,165,96614,2,0,P|414:131|413:85,1,70,2|0,0:0|0:0,0:0:0:0:
360,32,97083,2,0,P|325:30|275:30,1,70,8|0,0:0|0:0,0:0:0:0:
216,73,97552,22,0,P|214:144|200:226,1,140,2|8,0:0|0:0,0:0:0:0:
312,340,98489,2,0,P|301:270|299:200,1,140,2|8,0:0|0:0,0:0:0:0:
358,141,99192,1,0,0:0:0:0:
417,200,99427,6,0,P|411:274|405:360,1,140,2|8,0:0|0:0,0:0:0:0:
324,356,100130,1,0,0:0:0:0:
264,296,100364,2,0,P|212:274|125:284,1,140,2|8,0:0|0:0,0:0:0:0:
56,324,101067,1,0,0:0:0:0:
32,244,101302,22,0,L|41:102,2,140,2|8|2,0:0|0:0|0:0,0:0:0:0:
56,324,102473,1,0,0:0:0:0:
130,281,102708,2,0,P|168:277|212:273,1,70,8|0,0:0|0:0,0:0:0:0:
259,214,103177,6,0,P|303:222|403:194,1,140,2|8,0:0|0:0,0:0:0:0:
453,139,103880,1,0,0:0:0:0:
393,79,104114,2,0,L|316:88,1,70,2|0,0:0|0:0,0:0:0:0:
248,124,104583,2,0,L|172:118,1,70,8|0,0:0|0:0,0:0:0:0:
93,118,105052,6,0,L|110:267,3,140,2|8|2|8,0:0|0:0|0:0|0:0,0:0:0:0:
252,344,106927,2,0,L|392:329,2,140,8|8|12,0:3|0:3|3:3,0:0:0:0:
212,304,108020,2,0,L|204:208,1,93.3333333333333,12|6,3:0|0:0,0:0:0:0:
232,44,108802,6,0,P|282:54|395:37,1,140,6|8,0:0|0:0,0:0:0:0:
448,16,109505,1,0,0:0:0:0:
488,88,109739,2,0,P|478:121|475:156,1,70,2|0,0:0|0:0,0:0:0:0:
424,224,110208,2,0,P|385:217|347:220,1,70,8|0,0:0|0:0,0:0:0:0:
295,278,110677,6,0,P|224:284|138:290,2,140,2|8|2,0:0|0:0|0:0,0:0:0:0:
354,218,111848,1,0,0:0:0:0:
294,158,112083,2,0,P|290:124|296:86,1,70,8|0,0:0|0:0,0:0:0:0:
235,29,112552,22,0,P|198:28|161:30,1,70,2|0,0:0|0:0,0:0:0:0:
94,75,113020,2,0,P|92:109|93:144,1,70,8|0,0:0|0:0,0:0:0:0:
132,220,113489,2,0,P|179:208|265:234,1,140,2|8,0:0|0:0,0:0:0:0:
312,304,114192,1,0,0:0:0:0:
372,244,114427,6,0,L|384:96,2,140,2|8|2,0:0|0:0|0:0,0:0:0:0:
312,304,115598,1,0,0:0:0:0:
240,348,115833,2,0,P|196:340|148:332,1,70,8|0,0:0|0:0,0:0:0:0:
96,300,116302,21,2,0:0:0:0:
152,240,116536,1,0,0:0:0:0:
80,200,116770,2,0,P|76:135|70:51,1,140,8|2,0:0|0:0,0:0:0:0:
140,16,117473,1,0,0:0:0:0:
204,72,117708,2,0,P|250:64|275:53,1,70,8|0,0:0|0:0,0:0:0:0:
348,21,118177,6,0,P|412:30|497:39,2,140,2|8|2,0:0|0:0|0:0,0:0:0:0:
271,54,119348,1,0,0:0:0:0:
324,120,119583,2,0,P|329:155|326:200,1,70,8|0,0:0|0:0,0:0:0:0:
289,264,120052,22,0,P|254:262|219:267,1,70,2|0,0:0|0:0,0:0:0:0:
160,324,120520,1,8,0:0:0:0:
100,264,120755,1,0,0:0:0:0:
159,204,120989,2,0,L|142:46,1,140,2|8,0:0|0:0,0:0:0:0:
219,27,121692,1,0,0:0:0:0:
278,86,121927,6,0,P|328:88|423:50,3,140,2|8|2|12,0:0|0:0|0:0|0:0,0:0:0:0:
496,203,123802,22,0,P|427:200|340:195,1,140,6|8,0:0|0:0,0:0:0:0:
285,242,124505,1,0,0:0:0:0:
344,301,124739,2,0,P|386:307|425:307,1,70,2|0,0:0|0:0,0:0:0:0:
489,272,125208,2,0,P|495:229|495:191,1,70,8|0,0:0|0:0,0:0:0:0:
435,142,125677,6,0,P|384:143|285:115,2,140,2|8|2,0:0|0:0|0:0,0:0:0:0:
500,88,126848,1,0,0:0:0:0:
440,32,127083,2,0,P|408:34|364:40,1,70,8|0,0:0|0:0,0:0:0:0:
288,40,127552,22,0,L|208:32,1,70,2|0,0:0|0:0,0:0:0:0:
156,88,128020,2,0,L|76:96,1,70,8|0,0:0|0:0,0:0:0:0:
39,164,128489,2,0,P|51:241|57:325,1,140,2|8,0:0|0:0,0:0:0:0:
129,344,129192,1,0,0:0:0:0:
188,284,129427,6,0,P|255:274|330:298,2,140,2|8|2,0:0|0:0|0:0,0:0:0:0:
129,344,130598,1,0,0:0:0:0:
56,302,130833,2,0,P|57:263|64:226,1,70,8|0,0:0|0:0,0:0:0:0:
121,172,131302,21,2,0:0:0:0:
180,112,131536,1,0,0:0:0:0:
239,171,131770,2,0,P|300:185|382:176,1,140,8|2,0:0|0:0,0:0:0:0:
440,120,132473,1,0,0:0:0:0:
494,184,132708,2,0,L|501:260,1,70,8|0,0:0|0:0,0:0:0:0:
440,313,133177,6,0,P|363:330|292:284,2,140,2|8|2,0:0|0:0|0:0,0:0:0:0:
500,253,134348,1,0,0:0:0:0:
440,193,134583,2,0,L|443:120,1,70,8|0,0:0|0:0,0:0:0:0:
383,63,135052,22,0,P|348:65|314:57,1,70,2|0,0:0|0:0,0:0:0:0:
239,19,135520,1,8,0:0:0:0:
179,78,135755,1,0,0:0:0:0:
232,144,135989,2,0,P|239:191|218:301,1,140,2|8,0:0|0:0,0:0:0:0:
160,332,136692,1,0,0:0:0:0:
100,272,136927,6,0,P|86:203|93:134,3,140,2|8|2|12,0:0|0:0|0:0|0:0,0:0:0:0:
240,48,138802,5,6,0:0:0:0:
256,192,138919,12,0,146302,0:0:0:0:
84,56,153802,6,0,L|232:48,1,140,6|8,0:0|3:0,0:0:0:0:
360,144,154739,2,0,L|272:140,1,70,8|0,3:0|3:0,0:0:0:0:
230,200,155208,2,0,L|234:288,1,70,8|0,3:0|3:0,0:0:0:0:
292,329,155677,6,0,P|348:338|440:320,1,140,8|8,3:3|3:3,0:0:0:0:
504,176,156614,2,0,P|435:162|366:171,1,140,8|8,3:3|3:3,0:0:0:0:
233,269,157552,22,0,L|93:257,1,140,6|8,0:0|3:0,0:0:0:0:
60,92,158489,2,0,L|136:104,1,70,8|0,3:0|3:0,0:0:0:0:
204,140,158958,2,0,L|280:128,1,70,8|0,3:0|3:0,0:0:0:0:
332,69,159427,6,0,P|385:58|481:90,1,140,8|8,3:0|3:0,0:0:0:0:
384,224,160364,2,0,P|331:213|235:245,1,140,8|8,3:0|3:0,0:0:0:0:
130,354,161302,22,0,P|122:292|104:116,1,210,6|0,3:2|3:0,0:0:0:0:
166,85,162239,2,0,P|261:131|374:88,1,210,2|0,3:2|3:0,0:0:0:0:
416,43,163177,6,0,P|377:86|427:228,1,210,6|0,3:2|0:0,0:0:0:0:
488,256,164114,1,6,3:2:0:0:
428,315,164348,2,0,P|394:317|358:308,1,70,0|8,3:0|3:0,0:0:0:0:
300,248,164817,1,0,3:0:0:0:
244,312,165052,22,0,P|204:312|154:305,1,70,6|0,3:2|3:0,0:0:0:0:
96,280,165520,2,0,P|95:240|103:190,1,70,2|0,3:2|3:0,0:0:0:0:
156,148,165989,2,0,P|156:108|149:58,1,70,6|0,3:2|3:0,0:0:0:0:
222,30,166458,2,0,P|261:30|312:23,1,70,2|0,3:2|3:0,0:0:0:0:
351,86,166927,21,6,3:2:0:0:
336,158,172552,6,0,P|348:198|352:238,1,70,6|0,0:0|0:0,0:0:0:0:
316,302,173020,2,0,P|281:301|246:296,1,70,8|0,0:0|0:0,0:0:0:0:
186,236,173489,2,0,P|139:224|53:250,1,140,2|8,0:0|0:0,0:0:0:0:
16,324,174192,1,0,0:0:0:0:
92,359,174427,6,0,L|244:347,2,140,2|8|2,0:0|0:0|0:0,0:0:0:0:
16,324,175598,1,0,0:0:0:0:
75,264,175833,2,0,P|80:213|77:169,1,70,8|0,0:0|0:0,0:0:0:0:
63,111,176302,21,2,0:0:0:0:
122,51,176536,1,0,0:0:0:0:
181,110,176770,2,0,P|245:107|330:100,1,140,8|2,0:0|0:0,0:0:0:0:
396,65,177473,1,0,0:0:0:0:
396,148,177708,2,0,P|404:194|415:219,1,70,8|0,0:0|0:0,0:0:0:0:
370,287,178177,6,0,P|305:279|221:269,2,140,2|8|2,0:0|0:0|0:0,0:0:0:0:
413,215,179348,1,0,0:0:0:0:
338,175,179583,2,0,P|303:180|258:177,1,70,8|0,0:0|0:0,0:0:0:0:
208,119,180052,22,0,P|207:85|212:50,1,70,2|0,0:0|0:0,0:0:0:0:
288,12,180520,1,8,0:0:0:0:
372,24,180755,1,0,0:0:0:0:
436,76,180989,2,0,P|462:140|452:228,1,140,2|8,0:0|0:0,0:0:0:0:
416,280,181692,1,0,0:0:0:0:
348,328,181927,6,0,P|298:330|203:292,3,140,2|8|2|12,0:0|0:0|0:0|0:0,0:0:0:0:
96,184,183802,22,0,P|98:114|104:28,1,140,6|8,0:0|0:0,0:0:0:0:
184,20,184505,1,0,0:0:0:0:
240,80,184739,2,0,P|274:83|322:73,1,70,2|0,0:0|0:0,0:0:0:0:
384,40,185208,2,0,P|418:37|466:47,1,70,8|0,0:0|0:0,0:0:0:0:
496,114,185677,6,0,L|476:254,2,140,2|8|2,0:0|0:0|0:0,0:0:0:0:
453,42,186848,1,0,0:0:0:0:
388,96,187083,2,0,P|390:128|396:172,1,70,8|0,0:0|0:0,0:0:0:0:
335,225,187552,22,0,L|333:305,1,70,2|0,0:0|0:0,0:0:0:0:
252,315,188020,2,0,L|250:246,1,70,8|0,0:0|0:0,0:0:0:0:
190,185,188489,2,0,P|135:187|42:152,1,140,2|8,0:0|0:0,0:0:0:0:
8,92,189192,1,0,0:0:0:0:
67,32,189427,6,0,L|220:46,2,140,2|8|2,0:0|0:0|0:0,0:0:0:0:
8,92,190598,1,0,0:0:0:0:
55,160,190833,2,0,P|62:201|63:236,1,70,8|0,0:0|0:0,0:0:0:0:
68,312,191302,21,2,0:0:0:0:
136,360,191536,1,0,0:0:0:0:
195,300,191770,2,0,L|336:312,1,140,8|2,0:0|0:0,0:0:0:0:
394,252,192473,1,0,0:0:0:0:
334,192,192708,2,0,P|330:152|334:123,1,70,8|0,0:0|0:0,0:0:0:0:
274,63,193177,6,0,P|226:88|136:63,2,140,2|8|2,0:0|0:0|0:0,0:0:0:0:
344,18,194348,1,0,0:0:0:0:
403,77,194583,2,0,L|400:150,1,70,8|0,0:0|0:0,0:0:0:0:
340,206,195052,22,0,P|300:202|265:202,1,70,2|0,0:0|0:0,0:0:0:0:
200,248,195520,1,8,0:0:0:0:
126,207,195755,1,0,0:0:0:0:
64,264,195989,2,0,P|84:320|172:352,1,140,2|8,0:0|0:0,0:0:0:0:
236,348,196692,1,0,0:0:0:0:
313,314,196927,6,0,P|307:244|301:169,1,140,2|8,0:0|0:0,0:0:0:0:
420,55,197864,2,0,P|414:124|408:194,1,140,2|12,0:0|0:0,0:0:0:0:
296,68,198802,5,2,0:0:0:0:
256,192,198919,12,0,200677,0:0:0:0:
