osu file format v14

[General]
AudioFilename: audio.mp3
AudioLeadIn: 0
PreviewTime: 78926
Countdown: 0
SampleSet: Soft
StackLeniency: 0.7
Mode: 0
LetterboxInBreaks: 0
WidescreenStoryboard: 0

[Editor]
Bookmarks: 11338,22632,33926,39573,45220,55808,56514,67808,79102,90396,101691,112985,124279
DistanceSpacing: 2
BeatDivisor: 4
GridSize: 4
TimelineZoom: 2.3

[Metadata]
Title:Dragonfly Keeper
TitleUnicode:Dragonfly Keeper
Artist:Phildel
ArtistUnicode:Phildel
Creator:Chocobo
Version:Fly
Source:
Tags:
BeatmapID:1102059
BeatmapSetID:518699

[Difficulty]
HPDrainRate:5
CircleSize:4
OverallDifficulty:8
ApproachRate:9
SliderMultiplier:1.5
SliderTickRate:1

[Events]
//Background and Video events
0,0,"50358626_p1.png",0,0
//Break Periods
//Storyboard Layer 0 (Background)
//Storyboard Layer 1 (Fail)
//Storyboard Layer 2 (Pass)
//Storyboard Layer 3 (Foreground)
//Storyboard Sound Samples

[TimingPoints]
44,705.882352941176,4,2,1,50,1,0
16632,-100,4,2,1,50,0,0
16808,-100,4,2,1,50,0,0
22632,-83.3333333333333,4,2,1,50,0,0
33926,-71.4285714285714,4,2,1,50,0,0
56514,-50,4,2,1,50,0,0
99220,-50,4,2,1,40,0,0
99573,-50,4,2,1,30,0,0
99926,-50,4,2,1,20,0,0
100279,-50,4,2,1,15,0,0
101691,-100,4,2,1,50,0,0
103808,681.818181818181,4,2,1,50,1,0
106646,705.882352941176,4,2,1,50,1,0
112808,-200,4,2,1,50,0,0
115822,-200,4,2,1,40,0,0
118646,-200,4,2,1,30,0,0
121293,-200,4,2,1,20,0,0
122881,-200,4,2,1,15,0,0

[Colours]
Combo1 : 98,255,255
Combo2 : 255,168,168
Combo3 : 255,255,91
Combo4 : 117,255,117

[HitObjects]
40,148,44,5,0,0:0:0:0:
104,72,220,1,0,0:0:0:0:
188,52,396,1,0,0:0:0:0:
284,88,573,1,0,0:0:0:0:
360,176,749,2,0,L|336:224,1,37.5
176,196,1102,2,0,L|240:172,1,37.5
408,64,1455,5,0,0:0:0:0:
416,164,1632,1,0,0:0:0:0:
368,248,1808,1,0,0:0:0:0:
272,292,1985,1,0,0:0:0:0:
120,200,2161,2,0,L|180:224,1,37.5
300,116,2514,2,0,B|256:132|256:132,1,37.5
22,153,2867,5,0,0:0:0:0:
128,76,3043,1,0,0:0:0:0:
264,128,3220,1,0,0:0:0:0:
154,213,3396,1,0,0:0:0:0:
204,72,3573,2,0,L|264:52,1,37.5
408,92,3926,5,0,0:0:0:0:
380,152,4102,1,0,0:0:0:0:
252,232,4279,1,0,0:0:0:0:
284,176,4455,1,0,0:0:0:0:
120,200,4632,1,0,0:0:0:0:
68,232,4808,1,0,0:0:0:0:
128,80,4985,2,0,L|168:56,1,37.5
380,80,5338,2,0,B|328:120,1,37.5
76,212,5691,6,0,L|116:240,1,37.5
132,84,6043,2,0,L|144:140,1,37.5
272,184,6396,2,0,L|216:200,1,37.5
71,245,6749,2,0,L|131:225,1,37.5
200,320,7102,6,0,L|180:260,1,37.5
208,92,7455,2,0,L|224:148,1,37.5
356,216,7808,2,0,L|332:160,1,37.5
416,72,8161,2,0,L|436:120,1,37.5
344,320,8514,5,0,0:0:0:0:
76,192,8867,1,0,0:0:0:0:
308,16,9220,1,0,0:0:0:0:
256,192,9573,5,0,0:0:0:0:
288,216,9749,1,0,0:0:0:0:
396,136,9926,1,0,0:0:0:0:
452,152,10102,1,0,0:0:0:0:
288,32,10279,2,0,L|240:56,1,37.5
36,168,10632,1,0,0:0:0:0:
112,24,10808,1,0,0:0:0:0:
112,24,10897,1,0,0:0:0:0:
112,24,10985,1,0,0:0:0:0:
192,176,11161,1,0,0:0:0:0:
68,44,11338,6,0,L|116:20,1,37.5
292,136,11691,2,0,L|248:156,1,37.5
16,168,12043,2,0,L|76:136,1,37.5
224,292,12396,2,0,L|180:316,1,37.5
268,96,12749,5,0,0:0:0:0:
364,296,12926,1,0,0:0:0:0:
420,80,13102,2,0,L|448:144,1,37.5
288,288,13455,1,0,0:0:0:0:
200,80,13632,1,0,0:0:0:0:
432,188,13808,2,0,L|384:216,1,37.5
176,268,14161,5,0,0:0:0:0:
108,80,14338,1,0,0:0:0:0:
300,112,14514,2,0,L|252:160,1,37.5
448,44,14867,1,0,0:0:0:0:
428,120,15043,1,0,0:0:0:0:
200,96,15220,2,0,L|248:80,1,37.5
356,276,15573,6,0,L|328:236,1,37.5
380,84,15926,2,0,L|384:144,1,37.5
208,200,16279,2,0,L|236:148,1,37.5
256,328,16632,2,0,L|216:344,1,37.5
96,324,16985,5,0,0:0:0:0:
64,208,17161,1,0,0:0:0:0:
180,108,17338,2,0,L|173:144,1,37.5
368,168,17691,5,0,0:0:0:0:
268,220,17867,1,0,0:0:0:0:
296,76,18043,2,0,L|340:48,1,37.5
420,56,18396,5,0,0:0:0:0:
372,160,18573,1,0,0:0:0:0:
236,224,18749,2,0,L|264:168,1,37.5
52,152,19102,5,0,0:0:0:0:
168,112,19279,1,0,0:0:0:0:
292,172,19455,2,0,L|232:200,1,37.5
80,284,19808,5,0,0:0:0:0:
136,176,19985,1,0,0:0:0:0:
258,187,20161,1,0,0:0:0:0:
316,76,20337,1,0,0:0:0:0:
196,72,20514,1,0,0:0:0:0:
240,232,20691,1,0,0:0:0:0:
404,192,20867,1,0,0:0:0:0:
352,32,21044,1,0,0:0:0:0:
184,84,21220,6,0,L|248:112,1,37.5
224,168,21573,1,0,0:0:0:0:
276,196,21749,1,0,0:0:0:0:
292,312,21926,2,0,L|232:276,1,37.5
192,308,22279,1,0,0:0:0:0:
136,280,22455,1,0,0:0:0:0:
72,108,22632,6,0,B|132:88|132:88|164:108,1,89.9999972534181
304,204,23338,1,0,0:0:0:0:
116,300,23691,1,0,0:0:0:0:
288,40,24043,6,0,B|248:96|248:96|216:96,1,89.9999972534181
8,68,24749,1,0,0:0:0:0:
144,260,25102,1,0,0:0:0:0:
344,128,25455,6,0,P|400:120|428:144,1,89.9999972534181
400,320,26161,1,0,0:0:0:0:
248,208,26514,1,0,0:0:0:0:
408,120,26867,6,0,B|360:88|360:88|352:44,1,89.9999972534181
500,20,27573,1,0,0:0:0:0:
300,180,27926,1,0,0:0:0:0:
68,140,28279,6,0,P|100:88|136:80,1,89.9999972534181
156,168,28808,1,0,0:0:0:0:
224,76,28985,2,0,B|280:72|276:72,1,44.999998626709
404,60,29338,2,0,L|376:128,1,44.999998626709
260,228,29691,6,0,L|380:196,1,89.9999972534181
328,328,30220,1,0,0:0:0:0:
224,264,30396,2,0,B|268:220|268:220|248:212,1,44.999998626709
264,60,30749,2,0,L|220:104,1,44.999998626709
124,204,31102,5,0,0:0:0:0:
68,264,31279,1,0,0:0:0:0:
104,360,31455,2,0,L|156:296,1,44.999998626709
216,232,31808,1,0,0:0:0:0:
256,316,31985,1,0,0:0:0:0:
320,240,32161,2,0,L|352:196,1,44.999998626709
412,112,32514,5,0,0:0:0:0:
264,264,32691,1,0,0:0:0:0:
208,68,32867,1,0,0:0:0:0:
392,232,33043,1,0,0:0:0:0:
184,244,33220,2,0,P|216:196|252:184,1,89.9999972534181
336,64,33926,6,0,B|392:108|392:108|392:184,1,104.999996795654
376,240,34455,1,0,0:0:0:0:
328,320,34632,2,0,B|260:340|260:340|208:316|208:316,1,104.999996795654
116,196,35338,6,0,B|192:216|192:216|220:256,1,104.999996795654
112,296,35867,1,0,0:0:0:0:
280,216,36043,2,0,B|300:240|300:240|392:240,1,104.999996795654
468,368,36749,6,0,B|392:336|392:336|344:344,1,104.999996795654
260,348,37279,1,0,0:0:0:0:
156,352,37455,2,0,P|104:344|72:304,1,104.999996795654
192,176,38161,6,0,B|184:220|184:220|144:280,1,104.999996795654
84,160,38691,1,0,0:0:0:0:
200,56,38867,2,0,B|232:52|232:52|304:96,1,104.999996795654
384,300,39573,6,0,B|284:256|284:256|224:280|224:280|168:256|168:256|172:176|172:176,1,314.999990386963
268,95,40808,1,0,0:0:0:0:
348,119,40985,2,0,P|292:175|260:175,1,104.999996795654
172,175,41514,1,0,0:0:0:0:
64,120,41691,2,0,L|136:132,1,52.4999983978272
200,284,42043,2,0,L|156:236,1,52.4999983978272
267,101,42396,6,0,L|223:149,3,52.4999983978272
144,240,43102,1,0,0:0:0:0:
108,284,43279,1,0,0:0:0:0:
304,240,43455,1,0,0:0:0:0:
288,296,43632,1,0,0:0:0:0:
416,92,43808,5,0,0:0:0:0:
440,152,43985,1,0,0:0:0:0:
376,296,44161,2,0,L|352:240,1,52.4999983978272
304,88,44514,1,0,0:0:0:0:
276,148,44691,1,0,0:0:0:0:
104,168,44867,2,0,L|136:120,1,52.4999983978272
448,96,45220,6,0,B|396:180|396:180|332:168|332:168|296:220,1,209.999993591309
168,360,46279,1,0,0:0:0:0:
24,200,46632,6,0,B|88:152|88:152|68:84|68:84|168:80,1,209.999993591309
416,72,47691,1,0,0:0:0:0:
316,336,48043,6,0,P|220:344|176:244,1,209.999993591309
256,276,49102,1,0,0:0:0:0:
328,44,49455,6,0,B|380:144|328:172|328:172|380:216,1,209.999993591309
508,384,50514,1,0,0:0:0:0:
296,384,50867,6,0,B|220:368|220:368|188:320,1,104.999996795654
88,176,51573,1,0,0:0:0:0:
268,112,51926,2,0,B|364:152|364:152|404:132,1,104.999996795654
256,264,52632,1,0,0:0:0:0:
408,88,52985,2,0,P|440:152|420:204,1,104.999996795654
160,240,53691,5,0,0:0:0:0:
232,196,53867,1,0,0:0:0:0:
364,172,54043,2,0,L|324:232,1,52.4999983978272
268,308,54396,1,0,0:0:0:0:
292,100,54573,1,0,0:0:0:0:
456,232,54749,1,0,0:0:0:0:
220,192,54926,1,0,0:0:0:0:
364,20,55102,1,10,0:0:0:0:
464,20,55808,6,0,P|460:76|396:108,1,104.999996795654
44,116,56514,2,0,B|140:84|140:84|196:108,1,150
120,192,57043,1,0,0:0:0:0:
184,268,57220,2,0,B|264:312|264:312|344:248,1,150
428,172,57749,1,0,0:0:0:0:
408,16,57926,6,0,B|364:92|364:92|284:128,1,150
120,168,58455,1,0,0:0:0:0:
68,112,58632,2,0,P|148:92|196:148,1,150
296,352,59338,6,0,B|412:336|412:336|440:296,1,150
472,200,59867,1,0,0:0:0:0:
456,56,60043,2,0,B|408:64|408:64|360:164,1,150
304,288,60573,1,0,0:0:0:0:
168,216,60749,2,0,L|276:196,1,75
332,28,61102,2,0,L|252:96,1,75
432,252,61455,1,0,0:0:0:0:
368,176,61632,1,0,0:0:0:0:
204,40,61808,2,0,P|228:128|252:132,1,75
476,32,62161,5,0,0:0:0:0:
400,108,62338,1,0,0:0:0:0:
152,152,62514,2,0,P|208:108|212:108,1,75
344,352,62867,1,0,0:0:0:0:
300,244,63043,1,0,0:0:0:0:
352,48,63220,2,0,P|396:116|392:128,1,75
80,240,63573,5,0,0:0:0:0:
168,128,63749,1,0,0:0:0:0:
316,116,63926,1,0,0:0:0:0:
224,228,64102,1,0,0:0:0:0:
36,32,64279,2,0,L|136:52,1,75
224,228,64632,2,0,L|140:152,1,75
252,52,64985,5,0,0:0:0:0:
472,296,65338,1,0,0:0:0:0:
144,352,65691,1,0,0:0:0:0:
320,104,66043,1,0,0:0:0:0:
384,72,66220,1,0,0:0:0:0:
336,264,66396,5,0,0:0:0:0:
316,328,66573,1,0,0:0:0:0:
144,164,66749,1,0,0:0:0:0:
200,168,66926,1,0,0:0:0:0:
384,200,67102,2,0,P|416:248|408:288,1,75
224,64,67455,2,0,L|300:36,1,75
496,72,67808,5,0,0:0:0:0:
416,132,67985,1,0,0:0:0:0:
288,112,68161,1,0,0:0:0:0:
184,156,68338,1,0,0:0:0:0:
24,20,68514,2,0,L|112:72,1,75
92,264,68867,2,0,L|48:176,1,75
251,123,69220,6,0,L|151:171,1,75
112,336,69573,2,0,L|212:288,1,75
308,244,69926,1,0,0:0:0:0:
436,180,70102,1,0,0:0:0:0:
332,92,70279,1,0,0:0:0:0:
460,36,70455,1,0,0:0:0:0:
72,92,70632,6,0,B|172:96|172:96|216:128,1,150
344,244,71161,1,0,0:0:0:0:
496,168,71338,2,0,B|444:168|444:168|368:96,1,150
240,12,71867,1,0,0:0:0:0:
64,80,72043,6,0,B|112:80|112:80|196:152,1,150
336,296,72573,1,0,0:0:0:0:
120,200,72749,2,0,P|208:236|208:236,1,75
412,72,73102,2,0,L|312:100,1,75
92,76,73455,5,0,0:0:0:0:
160,64,73632,1,0,0:0:0:0:
236,124,73808,1,0,0:0:0:0:
164,136,73985,1,0,0:0:0:0:
268,48,74161,1,0,0:0:0:0:
364,160,74338,1,0,0:0:0:0:
256,248,74514,1,0,0:0:0:0:
160,140,74691,1,0,0:0:0:0:
416,220,74867,6,0,L|336:252,1,75
208,64,75220,2,0,L|300:88,1,75
456,124,75573,1,0,0:0:0:0:
188,236,75749,1,0,0:0:0:0:
396,28,75925,1,0,0:0:0:0:
288,276,76102,1,0,0:0:0:0:
156,136,76279,6,0,L|248:176,1,75
392,24,76632,2,0,L|324:96,1,75
368,296,76985,1,0,0:0:0:0:
372,216,77161,1,0,0:0:0:0:
96,264,77338,1,0,0:0:0:0:
152,304,77514,1,0,0:0:0:0:
228,112,77691,6,0,L|188:200,1,75
248,324,78043,1,0,0:0:0:0:
360,212,78220,1,0,0:0:0:0:
396,48,78396,2,0,L|252:84,1,75
196,180,78749,1,0,0:0:0:0:
308,208,78926,1,0,0:0:0:0:
456,128,79102,5,0,0:0:0:0:
356,80,79279,1,0,0:0:0:0:
240,80,79455,1,0,0:0:0:0:
140,144,79632,1,0,0:0:0:0:
128,296,79808,2,0,B|200:232|200:232|260:232,1,150
308,316,80338,1,0,0:0:0:0:
208,328,80514,5,0,0:0:0:0:
252,228,80691,1,0,0:0:0:0:
348,172,80867,1,0,0:0:0:0:
472,184,81043,1,0,0:0:0:0:
272,36,81220,2,0,B|304:72|304:72|424:100,1,150
344,8,81749,1,0,0:0:0:0:
272,136,81926,6,0,L|220:220,1,75
116,204,82279,1,0,0:0:0:0:
52,300,82455,1,0,0:0:0:0:
36,100,82632,2,0,L|124:80,1,75
212,164,82985,1,0,0:0:0:0:
320,140,83161,1,0,0:0:0:0:
280,248,83338,5,0,0:0:0:0:
320,56,83514,1,0,0:0:0:0:
456,192,83691,1,0,0:0:0:0:
212,132,83867,1,0,0:0:0:0:
408,32,84043,1,0,0:0:0:0:
400,272,84220,1,0,0:0:0:0:
256,56,84396,1,0,0:0:0:0:
488,144,84573,1,0,0:0:0:0:
152,292,84749,5,0,0:0:0:0:
336,28,84926,1,0,0:0:0:0:
116,196,85102,1,0,0:0:0:0:
368,128,85279,1,0,0:0:0:0:
256,352,85455,2,0,B|284:308|284:308|384:272,1,150
456,48,86161,5,0,0:0:0:0:
136,204,86338,1,0,0:0:0:0:
356,36,86514,1,0,0:0:0:0:
252,224,86691,1,0,0:0:0:0:
504,76,86867,2,0,B|456:84|456:84|404:180,1,150
88,328,87573,5,0,0:0:0:0:
188,36,87749,1,0,0:0:0:0:
292,336,87926,1,0,0:0:0:0:
28,152,88102,1,0,0:0:0:0:
356,152,88279,2,0,B|304:168|304:168|176:120,1,150
448,36,88985,5,0,0:0:0:0:
336,384,89161,1,0,0:0:0:0:
228,36,89338,1,0,0:0:0:0:
512,276,89514,1,0,0:0:0:0:
160,260,89691,1,0,0:0:0:0:
484,40,90396,5,0,0:0:0:0:
472,88,90573,1,0,0:0:0:0:
340,84,90749,1,0,0:0:0:0:
400,40,90926,1,0,0:0:0:0:
296,228,91102,1,0,0:0:0:0:
176,112,91279,1,0,0:0:0:0:
296,0,91455,1,0,0:0:0:0:
408,112,91632,1,0,0:0:0:0:
60,88,91808,5,0,0:0:0:0:
408,112,91985,1,0,0:0:0:0:
124,128,92161,1,0,0:0:0:0:
448,212,92338,1,0,0:0:0:0:
48,160,92514,2,0,P|72:68|116:44,1,150
356,292,93220,5,0,0:0:0:0:
292,320,93396,1,0,0:0:0:0:
124,128,93573,1,0,0:0:0:0:
184,148,93749,1,0,0:0:0:0:
96,376,93926,1,0,0:0:0:0:
116,328,94102,1,0,0:0:0:0:
232,288,94279,1,0,0:0:0:0:
276,232,94455,1,0,0:0:0:0:
388,64,94632,5,0,0:0:0:0:
424,136,94808,1,0,0:0:0:0:
412,216,94985,1,0,0:0:0:0:
456,288,95161,1,0,0:0:0:0:
368,296,95338,1,0,0:0:0:0:
308,340,95515,1,0,0:0:0:0:
232,308,95691,1,0,0:0:0:0:
160,336,95867,1,0,0:0:0:0:
36,148,96043,6,0,B|96:240|96:240|96:236,1,75
168,260,96396,1,0,0:0:0:0:
292,288,96573,1,0,0:0:0:0:
428,240,96749,2,0,B|316:208|320:208,3,75
232,132,97455,2,0,B|288:92|288:92|396:100|396:96,1,150
308,176,97985,1,0,0:0:0:0:
156,212,98161,2,0,P|116:144|148:72,1,150
404,0,98867,5,0,0:0:0:0:
436,124,99043,1,0,0:0:0:0:
396,208,99220,1,0,0:0:0:0:
424,284,99396,1,0,0:0:0:0:
340,264,99573,1,0,0:0:0:0:
264,280,99749,1,0,0:0:0:0:
224,300,99926,1,0,0:0:0:0:
200,312,100102,1,0,0:0:0:0:
184,320,100279,1,2,0:0:0:0:
256,196,101691,5,0,0:0:0:0:
168,288,102396,5,0,0:0:0:0:
80,340,102749,2,0,L|40:364,1,37.5
40,280,103102,1,0,0:0:0:0:
104,268,103279,1,0,0:0:0:0:
136,208,103455,1,0,0:0:0:0:
232,196,103808,5,0,0:0:0:0:
304,168,103978,1,0,0:0:0:0:
356,224,104148,2,0,L|340:272,1,37.5
376,320,104660,1,0,0:0:0:0:
316,352,104830,1,0,0:0:0:0:
216,324,105171,5,0,0:0:0:0:
160,280,105342,1,0,0:0:0:0:
84,288,105512,1,0,0:0:0:0:
32,240,105683,1,0,0:0:0:0:
256,196,106646,5,0,0:0:0:0:
256,196,107351,5,0,0:0:0:0:
388,104,108057,5,0,0:0:0:0:
436,192,108410,2,0,L|408:260,1,37.5
340,292,108763,1,0,0:0:0:0:
272,304,108940,1,0,0:0:0:0:
228,356,109116,1,0,0:0:0:0:
208,224,109469,5,0,0:0:0:0:
248,160,109646,1,0,0:0:0:0:
328,144,109822,2,0,L|348:100,1,37.5
448,64,110351,1,0,0:0:0:0:
420,128,110527,1,0,0:0:0:0:
448,240,110881,5,0,0:0:0:0:
416,312,111058,1,0,0:0:0:0:
368,248,111234,1,0,0:0:0:0:
304,288,111410,2,0,B|264:308|264:308|228:204|144:256,1,187.5
96,300,112998,6,0,B|52:248|96:196|96:196|60:168,1,150
376,60,115822,6,0,B|304:96|304:96|232:92|232:92,1,150
196,196,118646,6,0,B|224:276|224:276|276:224,1,150
416,88,121351,5,0,0:0:0:0:
256,192,122881,5,0,0:0:0:0:
