osu file format v14

[General]
AudioFilename: audio.mp3
AudioLeadIn: 0
PreviewTime: 78926
Countdown: 0
SampleSet: Soft
StackLeniency: 0.7
Mode: 0
LetterboxInBreaks: 0
WidescreenStoryboard: 1

[Editor]
Bookmarks: 11338,22632,33926,39573,45220,55808,56514,67808,79102,90396,101691,112985,124279
DistanceSpacing: 1
BeatDivisor: 4
GridSize: 4
TimelineZoom: 1.5

[Metadata]
Title:Dragonfly Keeper
TitleUnicode:Dragonfly Keeper
Artist:Phildel
ArtistUnicode:Phildel
Creator:Chocobo
Version:Beginner
Source:
Tags:
BeatmapID:1103278
BeatmapSetID:518699

[Difficulty]
HPDrainRate:1
CircleSize:2
OverallDifficulty:2
ApproachRate:3
SliderMultiplier:1
SliderTickRate:1

[Events]
//Background and Video events
0,0,"50358626_p1.png",0,0
//Break Periods
//Storyboard Layer 0 (Background)
//Storyboard Layer 1 (Fail)
//Storyboard Layer 2 (Pass)
//Storyboard Layer 3 (Foreground)
//Storyboard Sound Samples

[TimingPoints]
44,705.882352941176,4,2,0,50,1,0
56514,-100,4,2,0,50,0,0
101691,-100,4,2,0,50,0,0
103808,681.818181818181,4,2,0,50,1,0
106646,705.882352941176,4,2,0,50,1,0

[Colours]
Combo1 : 98,255,255
Combo2 : 255,168,168
Combo3 : 255,255,91
Combo4 : 117,255,117

[HitObjects]
256,192,44,5,0,0:0:0:0:
256,192,1455,5,0,0:0:0:0:
256,192,2867,5,0,0:0:0:0:
256,192,4279,5,0,0:0:0:0:
144,168,5691,6,0,L|256:140,1,100
340,128,7102,2,0,L|300:248,1,100
248,312,8514,2,0,L|192:192,1,100
160,132,9926,1,0,0:0:0:0:
264,136,10632,1,0,0:0:0:0:
352,180,11338,6,0,L|460:248,1,100
460,332,12749,2,0,L|344:308,1,100
268,276,14161,1,0,0:0:0:0:
240,180,14867,1,0,0:0:0:0:
280,88,15573,2,0,P|320:112|336:176,1,100
284,248,16985,5,0,0:0:0:0:
212,316,17691,1,0,0:0:0:0:
116,344,18396,2,0,P|144:248|164:240,1,100
212,188,19808,1,0,0:0:0:0:
116,164,20514,1,0,0:0:0:0:
24,124,21220,2,0,P|112:68|132:76,1,100
180,120,22632,6,0,P|288:172|304:168,1,100
360,164,24043,1,0,0:0:0:0:
428,92,24749,1,0,0:0:0:0:
440,0,25455,6,0,P|356:32|352:48,1,100
304,116,26867,1,0,0:0:0:0:
228,180,27573,1,0,0:0:0:0:
172,264,28279,6,0,P|140:164|160:156,1,100
168,112,29691,2,0,L|272:88,1,100
364,112,31102,2,0,L|276:208,1,100
268,280,32514,2,0,B|408:252|404:252,1,100
388,164,33926,6,0,P|448:256|432:276,1,100
460,324,35338,2,0,L|352:352,1,100
264,356,36749,6,0,L|144:304,1,100
76,284,38161,2,0,P|176:236|196:260,1,100
244,224,39573,5,0,0:0:0:0:
344,236,40279,1,0,0:0:0:0:
436,200,40985,2,0,P|348:140|324:152,1,100
272,120,42396,6,0,L|152:132,1,100
80,168,43808,2,0,P|196:220|216:208,1,100
252,240,45220,5,0,0:0:0:0:
353,230,45926,2,0,P|399:212|428:172,1,100
464,80,47338,1,0,0:0:0:0:
372,40,48043,6,0,L|296:132,1,100
203,117,49455,2,0,L|140:40,1,100
40,36,50867,5,0,0:0:0:0:
64,132,51573,1,0,0:0:0:0:
88,228,52279,2,0,L|196:280,1,100
272,308,53691,6,0,P|240:208|208:204,1,100
168,172,55102,1,0,0:0:0:0:
232,96,55808,1,0,0:0:0:0:
256,192,56514,5,0,0:0:0:0:
256,192,57926,5,0,0:0:0:0:
256,192,59338,5,0,0:0:0:0:
256,192,60749,5,0,0:0:0:0:
380,36,62161,6,0,L|296:108,1,100
204,104,63573,2,0,L|128:38,1,100
104,136,64985,2,0,L|144:260,1,100
160,328,66396,2,0,P|232:264|228:220,1,100
260,172,67808,6,0,P|332:96|360:96,1,100
396,36,69220,2,0,P|404:140|376:156,1,100
352,200,70632,5,0,0:0:0:0:
288,276,71338,1,0,0:0:0:0:
188,260,72043,2,0,L|40:168,1,100
56,120,73455,6,0,P|176:144|188:180,1,100
232,176,74867,2,0,P|328:220|364:204,1,100
388,152,76279,5,0,0:0:0:0:
416,248,76985,1,0,0:0:0:0:
360,332,77691,2,0,L|280:232,1,100
200,228,79102,5,0,0:0:0:0:
240,320,79808,1,0,0:0:0:0:
140,316,80514,2,0,P|68:228|72:220,1,100
64,168,81926,6,0,P|176:120|188:128,1,100
236,112,83338,2,0,L|364:112,1,100
408,184,84749,5,0,0:0:0:0:
348,264,85455,1,0,0:0:0:0:
296,348,86161,2,0,P|260:228|264:224,1,100
316,208,87573,6,0,L|424:144,1,100
376,60,88985,2,0,L|260:124,1,100
204,164,90396,5,0,0:0:0:0:
172,260,91102,1,0,0:0:0:0:
272,244,91808,1,0,0:0:0:0:
312,152,92514,2,0,L|344:76,1,50
376,84,93220,5,0,0:0:0:0:
440,160,93926,1,0,0:0:0:0:
404,252,94632,1,0,0:0:0:0:
328,316,95338,2,0,L|244:336,1,50
252,284,96043,5,0,0:0:0:0:
208,192,96749,1,0,0:0:0:0:
260,108,97455,1,0,0:0:0:0:
300,200,98161,2,0,L|320:272,1,50
356,276,98867,5,0,0:0:0:0:
428,208,99573,1,0,0:0:0:0:
332,176,100279,1,0,0:0:0:0:
256,196,101691,5,0,0:0:0:0:
256,196,103102,1,0,0:0:0:0:
256,196,104489,1,0,0:0:0:0:
256,196,105853,2,0,L|356:196,1,100
256,196,107351,5,0,0:0:0:0:
256,196,108763,1,0,0:0:0:0:
256,196,110175,1,0,0:0:0:0:
256,196,111587,2,0,L|124:208,1,100
176,108,112998,6,0,B|276:60|276:60|368:92,1,200
408,280,115822,6,0,B|316:292|316:292|280:240|280:240|212:252|212:252,1,200
112,92,118646,6,0,B|92:172|92:172|16:216|76:300,1,200
248,332,121469,5,0,0:0:0:0:
224,132,122881,5,0,0:0:0:0:
