osu file format v14

[General]
AudioFilename: audio.mp3
AudioLeadIn: 0
PreviewTime: 21451
Countdown: 1
SampleSet: Soft
StackLeniency: 0.2
Mode: 0
LetterboxInBreaks: 0
WidescreenStoryboard: 1

[Editor]
Bookmarks: 380,6094,21808,40379,48951,56094,59665
DistanceSpacing: 1
BeatDivisor: 4
GridSize: 4
TimelineZoom: 1

[Metadata]
Title:6teen
TitleUnicode:6teen
Artist:Phil Naro
ArtistUnicode:Phil Naro
Creator:Otaku_Gamer_45
Version:Normal
Source:6teen
Tags:cartoon network
BeatmapID:1895668
BeatmapSetID:904051

[Difficulty]
HPDrainRate:3
CircleSize:3
OverallDifficulty:3
ApproachRate:4
SliderMultiplier:1.2
SliderTickRate:1

[Events]
//Background and Video events
0,0,"6teen.jpg",0,0
//Break Periods
//Storyboard Layer 0 (Background)
//Storyboard Layer 1 (Fail)
//Storyboard Layer 2 (Pass)
//Storyboard Layer 3 (Foreground)
//Storyboard Sound Samples

[TimingPoints]
380,357.142857142857,4,2,1,50,1,0
6094,-100,4,2,1,40,0,0
14476,-100,4,2,1,50,0,0
19487,-100,4,2,1,55,0,0
20022,-100,4,2,1,60,0,0
21808,-100,4,2,1,65,0,1
36094,-100,4,2,1,55,0,1
36629,-100,4,2,1,60,0,1
37165,-100,4,2,1,65,0,1
38951,-100,4,2,1,60,0,0
40379,-100,4,2,1,50,0,0
48951,-100,4,2,1,65,0,1
54665,-100,4,2,1,60,0,0
56094,-100,4,2,1,50,0,0

[Colours]
Combo1 : 21,183,230
Combo2 : 128,128,255
Combo3 : 111,196,140

[HitObjects]
109,8,380,6,0,L|109:128,1,120,2|2,2:2|2:0,2:0:0:0:
109,248,1094,2,0,B|70:248|70:248|53:231,2,60,2|2|2,2:2|2:2|2:2,2:2:0:0:
168,248,1630,2,0,L|288:248,1,120,2|2,2:2|2:2,2:2:0:0:
368,158,2344,2,0,L|248:158,1,120,2|0,2:2|2:2,2:2:0:0:
188,158,2880,1,8,2:2:0:0:
248,54,3237,6,0,L|372:54,1,120,2|2,2:2|2:0,2:0:0:0:
487,54,3951,2,0,B|487:15|487:15|470:-3,2,60,2|2|2,2:2|2:0|2:0,2:0:0:0:
487,114,4487,2,0,L|487:238,1,120,2|2,2:2|2:2,2:0:0:0:
367,232,5201,1,8,2:3:0:0:
367,232,5380,2,0,L|367:292,1,60,8|4,2:3|2:3,2:3:0:0:
307,292,5737,2,0,L|307:352,1,60,4|4,2:3|2:3,2:3:0:0:
246,352,6094,6,0,L|126:352,1,120,2|0,0:0|0:0,0:0:0:0:
29,292,6808,1,0,0:0:0:0:
126,232,7165,1,0,0:0:0:0:
29,170,7522,2,0,P|23:142|29:113,2,60,2|2|2,0:0|0:0|0:0,0:0:0:0:
77,145,8058,2,0,L|197:145,1,120,2|2,0:0|0:0,0:0:0:0:
316,145,8773,6,0,L|316:265,1,120,2|0,0:0|0:0,0:0:0:0:
316,325,9308,1,0,0:0:0:0:
436,325,9665,1,0,0:0:0:0:
496,221,10023,1,0,0:0:0:0:
436,118,10380,2,0,L|496:118,2,60,2|2|2,0:0|0:0|0:0,0:0:0:0:
405,65,10915,2,0,L|285:64,1,120,2|2,0:0|0:0,0:0:0:0:
259,118,11451,1,2,0:0:0:0:
259,118,11630,6,0,L|139:117,1,120,2|0,0:0|0:0,0:0:0:0:
80,118,12165,1,0,0:0:0:0:
80,237,12523,2,0,B|84:297|84:297|138:321,1,120,2|2,0:0|0:0,0:0:0:0:
200,320,13058,2,0,B|254:295|254:295|258:235,1,120,2|0,0:0|0:0,0:0:0:0:
263,175,13594,1,2,0:0:0:0:
263,175,13773,1,2,0:0:0:0:
346,88,14130,1,2,0:0:0:0:
437,175,14487,5,6,2:0:0:0:
437,175,14665,2,0,L|437:295,1,120,0|8,2:0|2:0,2:0:0:0:
317,295,15380,1,0,2:3:0:0:
197,295,15737,1,0,2:3:0:0:
197,175,16094,2,0,L|133:175,2,60,2|2|2,2:2|2:2|2:2,2:2:0:0:
257,175,16630,2,0,B|334:175|334:175|362:143,1,120,2|2,2:2|2:2,2:2:0:0:
363,22,17344,6,0,B|286:22|286:22|257:53,1,120,2|0,2:0|1:3,2:0:0:0:
221,102,17880,1,8,2:2:0:0:
128,25,18237,1,0,2:0:0:0:
36,102,18594,2,0,L|36:162,1,60,2|2,2:2|2:2,2:2:0:0:
36,222,18951,6,0,B|36:299|36:299|67:328,1,120,2|10,1:2|2:0,2:0:0:0:
127,327,19487,2,0,B|158:298|158:298|158:221,1,120,2|10,1:2|2:0,2:0:0:0:
158,160,20023,2,0,B|236:110|236:110|307:160,1,180,6|0,1:2|2:0,2:0:0:0:
305,220,20737,2,4,L|245:220,2,60,4|4|4,2:3|2:3|2:3,2:3:0:0:
395,299,21451,1,8,2:0:0:0:
485,220,21808,22,0,P|505:166|485:111,1,120,6|8,1:2|0:0,0:0:0:0:
438,70,22344,2,0,L|318:70,1,120,2|0,1:2|1:0,0:0:0:0:
258,70,22880,1,8,0:0:0:0:
258,190,23237,2,0,L|198:190,2,60,2|2|10,1:2|0:0|0:0,0:0:0:0:
318,190,23773,1,2,1:2:0:0:
318,70,24130,1,2,1:2:0:0:
318,70,24308,1,10,0:2:0:0:
198,65,24665,6,0,L|198:5,2,60,2|2|10,1:2|1:2|0:0,0:0:0:0:
198,185,25380,1,2,1:2:0:0:
78,185,25737,2,0,L|78:245,1,60,10|2,0:0|0:0,0:0:0:0:
78,305,26094,2,0,L|198:305,1,120,2|8,1:2|0:0,0:0:0:0:
242,345,26629,2,0,L|362:345,1,120,2|2,1:2|1:2,0:0:0:0:
422,345,27165,1,10,0:2:0:0:
422,225,27523,5,0,1:0:0:0:
422,105,27879,2,0,B|368:78|368:78|314:105,1,120,10|2,0:0|1:2,0:0:0:0:
314,225,28594,1,8,0:0:0:0:
194,225,28951,2,0,L|134:225,1,60,2|2,1:2|1:2,0:0:0:0:
74,229,29308,1,8,0:0:0:0:
74,229,29487,2,0,L|74:109,1,120,2|2,1:2|1:2,0:0:0:0:
74,49,30023,1,10,0:0:0:0:
134,49,30201,6,0,B|188:76|188:76|242:49,1,120,2|0,1:2|1:0,0:0:0:0:
292,80,30737,1,8,0:0:0:0:
292,80,30915,2,0,B|346:53|346:53|400:80,1,120,2|0,1:2|1:0,0:0:0:0:
451,110,31451,1,8,0:0:0:0:
451,230,31808,2,0,L|391:230,1,60,8|0,0:0|1:0,0:0:0:0:
391,290,32165,2,0,L|331:290,1,60,8|0,0:0|1:0,0:0:0:0:
331,350,32522,2,0,L|271:350,1,60,8|8,1:2|1:2,0:2:0:0:
216,352,32880,1,10,1:2:0:0:
216,352,33058,6,0,P|195:297|215:241,1,120,4|0,1:2|1:0,0:0:0:0:
256,198,33594,1,10,0:0:0:0:
256,78,33951,2,0,L|376:78,1,120,2|8,1:2|0:0,0:0:0:0:
495,82,34665,1,2,1:2:0:0:
495,82,34844,2,0,L|495:158,1,60,2|8,1:2|0:0,0:0:0:0:
495,202,35201,1,2,1:2:0:0:
385,344,35737,2,0,L|309:344,1,60,2|2,0:0|0:0,0:0:0:0:
264,344,36094,6,0,B|207:324|207:324|188:267,1,120,2|10,1:2|0:0,0:0:0:0:
203,209,36629,2,0,B|249:169|249:169|308:181,1,120,2|10,1:2|0:0,0:0:0:0:
365,199,37165,1,6,1:2:0:0:
256,192,37344,12,8,38951,0:0:0:0:
439,29,40379,6,0,L|439:149,1,120,2|2,2:2|2:0,2:0:0:0:
439,269,41094,2,0,B|478:269|478:269|495:252,2,60,2|2|2,2:2|2:0|2:0,2:0:0:0:
380,269,41629,2,0,L|260:269,1,120,2|2,2:2|2:2,2:0:0:0:
139,269,42344,2,0,L|139:149,1,120,2|0,2:2|2:0,2:0:0:0:
139,89,42880,1,8,2:2:0:0:
259,89,43237,6,0,L|379:89,1,120,2|2,2:2|2:0,2:0:0:0:
499,89,43951,2,0,B|499:50|499:50|482:33,2,60,2|2|2,2:2|2:0|2:0,2:0:0:0:
499,149,44487,2,0,L|499:269,1,120,2|2,2:2|2:2,2:0:0:0:
407,346,45201,2,0,L|407:226,1,120,2|0,2:2|2:0,2:0:0:0:
407,166,45737,1,8,2:2:0:0:
287,166,46094,6,0,B|233:193|233:193|179:166,1,120,2|2,2:2|2:0,2:0:0:0:
126,139,46630,2,0,B|72:112|72:112|18:139,1,120,2|8,2:2|2:3,2:0:0:0:
18,199,47165,2,0,B|45:253|45:253|18:307,1,120,8|4,2:3|2:3,2:3:0:0:
71,334,47701,1,4,2:3:0:0:
190,338,48058,1,0,3:0:0:0:
190,338,48237,2,0,L|250:338,1,60,0|0,1:0|1:0,2:0:0:0:
250,278,48594,2,0,L|310:278,1,60,8|8,1:2|1:2,2:0:0:0:
310,218,48951,6,0,L|310:98,1,120,6|8,1:2|0:0,0:0:0:0:
269,53,49487,2,0,B|215:26|215:26|161:53,1,120,2|0,1:2|1:0,0:0:0:0:
110,83,50022,1,8,0:0:0:0:
110,202,50380,2,0,L|110:322,1,120,2|8,1:2|0:0,0:0:0:0:
151,367,50915,2,0,B|205:394|205:394|259:367,1,120,2|0,1:2|1:0,0:0:0:0:
310,337,51451,1,8,0:0:0:0:
407,266,51808,6,0,L|483:266,2,60,8|0|0,1:2|1:0|1:0,0:0:0:0:
370,218,52344,2,0,L|294:218,2,60,8|0|0,1:2|1:0|1:0,0:0:0:0:
407,171,52879,1,12,0:0:0:0:
256,192,53058,12,8,54665,0:0:0:0:
196,138,56094,22,0,B|169:192|169:192|196:246,1,120,0|0,2:3|2:0,2:0:0:0:
316,246,56808,2,0,B|343:192|343:192|316:138,1,120,0|0,2:0|2:0,2:0:0:0:
256,34,57522,2,0,L|196:34,2,60,8|0|0,2:0|1:0|1:0,2:0:0:0:
316,34,58058,1,8,1:2:0:0:
421,90,58415,1,8,1:2:0:0:
460,203,58772,2,0,B|399:341|399:341|253:306,1,300,12|0,0:0|0:0,0:0:0:0:
