osu file format v14

[General]
AudioFilename: audio.mp3
AudioLeadIn: 0
PreviewTime: 21451
Countdown: 1
SampleSet: Soft
StackLeniency: 0.2
Mode: 0
LetterboxInBreaks: 0
WidescreenStoryboard: 1

[Editor]
Bookmarks: 380,6094,21808,40379,48951,56094,59665
DistanceSpacing: 1
BeatDivisor: 4
GridSize: 4
TimelineZoom: 1

[Metadata]
Title:6teen
TitleUnicode:6teen
Artist:Phil Naro
ArtistUnicode:Phil Naro
Creator:Otaku_Gamer_45
Version:Insane
Source:6teen
Tags:cartoon network
BeatmapID:1916002
BeatmapSetID:904051

[Difficulty]
HPDrainRate:5
CircleSize:4
OverallDifficulty:7.5
ApproachRate:9
SliderMultiplier:1.7
SliderTickRate:1

[Events]
//Background and Video events
0,0,"6teen.jpg",0,0
//Break Periods
//Storyboard Layer 0 (Background)
//Storyboard Layer 1 (Fail)
//Storyboard Layer 2 (Pass)
//Storyboard Layer 3 (Foreground)
//Storyboard Sound Samples

[TimingPoints]
380,357.142857142857,4,2,1,50,1,0
6094,-100,4,2,1,40,0,0
14487,-100,4,2,1,50,0,0
18951,-90.9090909090909,4,2,1,50,0,0
19487,-83.3333333333333,4,2,1,55,0,0
20022,-76.9230769230769,4,2,1,60,0,0
20558,-100,4,2,1,60,0,0
21808,-90.9090909090909,4,2,1,65,0,1
36094,-83.3333333333333,4,2,1,55,0,1
36629,-76.9230769230769,4,2,1,60,0,1
37165,-76.9230769230769,4,2,1,65,0,1
38772,-76.9230769230769,4,2,1,40,0,1
38862,-76.9230769230769,4,2,1,50,0,1
38951,-100,4,2,1,60,0,0
40379,-100,4,2,1,50,0,0
48951,-90.9090909090909,4,2,1,65,0,1
52879,-125,4,2,1,65,0,1
53951,-125,4,2,1,50,0,1
54308,-125,4,2,1,55,0,1
54665,-125,4,2,1,60,0,0
56094,-100,4,2,1,50,0,0
58772,-166.666666666667,4,2,1,60,0,0
59397,-166.666666666667,4,2,1,5,0,0
59487,-100,4,2,1,50,0,0

[Colours]
Combo1 : 21,183,230
Combo2 : 128,128,255
Combo3 : 111,196,140

[HitObjects]
160,187,380,6,0,B|250:153|235:209|325:171,1,170,2|2,2:2|2:2,2:2:0:0:
405,138,1094,2,0,P|411:179|398:219,1,85,2|2,2:2|2:2,2:2:0:0:
326,171,1451,1,2,2:2:0:0:
438,58,1630,2,0,P|471:31|512:22,1,85,2|0,2:2|2:2,2:2:0:0:
351,68,1987,2,0,P|311:52|283:21,1,85,2|0,2:2|2:2,2:2:0:0:
405,138,2344,2,0,P|396:219|324:258,1,170,2|0,2:2|2:2,2:2:0:0:
154,173,2880,1,8,2:2:0:0:
208,240,3058,1,0,2:2:0:0:
10,103,3237,6,0,B|45:151|45:151|153:172,1,170,2|0,2:2|2:2,2:2:0:0:
63,40,3773,2,0,B|69:99|69:99|152:172,1,170,2|0,2:2|2:2,2:2:0:0:
141,13,4308,2,0,B|117:68|117:68|152:172,1,170,2|0,2:2|2:2,2:2:0:0:
238,10,4844,2,0,B|259:42|259:42|251:88,1,85,10|8,2:2|2:3,2:2:0:0:
247,122,5112,1,8,2:3:0:0:
240,155,5201,1,8,2:3:0:0:
362,106,5379,1,8,2:3:0:0:
389,230,5558,1,4,2:3:0:0:
393,264,5648,1,4,2:3:0:0:
400,297,5737,1,4,2:3:0:0:
489,211,5915,1,6,2:3:0:0:
289,345,6094,6,0,L|119:330,1,170,2|0,0:2|0:0,0:0:0:0:
146,168,6630,1,0,0:0:0:0:
222,207,6808,2,0,P|194:237|155:253,1,85
218,122,7165,2,0,L|305:114,1,85
352,182,7523,1,2,0:0:0:0:
402,250,7701,1,2,0:0:0:0:
318,258,7880,1,2,0:0:0:0:
386,106,8058,2,0,L|473:98,1,85,2|0,0:0|0:0,0:0:0:0:
436,174,8415,1,2,0:0:0:0:
402,250,8594,1,0,0:0:0:0:
335,36,8773,6,0,P|294:31|253:43,1,85,2|0,0:0|0:0,0:0:0:0:
218,122,9130,1,0,0:0:0:0:
134,130,9308,2,0,L|50:137,1,85
183,197,9665,2,0,P|208:164|217:123,1,85
99,205,10023,2,0,P|114:243|145:271,1,85
233,265,10380,1,2,0:0:0:0:
317,257,10558,1,2,0:0:0:0:
267,189,10737,1,2,0:0:0:0:
283,333,10915,2,0,B|410:321|410:321|439:291,1,170,2|2,0:0|0:0,0:0:0:0:
386,161,11451,1,2,0:0:0:0:
386,161,11630,6,0,B|391:210|391:210|370:238,1,85,2|0,0:0|0:0,0:0:0:0:
314,118,11987,1,0,0:0:0:0:
229,125,12165,2,0,P|237:84|264:51,1,85
196,202,12523,2,0,L|112:209,1,85,2|0,0:0|0:0,0:0:0:0:
146,134,12880,1,2,0:0:0:0:
246,270,13058,2,0,L|329:277,2,85,2|0|0,0:0|0:0|0:0,0:0:0:0:
280,194,13594,1,2,0:0:0:0:
211,345,13773,2,0,P|171:358|130:353,1,85,2|0,0:0|0:0,0:0:0:0:
112,210,14130,2,0,P|128:248|160:276,1,85,2|0,0:0|0:0,0:0:0:0:
182,58,14487,1,6,0:0:0:0:
198,202,14665,5,0,1:0:0:0:
148,134,14844,1,0,1:0:0:0:
316,118,15023,2,0,L|308:202,1,85,8|0,2:2|2:0,2:0:0:0:
324,34,15380,2,0,P|362:50|390:81,1,85,0|0,2:0|2:0,2:0:0:0:
248,67,15737,2,0,P|222:33|214:-7,1,85,0|0,2:0|2:0,2:0:0:0:
104,51,16094,1,2,2:2:0:0:
96,135,16273,1,2,2:2:0:0:
28,85,16451,1,2,2:2:0:0:
164,185,16630,2,0,L|155:284,1,85,2|0,2:2|2:0,2:0:0:0:
80,303,16987,2,0,L|88:219,1,85,2|0,2:2|2:0,2:0:0:0:
239,150,17344,5,4,2:3:0:0:
235,192,17433,1,4,2:3:0:0:
232,235,17523,1,4,2:3:0:0:
97,135,17701,1,0,1:0:0:0:
315,116,17880,2,0,L|323:215,1,85,8|0,2:2|2:0,2:0:0:0:
391,150,18237,2,0,L|398:234,1,85,0|0,2:0|2:0,2:0:0:0:
383,66,18594,1,2,2:2:0:0:
211,153,18772,5,8,0:0:0:0:
190,165,18862,1,8,0:0:0:0:
172,169,18951,2,0,P|127:158|91:128,1,93.5000028533936,2|0,1:2|0:0,0:0:0:0:
232,35,19308,1,10,0:0:0:0:
247,204,19487,2,0,P|215:242|166:254,1,101.999996887207,2|0,1:2|0:0,0:0:0:0:
164,85,19844,1,10,0:0:0:0:
318,160,20023,2,0,B|350:218|305:268|305:268|265:308|282:363,1,220.999989883423,6|0,1:2|0:0,0:0:0:0:
421,207,20558,6,4,L|463:210,2,42.5,4|4|4,2:3|2:3|2:3,2:3:0:0:
362,332,20915,1,4,2:3:0:0:
498,352,21094,1,4,2:3:0:0:
396,128,21273,1,0,1:0:0:0:
396,128,21362,1,0,1:0:0:0:
396,128,21451,1,8,3:2:0:0:
342,205,21630,1,0,1:0:0:0:
264,35,21808,6,0,L|170:26,1,93.5000028533936,6|0,1:2|0:2,0:2:0:0:
24,96,22165,1,8,0:2:0:0:
156,188,22344,2,0,P|189:156|209:114,1,93.5000028533936,2|0,1:2|0:2,0:2:0:0:
78,19,22701,1,0,1:2:0:0:
63,181,22880,1,8,0:2:0:0:
117,104,23058,1,0,0:2:0:0:
102,265,23237,5,2,1:2:0:0:
156,188,23415,1,2,1:2:0:0:
10,257,23594,1,10,0:2:0:0:
171,350,23772,2,0,L|275:360,1,93.5000028533936,2|0,1:2|0:2,0:2:0:0:
248,196,24130,1,2,1:2:0:0:
194,273,24308,2,0,L|90:263,1,93.5000028533936,10|0,0:2|0:2,0:2:0:0:
341,188,24665,5,2,1:2:0:0:
263,358,24844,1,2,1:2:0:0:
248,196,25023,2,0,P|259:151|286:114,1,93.5000028533936,10|0,0:2|0:2,0:2:0:0:
395,265,25379,2,0,P|351:276|306:272,1,93.5000028533936,2|0,1:2|1:2,0:2:0:0:
380,103,25737,1,10,0:0:0:0:
431,178,25915,1,2,0:0:0:0:
248,196,26094,6,0,L|154:204,1,93.5000028533936,2|2,1:2|1:2,0:2:0:0:
233,34,26451,1,10,0:2:0:0:
287,111,26630,2,0,P|243:122|198:118,1,93.5000028533936,2|0,1:2|0:2,0:2:0:0:
326,26,26987,1,2,1:2:0:0:
379,103,27165,2,0,L|473:95,1,93.5000028533936,10|0,2:2|0:2,0:2:0:0:
233,34,27523,6,0,P|205:71|192:116,1,93.5000028533936,0|0,1:2|0:2,0:2:0:0:
245,192,27879,2,0,P|272:154|286:110,1,93.5000028533936,10|0,2:2|1:2,0:2:0:0:
102,127,28237,2,0,P|121:169|154:202,1,93.5000028533936,2|0,1:2|0:2,0:2:0:0:
341,187,28594,1,8,0:0:0:0:
192,115,28772,1,2,0:0:0:0:
209,280,28951,5,2,1:2:0:0:
155,203,29130,1,2,1:2:0:0:
302,273,29308,1,10,0:2:0:0:
116,289,29487,2,0,L|20:297,1,93.5000028533936,2|0,1:2|0:2,0:2:0:0:
62,212,29844,1,2,1:2:0:0:
77,374,30023,1,10,0:2:0:0:
263,358,30201,6,0,L|358:349,1,93.5000028533936,2|0,1:2|0:2,0:2:0:0:
395,264,30558,1,0,1:2:0:0:
248,195,30737,1,8,0:2:0:0:
209,280,30915,2,0,L|304:271,1,93.5000028533936,2|0,1:2|1:2,0:2:0:0:
341,187,31273,1,0,1:2:0:0:
155,203,31451,1,8,2:2:0:0:
302,272,31630,1,0,1:2:0:0:
194,118,31808,5,8,1:2:0:0:
209,280,31987,1,0,1:2:0:0:
287,110,32165,1,8,1:2:0:0:
155,203,32344,1,0,1:2:0:0:
341,187,32523,1,8,1:2:0:0:
233,33,32701,1,8,1:2:0:0:
209,280,32880,1,2,1:2:0:0:
101,126,33058,6,0,L|-5:135,1,93.5000028533936,4|0,1:2|0:2,0:2:0:0:
47,49,33415,1,0,1:2:0:0:
194,118,33594,2,0,P|182:162|155:201,1,93.5000028533936,10|0,0:2|0:2,0:2:0:0:
22,293,33951,2,0,P|67:281|113:285,1,93.5000028533936,2|0,1:2|1:2,0:2:0:0:
261,355,34308,2,0,P|228:322|208:279,1,93.5000028533936,8|0,0:2|0:2,0:2:0:0:
195,118,34665,5,2,1:2:0:0:
300,270,34844,1,2,1:2:0:0:
155,203,35022,1,8,0:2:0:0:
341,187,35201,2,0,L|434:178,1,93.5000028533936,2|0,1:2|0:2,0:2:0:0:
395,264,35558,1,0,1:2:0:0:
287,110,35737,1,10,0:2:0:0:
209,280,35915,1,2,1:2:0:0:
380,102,36094,6,0,P|362:54|322:23,1,101.999996887207,2|0,1:2|0:2,0:2:0:0:
194,118,36451,1,10,0:2:0:0:
341,187,36629,2,0,L|443:228,1,110.499994941712,2|0,1:2|0:2,0:2:0:0:
473,94,36987,1,10,0:2:0:0:
490,305,37165,1,6,1:2:0:0:
256,192,37254,12,2,38594,0:0:0:0:
256,192,38772,5,8,0:0:0:0:
256,192,38862,1,8,0:0:0:0:
256,192,38951,1,8,0:0:0:0:
509,282,40379,6,0,B|419:316|434:260|344:298,1,170,2|2,2:2|2:2,2:2:0:0:
255,205,41094,2,0,L|339:212,1,85,2|2,2:2|2:2,2:2:0:0:
343,298,41451,1,2,2:2:0:0:
183,251,41629,2,0,L|146:173,1,85,2|0,2:2|2:2,2:2:0:0:
259,292,41987,2,0,L|203:369,1,85,2|0,2:2|2:2,2:2:0:0:
255,205,42344,2,0,L|343:212,2,85,2|0|0,2:2|2:2|2:2,2:2:0:0:
77,170,42880,1,8,2:2:0:0:
160,143,43058,1,0,2:2:0:0:
44,49,43237,6,0,P|119:17|187:63,1,170,2|0,2:2|2:2,2:2:0:0:
253,87,43773,2,0,P|179:54|112:101,1,170,2|0,2:2|2:2,2:2:0:0:
43,125,44308,2,0,P|118:93|186:139,1,170,2|0,2:2|2:2,2:2:0:0:
112,178,44844,2,0,P|179:223|254:190,1,170,10|0,2:2|2:2,2:2:0:0:
185,138,45380,2,0,P|154:167|140:206,1,85,8|0,2:2|2:2,2:2:0:0:
293,268,45737,2,0,P|324:239|338:200,1,85,8|0,2:2|2:2,2:2:0:0:
254,190,46094,6,0,L|205:263,1,85,2|0,2:0|2:0,2:0:0:0:
75,238,46451,1,2,2:0:0:0:
75,238,46630,2,0,L|124:311,1,85,2|8,2:0|2:3,2:0:0:0:
141,337,46898,1,8,2:3:0:0:
158,366,46987,1,8,2:3:0:0:
0,333,47165,1,8,2:3:0:0:
206,260,47344,1,4,2:3:0:0:
225,288,47433,1,4,2:3:0:0:
242,316,47523,1,4,2:3:0:0:
75,238,47701,1,4,2:3:0:0:
254,190,47880,1,0,3:0:0:0:
273,218,47969,1,0,3:0:0:0:
290,246,48058,1,0,3:0:0:0:
364,137,48237,5,0,1:0:0:0:
349,159,48326,1,0,1:0:0:0:
334,181,48415,1,0,1:0:0:0:
319,203,48505,1,0,1:0:0:0:
304,225,48594,1,8,1:2:0:0:
289,247,48683,1,8,1:2:0:0:
275,269,48773,1,8,1:2:0:0:
260,291,48862,1,8,1:2:0:0:
242,316,48951,6,0,L|335:324,1,93.5000028533936,6|0,1:2|0:0,0:0:0:0:
392,244,49308,1,8,0:0:0:0:
206,228,49487,2,0,P|172:260|152:302,1,93.5000028533936,2|0,1:2|0:0,0:0:0:0:
299,236,49844,1,0,1:0:0:0:
113,220,50022,2,0,L|13:228,1,93.5000028533936,8|0,0:0|0:0,0:0:0:0:
167,143,50380,6,0,L|260:151,1,93.5000028533936,2|0,1:2|0:0,0:0:0:0:
299,236,50737,1,8,0:0:0:0:
113,220,50915,2,0,P|88:182|76:137,1,93.5000028533936,2|0,1:2|0:0,0:0:0:0:
220,65,51272,1,0,1:0:0:0:
206,228,51451,1,8,2:2:0:0:
166,142,51630,1,0,0:0:0:0:
406,81,51808,5,8,1:2:0:0:
391,243,51987,1,0,1:2:0:0:
259,150,52165,1,0,1:2:0:0:
445,166,52344,1,8,1:2:0:0:
337,320,52523,1,0,1:2:0:0:
259,150,52701,1,0,1:2:0:0:
426,328,52880,6,0,B|270:336|317:256|163:287,1,272,12|0,0:0|0:0,0:0:0:0:
39,366,53951,1,0,1:0:0:0:
52,222,54129,1,0,1:0:0:0:
218,238,54308,1,0,1:0:0:0:
87,298,54487,1,0,1:0:0:0:
148,86,54665,1,8,1:2:0:0:
415,297,56094,22,0,L|303:287,1,85,0|0,2:2|2:2,2:2:0:0:
463,228,56451,2,0,P|489:260|498:302,1,85,0|0,2:2|2:2,2:2:0:0:
379,221,56808,2,0,P|352:188|343:146,1,85,0|0,2:2|2:2,2:2:0:0:
512,144,57165,2,0,L|428:152,1,85,0|0,2:2|2:2,2:2:0:0:
179,174,57523,5,8,0:0:0:0:
275,314,57701,1,0,1:0:0:0:
347,162,57879,1,0,1:0:0:0:
143,250,58058,1,8,2:0:0:0:
311,238,58237,1,0,1:0:0:0:
131,104,58415,1,8,0:0:0:0:
227,244,58594,1,0,1:0:0:0:
167,28,58773,6,0,B|210:51|215:98|215:98|222:150|264:168,1,178.499994552612,12|0,1:2|0:0,0:0:0:0:
303,134,59487,2,0,L|298:91,2,42.5
