osu file format v14

[General]
AudioFilename: audio.mp3
AudioLeadIn: 0
PreviewTime: 21451
Countdown: 1
SampleSet: Soft
StackLeniency: 0.2
Mode: 0
LetterboxInBreaks: 0
WidescreenStoryboard: 1

[Editor]
Bookmarks: 380,6094,21808,40379,48951,56094,59665
DistanceSpacing: 1
BeatDivisor: 4
GridSize: 4
TimelineZoom: 1

[Metadata]
Title:6teen
TitleUnicode:6teen
Artist:Phil Naro
ArtistUnicode:Phil Naro
Creator:Otaku_Gamer_45
Version:Hard
Source:6teen
Tags:cartoon network
BeatmapID:1916001
BeatmapSetID:904051

[Difficulty]
HPDrainRate:4
CircleSize:3.5
OverallDifficulty:5
ApproachRate:7
SliderMultiplier:1.55
SliderTickRate:1

[Events]
//Background and Video events
0,0,"6teen.jpg",0,0
//Break Periods
//Storyboard Layer 0 (Background)
//Storyboard Layer 1 (Fail)
//Storyboard Layer 2 (Pass)
//Storyboard Layer 3 (Foreground)
//Storyboard Sound Samples

[TimingPoints]
380,357.142857142857,4,2,1,50,1,0
3237,-125,4,2,1,50,0,0
4844,-100,4,2,1,50,0,0
6094,-100,4,2,1,40,0,0
14487,-100,4,2,1,50,0,0
18951,-90.9090909090909,4,2,1,50,0,0
19487,-90.9090909090909,4,2,1,55,0,0
20022,-90.9090909090909,4,2,1,60,0,0
20915,-100,4,2,1,50,0,0
21808,-90.9090909090909,4,2,1,65,0,1
36094,-90.9090909090909,4,2,1,55,0,1
36629,-90.9090909090909,4,2,1,60,0,1
37165,-90.9090909090909,4,2,1,65,0,1
38772,-90.9090909090909,4,2,1,40,0,1
38862,-90.9090909090909,4,2,1,50,0,1
38951,-100,4,2,1,60,0,0
40379,-100,4,2,1,50,0,0
43237,-125,4,2,1,50,0,0
44844,-100,4,2,1,50,0,0
48594,-100,4,2,1,50,0,0
48951,-90.9090909090909,4,2,1,50,0,1
54665,-90.9090909090909,4,2,1,60,0,0
56094,-90.9090909090909,4,2,1,50,0,0
58772,-125,4,2,1,50,0,0
59487,-100,4,2,1,50,0,0

[Colours]
Combo1 : 21,183,230
Combo2 : 128,128,255
Combo3 : 111,196,140

[HitObjects]
209,294,380,6,0,B|173:317|173:317|61:308,1,155,2|2,2:2|2:2,2:2:0:0:
61,308,1094,2,0,P|28:288|9:254,1,77.5,2|2,0:0|0:0,0:0:0:0:
84,231,1451,1,2,0:0:0:0:
159,211,1629,2,0,L|152:133,1,77.5,2|0,2:2|2:2,2:2:0:0:
236,199,1987,2,0,L|268:128,1,77.5,2|0,2:2|2:2,2:2:0:0:
294,250,2344,2,0,L|369:197,1,77.5,2|0,2:2|2:2,2:2:0:0:
348,128,2701,1,0,0:0:0:0:
420,158,2879,2,0,P|455:142|480:113,1,77.5,8|0,0:0|0:0,0:0:0:0:
410,81,3237,6,0,P|327:52|270:118,2,186,2|2|2,2:2|2:0|2:0,2:0:0:0:
348,128,4487,1,0,0:0:0:0:
236,15,4844,2,0,L|152:22,1,77.5,10|8,2:2|2:3,2:0:0:0:
152,25,5112,1,8,2:3:0:0:
145,29,5201,1,8,2:3:0:0:
73,60,5379,1,8,2:3:0:0:
64,137,5558,2,4,L|40:168,2,38.75,4|4|4,2:3|2:3|2:3,2:3:0:0:
135,106,5915,1,2,2:3:0:0:
126,183,6094,6,0,L|187:325,1,155,2|0,0:0|0:0,0:0:0:0:
251,282,6629,1,0,0:0:0:0:
251,282,6808,2,0,L|281:353,1,77.5
333,282,7165,2,0,L|363:353,1,77.5
415,282,7522,1,2,0:0:0:0:
453,214,7701,1,2,0:0:0:0:
413,147,7879,1,2,0:0:0:0:
374,214,8058,2,0,P|335:152|365:84,1,155,2|2,0:0|0:0,0:0:0:0:
356,7,8594,1,0,0:0:0:0:
284,36,8772,6,0,P|249:102|175:109,1,155,2|0,0:0|0:0,0:0:0:0:
105,144,9308,2,0,P|93:180|97:218,1,77.5
169,187,9665,2,0,P|176:224|200:255,1,77.5
245,192,10022,2,0,P|270:220|306:235,1,77.5
313,158,10379,1,2,0:0:0:0:
376,199,10558,1,2,0:0:0:0:
444,165,10737,1,2,0:0:0:0:
507,206,10915,2,0,B|482:242|439:240|439:240|429:333,1,155,2|2,0:0|0:0,0:0:0:0:
355,297,11451,1,2,0:0:0:0:
277,306,11629,6,0,P|214:346|141:327,1,155,2|0,0:0|0:0,0:0:0:0:
67,304,12165,2,0,P|88:271|120:251,1,77.5
199,254,12522,2,0,B|181:142|181:142|197:103,1,155,2|2,0:0|0:0,0:0:0:0:
258,151,13058,2,0,B|275:262|275:262|259:301,1,155,2|0,0:0|0:0,0:0:0:0:
199,254,13594,1,2,0:0:0:0:
120,250,13772,2,0,L|43:263,1,77.5,2|0,0:0|0:0,0:0:0:0:
107,169,14129,2,0,L|30:182,1,77.5,2|0,0:0|0:0,0:0:0:0:
185,137,14487,5,6,0:0:0:0:
185,137,14665,2,0,L|263:131,1,77.5
309,69,15022,2,0,P|332:99|339:137,1,77.5,8|0,2:2|2:0,2:0:0:0:
416,145,15379,2,0,P|401:181|373:206,1,77.5,0|0,2:2|2:0,2:0:0:0:
404,277,15737,2,0,P|365:282|329:270,1,77.5,0|0,2:2|2:0,2:0:0:0:
294,201,16094,1,2,2:2:0:0:
250,262,16272,1,2,2:2:0:0:
219,193,16451,1,2,2:2:0:0:
175,254,16629,2,0,L|154:328,1,77.5,2|0,2:2|2:0,2:0:0:0:
89,270,16987,2,0,L|109:195,1,77.5,2|0,2:2|2:2,2:2:0:0:
79,347,17344,6,4,L|42:383,2,38.75,4|4|4,2:3|2:3|2:3,2:3:0:0:
154,328,17701,1,0,1:3:0:0:
251,339,17879,1,8,1:2:0:0:
251,339,18594,2,0,L|330:345,1,77.5,2|2,0:0|0:0,0:0:0:0:
405,350,18951,6,0,L|420:174,1,170.500005203247,2|10,1:2|0:0,0:0:0:0:
486,219,19487,2,0,P|414:257|348:210,1,170.500005203247,2|10,1:2|0:0,0:0:0:0:
313,142,20022,2,0,B|283:83|212:79|175:133|175:133|142:186|67:185|37:125,1,341.000010406494,6|4,1:2|2:3,0:0:0:0:
108,94,20915,2,0,L|114:16,1,77.5,4|4,2:3|2:3,0:0:0:0:
37,46,21272,1,0,1:0:0:0:
37,46,21362,1,0,1:0:0:0:
37,46,21451,1,8,3:2:0:0:
102,171,21808,22,0,B|109:256|109:256|186:291,1,170.500005203247,6|8,1:2|0:0,0:0:0:0:
180,206,22344,2,0,B|172:120|172:120|243:74,1,170.500005203247,2|0,1:2|1:0,0:0:0:0:
251,158,22879,2,0,L|259:249,1,85.2500026016236,8|0,0:0|0:0,0:0:0:0:
304,314,23237,5,2,1:2:0:0:
374,360,23415,1,2,1:2:0:0:
425,291,23594,1,10,0:2:0:0:
487,348,23772,2,0,P|505:310|503:267,1,85.2500026016236,2|0,1:2|0:0,0:0:0:0:
444,208,24129,1,2,1:2:0:0:
380,150,24308,2,0,P|362:188|365:231,1,85.2500026016236,10|0,0:0|0:0,0:0:0:0:
463,124,24665,6,0,P|481:86|479:44,1,85.2500026016236,2|2,1:2|0:0,0:0:0:0:
315,59,25022,2,0,L|400:67,1,85.2500026016236,10|0,0:0|0:0,0:0:0:0:
251,0,25379,2,0,P|233:38|235:81,1,85.2500026016236,2|0,1:2|1:0,0:0:0:0:
297,142,25737,1,10,0:0:0:0:
236,203,25915,1,2,0:0:0:0:
175,142,26094,5,2,1:2:0:0:
114,203,26272,1,2,1:2:0:0:
175,264,26451,1,10,0:0:0:0:
114,325,26629,2,0,L|18:333,1,85.2500026016236,2|0,1:2|0:0,0:0:0:0:
198,348,26987,1,2,1:2:0:0:
198,348,27165,2,0,L|293:356,1,85.2500026016236,10|0,0:2|0:0,0:0:0:0:
343,266,27522,6,0,L|258:273,1,85.2500026016236,0|0,1:0|0:0,0:0:0:0:
420,300,27879,2,0,P|426:258|413:218,1,85.2500026016236,10|0,0:0|1:0,0:0:0:0:
350,349,28237,2,0,P|382:375|424:383,1,85.2500026016236,2|0,1:2|0:0,0:0:0:0:
496,337,28594,1,8,0:0:0:0:
510,253,28772,1,2,0:0:0:0:
479,171,28951,6,0,P|447:144|405:136,2,85.2500026016236,2|2|8,1:2|1:2|0:0,0:0:0:0:
413,218,29487,2,0,L|243:232,1,170.500005203247,2|2,1:2|1:2,0:0:0:0:
192,165,30022,1,10,0:0:0:0:
278,147,30201,6,0,B|321:138|321:138|322:103|346:57|399:53,1,170.500005203247,2|0,1:2|1:0,0:0:0:0:
477,90,30737,1,8,0:0:0:0:
406,136,30915,2,0,L|422:324,1,170.500005203247,2|0,1:2|1:0,0:0:0:0:
301,293,31451,1,8,0:0:0:0:
268,371,31629,1,0,1:0:0:0:
208,266,31808,5,8,1:2:0:0:
176,344,31986,1,0,1:2:0:0:
115,239,32165,1,8,1:2:0:0:
83,317,32343,1,0,1:2:0:0:
22,212,32522,1,8,1:2:0:0:
127,151,32701,1,8,1:2:0:0:
66,46,32879,1,10,1:2:0:0:
200,30,33058,6,0,L|375:45,1,170.500005203247,4|0,1:2|1:0,0:0:0:0:
483,84,33594,2,0,L|447:7,1,85.2500026016236,10|0,0:0|0:0,0:0:0:0:
407,121,33951,2,0,L|399:206,1,85.2500026016236,2|0,1:2|1:0,0:0:0:0:
434,283,34308,2,0,P|465:255|481:216,1,85.2500026016236,8|0,0:0|0:0,0:0:0:0:
317,202,34665,6,0,P|326:243|352:276,1,85.2500026016236,2|2,1:2|1:2,0:0:0:0:
386,354,35022,1,8,0:0:0:0:
301,346,35201,2,0,L|125:330,1,170.500005203247,2|0,1:2|1:0,0:0:0:0:
84,258,35737,2,0,L|171:250,1,85.2500026016236,10|2,0:0|1:2,0:0:0:0:
137,88,36094,6,0,L|130:173,1,85.2500026016236,2|0,1:2|0:0,0:0:0:0:
43,50,36451,1,10,0:0:0:0:
43,50,36629,2,0,L|50:134,1,85.2500026016236,2|0,1:2|0:0,0:0:0:0:
120,5,36987,1,10,0:0:0:0:
120,5,37165,1,6,1:2:0:0:
256,192,37344,12,0,38415,0:0:0:0:
256,192,38772,6,8,L|256:236,2,42.6250013008118
431,22,40379,6,0,B|454:58|454:58|445:170,1,155,2|2,2:2|2:0,2:0:0:0:
445,169,41094,2,0,L|407:237,1,77.5,2|2,2:2|2:0,2:0:0:0:
333,218,41451,1,2,0:0:0:0:
268,176,41629,2,0,L|235:105,1,77.5,2|0,2:2|2:0,2:0:0:0:
178,163,41987,2,0,L|114:118,1,77.5,2|0,2:2|2:0,2:0:0:0:
93,196,42344,2,0,L|15:189,2,77.5,2|0|0,2:2|2:0|2:0,2:0:0:0:
146,290,42879,2,0,L|69:296,1,77.5,8|0,2:2|2:0,2:0:0:0:
168,215,43237,6,0,P|223:282|181:359,2,186,2|2|2,2:2|2:0|2:0,2:0:0:0:
146,290,44487,1,2,0:0:0:0:
301,276,44844,2,0,L|314:121,1,155,8|0,2:2|2:0,2:0:0:0:
361,61,45379,2,0,P|386:88|391:127,1,77.5,8|0,2:2|2:0,2:0:0:0:
236,113,45737,2,0,P|247:76|278:52,1,77.5,8|0,2:2|2:0,2:0:0:0:
214,0,46094,6,0,L|136:6,1,77.5,2|0,2:0|2:0,2:0:0:0:
26,70,46451,1,2,2:0:0:0:
26,70,46629,2,0,L|104:77,1,77.5,2|0,2:0|2:3,2:0:0:0:
213,140,46987,1,8,2:3:0:0:
213,140,47165,2,0,L|136:147,1,77.5,8|8,2:3|2:3,2:0:0:0:
128,156,47433,1,4,2:3:0:0:
120,165,47522,2,0,L|111:256,1,77.5,4|4,2:3|2:3,2:3:0:0:
191,249,47879,2,0,L|187:287,2,38.75,0|0|0,3:0|3:0|3:0,3:0:0:0:
268,255,48237,6,8,L|266:295,3,38.75,0|0|0|0,1:0|1:0|1:0|1:0,1:0:0:0:
290,230,48594,2,8,L|292:190,3,38.75,8|8|8|8,1:2|1:2|1:2|1:2,1:2:0:0:
315,256,48951,5,4,0:0:0:0:
495,304,49308,2,0,P|497:346|479:384,1,85.2500026016236,8|0,0:0|0:0,0:0:0:0:
414,329,49665,2,0,L|330:337,1,85.2500026016236,0|0,1:0|1:0,0:0:0:0:
246,355,50022,2,0,L|161:347,1,85.2500026016236,8|0,0:0|0:0,0:0:0:0:
148,263,50379,2,0,B|102:164|102:164|142:111,1,170.500005203247,2|8,1:2|0:0,0:0:0:0:
199,175,50915,2,0,B|244:273|244:273|317:281,1,170.500005203247,2|0,1:2|1:0,0:0:0:0:
300,194,51451,2,0,L|265:117,1,85.2500026016236,8|0,0:0|0:0,0:0:0:0:
199,62,51808,6,0,L|115:90,2,85.2500026016236,8|0|0,1:2|1:2|1:2,2:0:0:0:
279,32,52343,2,0,L|362:3,2,85.2500026016236,8|0|0,1:2|1:2|1:2,0:0:0:0:
264,116,52879,1,12,1:2:0:0:
256,192,52969,12,8,54665,0:0:0:0:
140,306,56094,6,0,P|165:272|174:231,1,85.2500026016236,0|0,2:0|2:0,2:0:0:0:
90,239,56451,2,0,P|48:233|8:246,1,85.2500026016236,0|0,2:0|2:0,2:0:0:0:
58,317,56808,2,0,P|74:356|105:384,1,85.2500026016236,0|0,2:0|2:0,2:0:0:0:
190,377,57165,2,0,L|293:367,1,85.2500026016236,0|0,2:0|2:0,2:0:0:0:
393,350,57522,6,0,L|475:372,2,85.2500026016236,8|0|0,0:0|1:0|1:0,0:0:0:0:
325,281,58058,2,0,L|407:258,1,85.2500026016236,8|0,0:0|1:0,0:0:0:0:
475,195,58415,2,0,L|392:172,1,85.2500026016236,8|0,0:0|1:0,0:0:0:0:
277,139,58772,2,0,L|67:195,1,217,12|0,1:2|0:0,0:0:0:0:
58,216,59487,2,0,L|54:254,2,38.75
