osu file format v14

[General]
AudioFilename: audio.mp3
AudioLeadIn: 0
PreviewTime: 35783
Countdown: 0
SampleSet: Soft
StackLeniency: 0.7
Mode: 0
LetterboxInBreaks: 0
WidescreenStoryboard: 1

[Editor]
Bookmarks: 16979,73430,148807,207659
DistanceSpacing: 1
BeatDivisor: 4
GridSize: 16
TimelineZoom: 1

[Metadata]
Title:Another Day In Paradise
TitleUnicode:Another Day In Paradise
Artist:Phil Collins
ArtistUnicode:Phil Collins
Creator:Arphimigon
Version:Simple
Source:
Tags:collab hightec ...but seriously
BeatmapID:1220920
BeatmapSetID:576323

[Difficulty]
HPDrainRate:2
CircleSize:3
OverallDifficulty:2
ApproachRate:2
SliderMultiplier:0.8
SliderTickRate:1

[Events]
//Background and Video events
0,0,"sad.jpg",0,0
//Break Periods
//Storyboard Layer 0 (Background)
//Storyboard Layer 1 (Fail)
//Storyboard Layer 2 (Pass)
//Storyboard Layer 3 (Foreground)
//Storyboard Sound Samples

[TimingPoints]
16952,588.558424232912,4,2,1,70,1,0
16952,-100,4,2,1,70,0,1
35785,-100,4,2,1,20,0,0
73453,-100,4,2,1,50,0,0
92287,-100,4,2,1,70,0,1
111121,-100,4,2,1,20,0,0
129955,-100,4,2,1,50,0,0
148789,-83.3333333333333,4,2,1,70,0,1
167622,-83.3333333333333,4,2,1,70,0,0
188811,-100,4,2,1,50,0,0
207644,-83.3333333333333,4,2,1,60,0,0
226478,-83.3333333333333,4,2,1,70,0,1
278271,-100,4,2,1,70,0,1
282980,-111.111111111111,4,2,1,60,0,1
287688,-125,4,2,1,45,0,1
290043,-125,4,2,1,35,0,1
292397,-100,4,2,1,15,0,0

[Colours]
Combo1 : 0,128,255
Combo2 : 255,255,0

[HitObjects]
378,309,16952,6,0,P|305:278|227:292,1,160,2|2,0:0|0:0,0:0:0:0:
155,324,18717,1,0,0:0:0:0:
162,245,19306,2,0,P|175:167|144:94,1,160,2|2,0:0|0:0,0:0:0:0:
307,122,21660,6,0,L|470:140,1,160,2|2,0:0|0:0,0:0:0:0:
484,221,23426,1,0,0:0:0:0:
503,303,24014,2,0,L|340:285,1,160,2|2,0:0|0:0,0:0:0:0:
211,185,26368,6,0,P|188:260|202:338,1,160,2|2,0:0|0:0,0:0:0:0:
122,349,28134,1,0,0:0:0:0:
67,290,28723,2,0,P|90:214|76:136,1,160,2|2,0:0|0:0,0:0:0:0:
197,26,31077,6,0,L|355:44,1,160,2|2,0:0|0:0,0:0:0:0:
376,125,32843,1,0,0:0:0:0:
394,208,33431,2,0,L|235:189,1,160,2|2,0:0|0:0,0:0:0:0:
169,328,35785,6,0,B|380:294|276:363|486:332,1,320
448,176,39317,1,0,0:0:0:0:
343,56,40494,2,0,B|132:90|236:21|26:52,1,320
68,214,44025,1,0,0:0:0:0:
141,366,45202,6,0,P|204:230|101:119,1,320,0|0,0:0|0:0,0:0:0:0:
256,50,48734,1,0,0:0:0:0:
410,119,49911,2,0,P|307:230|370:366,1,320,0|0,0:0|0:0,0:0:0:0:
421,214,53442,1,0,0:0:0:0:
445,55,54619,6,0,B|289:96|289:96|136:55,1,320,0|0,0:0|0:0,0:0:0:0:
29,174,58151,1,0,0:0:0:0:
67,329,59328,2,0,B|223:288|223:288|376:329,1,320,0|0,0:0|0:0,0:0:0:0:
461,167,62859,1,0,0:0:0:0:
334,33,64036,6,0,B|355:112|309:186|309:186|393:208|428:284,1,320
256,307,67568,1,0,0:0:0:0:
84,284,68745,2,0,B|119:208|203:186|203:186|157:112|178:33,1,320
324,74,72276,1,0,0:0:0:0:
457,166,73453,6,0,L|444:325,1,160,2|0,0:0|0:0,0:0:0:0:
370,355,75219,1,0,0:0:0:0:
299,317,75807,2,0,L|311:157,1,160,2|0,0:0|0:0,0:0:0:0:
179,65,78162,6,0,P|103:84|27:65,1,160,2|0,0:0|0:0,0:0:0:0:
179,65,80516,2,0,P|255:45|331:65,1,160,2|0,0:0|0:0,0:0:0:0:
462,158,82870,6,0,L|477:317,1,160,2|0,0:0|0:0,0:0:0:0:
409,359,84636,1,0,0:0:0:0:
332,334,85224,2,0,L|316:174,1,160,2|0,0:0|0:0,0:0:0:0:
155,159,87579,6,0,P|89:199|67:274,1,160,2|0,0:0|0:0,0:0:0:0:
204,358,89933,2,0,L|283:348,1,80,2|2,0:0|0:0,0:0:0:0:
344,297,91110,2,0,L|423:287,1,80,2|0,0:0|0:0,0:0:0:0:
470,219,92287,6,0,P|417:161|407:84,1,160,0|2,0:0|0:0,0:0:0:0:
342,35,94053,1,8,0:3:0:0:
278,83,94641,2,0,P|267:161|213:218,1,160,2|2,0:0|0:0,0:0:0:0:
90,321,96995,6,0,B|176:297|159:351|245:323,1,160,2|2,0:0|0:0,0:0:0:0:
292,257,98761,1,8,0:3:0:0:
339,321,99350,2,0,B|425:349|408:295|494:319,1,160,2|2,0:0|0:0,0:0:0:0:
468,154,101704,6,0,L|301:174,1,160,2|2,0:0|0:0,0:0:0:0:
248,120,103470,1,8,0:3:0:0:
195,59,104058,2,0,L|28:79,1,160,2|2,0:0|0:0,0:0:0:0:
132,195,106412,6,0,P|184:137|195:59,1,160,2|2,0:0|0:0,0:0:0:0:
272,37,108178,1,8,0:3:0:0:
348,59,108767,2,0,P|358:137|412:194,1,160,2|2,0:0|0:0,0:0:0:0:
329,332,111121,6,0,B|269:392|180:371|180:371|184:287|122:226,1,320,0|0,0:0|0:0,0:0:0:0:
282,207,114652,1,0,0:0:0:0:
329,52,115829,2,0,B|269:-8|180:12|180:12|184:96|122:157,1,320,0|0,0:0|0:0,0:0:0:0:
247,257,119361,1,0,0:0:0:0:
377,350,120538,6,0,P|446:212|379:73,1,320,0|0,0:0|0:0,0:0:0:0:
256,176,124069,1,0,0:0:0:0:
132,73,125246,2,0,P|65:212|135:351,1,320,0|0,0:0|0:0,0:0:0:0:
211,210,128778,1,0,0:0:0:0:
313,85,129955,6,0,B|394:62|385:110|473:88,1,160,2|0,0:0|0:0,0:0:0:0:
508,158,131720,1,0,0:0:0:0:
487,235,132309,2,0,B|406:212|415:260|327:238,1,160,2|0,0:0|0:0,0:0:0:0:
188,161,134663,6,0,P|134:216|137:293,1,160,2|0,0:0|0:0,0:0:0:0:
287,351,137017,2,0,P|341:295|338:218,1,160,2|0,0:0|0:0,0:0:0:0:
222,107,139372,6,0,B|141:84|150:132|62:110,1,160,2|0,0:0|0:0,0:0:0:0:
27,180,141137,1,0,0:0:0:0:
48,257,141726,2,0,B|129:234|120:282|208:260,1,160,2|0,0:0|0:0,0:0:0:0:
344,182,144080,6,0,P|427:203|463:273,1,160,2|0,0:0|0:0,0:0:0:0:
324,345,146434,2,0,L|239:338,1,80,2|2,0:0|0:0,0:0:0:0:
176,296,147611,2,0,L|91:289,1,80,2|2,0:0|0:0,0:0:0:0:
69,196,148789,6,0,P|112:112|101:18,1,191.999994140625,2|2,0:0|0:0,0:0:0:0:
195,58,150554,1,8,0:3:0:0:
292,25,151143,2,0,P|281:119|324:203,1,191.999994140625,2|2,0:0|0:0,0:0:0:0:
386,276,152908,1,0,0:0:0:0:
452,345,153497,6,0,L|261:320,1,191.999994140625,2|2,0:0|0:0,0:0:0:0:
181,267,155263,1,8,0:3:0:0:
228,183,155851,2,0,L|418:158,1,191.999994140625,2|2,0:0|0:0,0:0:0:0:
276,35,158206,6,0,P|184:20|109:75,1,191.999994140625,2|2,0:0|0:0,0:0:0:0:
80,167,159971,1,8,0:3:0:0:
122,252,160560,2,0,P|214:267|289:212,1,191.999994140625,2|2,0:0|0:0,0:0:0:0:
340,129,162325,1,0,0:0:0:0:
436,99,162914,6,0,B|411:203|458:187|434:289,1,191.999994140625,2|2,0:0|0:0,0:0:0:0:
366,355,164680,1,8,0:3:0:0:
294,290,165268,2,0,B|270:187|317:203|292:99,1,191.999994140625,2|2,0:0|0:0,0:0:0:0:
113,30,167622,6,0,P|43:91|41:184,1,191.999994140625,2|0,0:0|0:0,0:0:0:0:
184,314,169977,2,0,P|254:252|256:159,1,191.999994140625,2|0,0:0|0:0,0:0:0:0:
398,30,172331,6,0,P|468:91|470:184,1,191.999994140625,2|0,0:0|0:0,0:0:0:0:
328,314,174685,2,0,P|257:252|255:159,1,191.999994140625,2|0,0:0|0:0,0:0:0:0:
90,61,177039,6,0,L|66:258,1,191.999994140625,2|0,0:0|0:0,0:0:0:0:
232,346,179394,2,0,L|256:156,1,191.999994140625,2|0,0:0|0:0,0:0:0:0:
422,61,181748,6,0,L|446:258,1,191.999994140625,2|0,0:0|0:0,0:0:0:0:
279,346,184102,2,0,L|256:156,2,191.999994140625,2|0|2,0:0|0:0|0:0,0:0:0:0:
471,348,187633,1,0,0:0:0:0:
450,189,188811,6,0,B|421:109|461:33|461:33|390:78|308:51,1,320,0|0,0:0|0:0,0:0:0:0:
149,56,192342,1,0,0:0:0:0:
62,195,193519,2,0,B|91:275|51:351|51:351|122:306|203:332,1,320,0|0,0:0|0:0,0:0:0:0:
373,320,197050,1,0,0:0:0:0:
492,197,198227,6,0,P|341:177|285:35,1,320,0|0,0:0|0:0,0:0:0:0:
128,68,201759,1,0,0:0:0:0:
19,186,202936,2,0,P|170:206|226:348,1,320,0|0,0:0|0:0,0:0:0:0:
332,208,206467,1,0,0:0:0:0:
461,44,207644,6,0,B|375:22|350:58|270:33,1,191.999994140625,2|0,0:0|0:0,0:0:0:0:
195,92,209410,1,0,0:0:0:0:
257,165,209999,2,0,B|342:144|367:179|447:154,1,191.999994140625,2|0,0:0|0:0,0:0:0:0:
476,344,212353,6,0,P|383:350|307:294,1,191.999994140625,2|0,0:0|0:0,0:0:0:0:
256,213,214119,1,0,0:0:0:0:
204,294,214707,2,0,P|128:350|35:344,1,191.999994140625,2|0,0:0|0:0,0:0:0:0:
54,153,217061,6,0,B|140:110|140:110|196:21,1,191.999994140625,2|0,0:0|0:0,0:0:0:0:
256,98,218827,1,0,0:0:0:0:
320,28,219416,2,0,B|372:110|372:110|458:153,1,191.999994140625,2|0,0:0|0:0,0:0:0:0:
363,320,221770,6,0,B|292:285|248:341|174:309,1,191.999994140625,2|0,0:0|0:0,0:0:0:0:
50,163,224124,2,0,L|148:136,1,95.9999970703126,2|2,0:0|0:0,0:0:0:0:
232,170,225301,2,0,L|330:143,1,95.9999970703126,2|2,0:0|0:0,0:0:0:0:
386,71,226478,6,0,P|419:156|364:230,1,191.999994140625,2|2,0:0|0:0,0:0:0:0:
324,144,228244,1,8,0:3:0:0:
264,217,228833,2,0,P|230:131|285:57,1,191.999994140625,2|2,0:0|0:0,0:0:0:0:
379,71,230598,1,0,0:0:0:0:
439,145,231187,6,0,P|472:230|417:304,1,191.999994140625,2|2,0:0|0:0,0:0:0:0:
377,218,232952,1,8,0:3:0:0:
317,291,233541,2,0,P|283:205|338:131,1,191.999994140625,2|2,0:0|0:0,0:0:0:0:
204,17,235895,6,0,L|13:40,1,191.999994140625,2|2,0:0|0:0,0:0:0:0:
33,134,237661,1,8,0:3:0:0:
52,228,238249,2,0,L|242:204,1,191.999994140625,2|2,0:0|0:0,0:0:0:0:
257,108,240015,1,0,0:0:0:0:
281,17,240604,6,0,L|471:40,1,191.999994140625,2|2,0:0|0:0,0:0:0:0:
452,134,242369,1,8,0:3:0:0:
433,228,242958,2,0,L|242:204,1,191.999994140625,2|2,0:0|0:0,0:0:0:0:
91,323,245312,6,0,P|55:236|77:145,1,191.999994140625,2|2,0:0|0:0,0:0:0:0:
148,80,247078,1,8,0:3:0:0:
222,140,247666,2,0,P|258:227|236:318,1,191.999994140625,2|2,0:0|0:0,0:0:0:0:
327,346,249432,1,0,0:0:0:0:
420,323,250021,6,0,P|456:236|434:145,1,191.999994140625,2|2,0:0|0:0,0:0:0:0:
364,80,251786,1,8,0:3:0:0:
290,140,252375,2,0,P|253:227|275:318,1,191.999994140625,2|2,0:0|0:0,0:0:0:0:
89,317,254729,6,0,B|51:227|115:223|81:128,1,191.999994140625,2|2,0:0|0:0,0:0:0:0:
156,68,256495,1,8,0:3:0:0:
231,127,257083,2,0,B|197:220|261:224|223:314,1,191.999994140625,2|2,0:0|0:0,0:0:0:0:
322,341,258849,1,0,0:0:0:0:
423,317,259438,6,0,B|461:227|397:223|431:128,1,191.999994140625,2|2,0:0|0:0,0:0:0:0:
356,68,261203,1,8,0:3:0:0:
281,127,261792,2,0,B|315:220|251:224|289:314,1,191.999994140625,2|2,0:0|0:0,0:0:0:0:
101,340,264146,6,0,B|81:235|123:262|94:144,1,191.999994140625,2|2,0:0|0:0,0:0:0:0:
51,69,265912,1,8,0:3:0:0:
138,29,266500,2,0,B|243:9|216:51|334:22,1,191.999994140625,2|2,0:0|0:0,0:0:0:0:
292,112,268266,1,0,0:0:0:0:
256,200,268855,6,0,B|363:184|339:215|452:193,1,191.999994140625,2|2,0:0|0:0,0:0:0:0:
466,288,270620,1,8,0:3:0:0:
373,315,271209,2,0,B|268:335|289:303|177:322,1,191.999994140625,2|2,0:0|0:0,0:0:0:0:
195,130,273563,6,0,B|103:168|103:168|91:259,1,191.999994140625,2|2,0:0|0:0,0:0:0:0:
183,231,275329,1,8,0:3:0:0:
167,328,275917,2,0,B|259:290|259:290|270:198,1,191.999994140625,2|2,0:0|0:0,0:0:0:0:
290,104,277683,1,0,0:0:0:0:
379,104,278271,6,0,B|462:138|462:138|472:221,1,160,2|2,0:0|0:0,0:0:0:0:
388,196,280037,1,8,0:3:0:0:
391,285,280626,2,0,B|316:254|316:254|297:168,1,160,2|2,0:0|0:0,0:0:0:0:
243,49,282980,6,0,L|95:65,1,143.999995605469,2|2,0:0|0:0,0:0:0:0:
47,113,284746,1,8,0:3:0:0:
26,182,285334,2,0,L|42:330,1,143.999995605469,2|2,0:0|0:0,0:0:0:0:
179,357,287688,6,0,L|305:342,1,128,2|2,0:0|0:0,0:0:0:0:
352,301,289454,1,8,0:3:0:0:
371,240,290043,2,0,L|356:112,1,128,2|2,0:0|0:0,0:0:0:0:
256,33,292397,5,2,0:0:0:0:
