osu file format v14

[General]
AudioFilename: audio.mp3
AudioLeadIn: 0
PreviewTime: 35783
Countdown: 0
SampleSet: Soft
StackLeniency: 0.7
Mode: 0
LetterboxInBreaks: 0
WidescreenStoryboard: 0

[Editor]
Bookmarks: 16979,73430,148807,207659
DistanceSpacing: 1
BeatDivisor: 4
GridSize: 16
TimelineZoom: 1

[Metadata]
Title:Another Day In Paradise
TitleUnicode:Another Day In Paradise
Artist:Phil Collins
ArtistUnicode:Phil Collins
Creator:Arphimigon
Version:In Plain Sight
Source:
Tags:collab hightec ...but seriously
BeatmapID:1220138
BeatmapSetID:576323

[Difficulty]
HPDrainRate:5
CircleSize:4
OverallDifficulty:5
ApproachRate:5
SliderMultiplier:1.5
SliderTickRate:1

[Events]
//Background and Video events
0,0,"sad.jpg",0,0
//Break Periods
//Storyboard Layer 0 (Background)
//Storyboard Layer 1 (Fail)
//Storyboard Layer 2 (Pass)
//Storyboard Layer 3 (Foreground)
//Storyboard Sound Samples

[TimingPoints]
16952,588.558424232912,4,2,1,70,1,0
16952,-100,4,2,1,70,0,1
35785,-100,4,2,1,20,0,0
73453,-100,4,2,1,50,0,0
92287,-100,4,2,1,70,0,1
111121,-100,4,2,1,20,0,0
129955,-100,4,2,1,50,0,0
148789,-83.3333333333333,4,2,1,70,0,1
167622,-83.3333333333333,4,2,1,70,0,0
188811,-100,4,2,1,50,0,0
207644,-83.3333333333333,4,2,1,60,0,0
226478,-83.3333333333333,4,2,1,70,0,1
278271,-100,4,2,1,70,0,1
282980,-100,4,2,1,60,0,1
287688,-100,4,2,1,45,0,1
290043,-100,4,2,1,35,0,1
291220,-100,4,2,1,25,0,1
291514,-100,4,2,1,22,0,1
291808,-100,4,2,1,19,0,1
292103,-100,4,2,1,16,0,1
292397,-100,4,2,1,15,0,0

[Colours]
Combo1 : 0,128,255
Combo2 : 255,255,0

[HitObjects]
79,47,16952,6,0,P|110:115|104:189,1,150,2|8,0:0|0:3,0:0:0:0:
90,263,17834,1,0,0:0:0:0:
161,240,18129,2,0,P|234:247|295:290,1,150,2|8,0:0|0:3,0:0:0:0:
423,211,19306,2,0,L|415:128,1,75,2|0,0:0|0:0,0:0:0:0:
378,71,19894,1,8,0:3:0:0:
346,219,20483,2,0,P|386:280|458:280,1,150,2|8,0:0|0:3,0:0:0:0:
384,147,21660,6,0,B|326:119|292:180|240:147,1,150,2|8,0:0|0:3,0:0:0:0:
273,80,22543,1,0,0:0:0:0:
198,78,22837,2,0,P|159:139|187:205,1,150,2|8,0:0|0:3,0:0:0:0:
312,289,24014,2,0,L|386:278,1,75,2|0,0:0|0:0,0:0:0:0:
460,265,24603,1,8,0:3:0:0:
343,357,25191,2,0,P|271:353|237:290,1,150,2|8,0:0|0:3,0:0:0:0:
237,140,26368,6,0,P|166:117|98:141,1,150,2|8,0:0|0:3,0:0:0:0:
42,192,27251,1,0,0:0:0:0:
97,242,27546,2,0,P|166:266|237:244,1,150,2|8,0:0|0:3,0:0:0:0:
349,144,28723,2,0,L|434:154,1,75,2|0,0:0|0:0,0:0:0:0:
454,220,29311,1,8,0:3:0:0:
304,205,29900,2,0,P|272:140|309:79,1,150,2|8,0:0|0:3,0:0:0:0:
382,220,31077,6,0,B|374:259|339:278|339:278|309:310|271:305,1,150,2|8,0:0|0:3,0:0:0:0:
279,230,31960,1,0,0:0:0:0:
206,217,32254,2,0,B|214:178|249:159|249:159|279:127|317:132,1,150,2|8,0:0|0:3,0:0:0:0:
196,42,33431,2,0,L|114:51,1,75,2|0,0:0|0:0,0:0:0:0:
58,100,34020,1,8,0:3:0:0:
194,162,34608,2,0,P|201:256|166:292,1,150,2|8,0:0|0:3,0:0:0:0:
304,350,35785,6,0,L|452:330,1,150,2|0,0:0|0:0,0:0:0:0:
492,186,36962,2,0,L|343:166,1,150,0|0,0:0|0:0,0:0:0:0:
282,304,38140,2,0,L|430:284,1,150,2|0,0:0|0:0,0:0:0:0:
470,140,39317,2,0,L|321:120,1,150,0|0,0:0|0:0,0:0:0:0:
181,177,40494,6,0,P|109:182|54:133,1,150,2|0,0:0|0:0,0:0:0:0:
141,11,41671,2,0,P|213:5|268:54,1,150,0|0,0:0|0:0,0:0:0:0:
208,191,42848,2,0,P|135:196|80:147,1,150,2|0,0:0|0:0,0:0:0:0:
167,25,44025,2,0,P|239:19|294:68,1,150,0|0,0:0|0:0,0:0:0:0:
279,217,45202,6,0,L|449:192,1,150,2|0,0:0|0:0,0:0:0:0:
387,339,46379,2,0,L|217:314,1,150,0|0,0:0|0:0,0:0:0:0:
269,170,47557,2,0,L|439:145,1,150,2|0,0:0|0:0,0:0:0:0:
377,292,48734,2,0,L|207:267,1,150,0|0,0:0|0:0,0:0:0:0:
155,139,49911,6,0,P|90:153|44:229,1,150,2|0,0:0|0:0,0:0:0:0:
118,350,51088,2,0,P|183:336|229:260,1,150,0|0,0:0|0:0,0:0:0:0:
216,120,52265,2,0,P|151:134|105:210,1,150,2|0,0:0|0:0,0:0:0:0:
179,331,53442,2,0,P|244:317|290:241,1,150,0|0,0:0|0:0,0:0:0:0:
304,96,54619,6,0,L|464:112,1,150,2|0,0:0|0:0,0:0:0:0:
439,266,55796,2,0,L|279:250,1,150,0|0,0:0|0:0,0:0:0:0:
232,112,56973,2,0,L|392:128,1,150,2|0,0:0|0:0,0:0:0:0:
367,282,58151,2,0,L|207:266,1,150,0|0,0:0|0:0,0:0:0:0:
132,142,59328,6,0,P|91:203|105:275,1,150,2|0,0:0|0:0,0:0:0:0:
244,331,60505,2,0,P|257:259|217:198,1,150,0|0,0:0|0:0,0:0:0:0:
96,109,61682,2,0,P|55:169|69:241,1,150,2|0,0:0|0:0,0:0:0:0:
208,297,62859,2,0,P|221:225|181:164,1,150,0|0,0:0|0:0,0:0:0:0:
118,28,64036,6,0,L|281:41,1,150,2|0,0:0|0:0,0:0:0:0:
315,182,65213,2,0,L|152:169,1,150,0|0,0:0|0:0,0:0:0:0:
75,49,66390,2,0,L|238:62,1,150,2|0,0:0|0:0,0:0:0:0:
272,203,67568,2,0,L|109:190,1,150,0|0,0:0|0:0,0:0:0:0:
51,323,68745,6,0,P|120:343|181:304,1,150,2|0,0:0|0:0,0:0:0:0:
256,174,69922,2,0,P|194:134|125:155,1,150,0|0,0:0|0:0,0:0:0:0:
125,305,71099,2,0,P|194:325|255:286,1,150,2|0,0:0|0:0,0:0:0:0:
330,156,72276,2,0,P|268:116|199:137,1,150,0|0,0:0|0:0,0:0:0:0:
75,222,73453,6,0,B|51:133|98:166|76:74,2,150,2|0|0,0:0|0:0|0:0,0:0:0:0:
195,311,75219,1,0,0:0:0:0:
316,222,75807,2,0,B|292:133|339:166|317:74,2,150,2|0|0,0:0|0:0|0:0,0:0:0:0:
419,330,77573,2,0,L|337:324,1,75
269,316,78162,6,0,L|187:310,1,75,2|0,0:0|0:0,0:0:0:0:
119,303,78750,2,0,L|37:297,1,75,0|0,0:0|0:0,0:0:0:0:
11,230,79339,2,0,P|69:201|97:112,1,150
247,107,80516,2,0,P|270:176|332:222,2,150,2|0|0,0:0|0:0|0:0,0:0:0:0:
395,84,82281,1,0,0:0:0:0:
493,197,82870,6,0,B|487:236|487:236|503:267|503:267|490:308|499:341,2,150,2|0|0,0:0|0:0|0:0,0:0:0:0:
395,84,84636,1,0,0:0:0:0:
329,221,85224,2,0,B|323:260|323:260|339:291|339:291|326:332|335:365,2,150,2|0|0,0:0|0:0|0:0,0:0:0:0:
230,107,86990,2,0,L|138:120,1,75
105,172,87579,6,0,L|118:264,1,75,2|0,0:0|0:0,0:0:0:0:
176,290,88167,2,0,L|268:277,1,75,0|0,0:0|0:0,0:0:0:0:
312,238,88756,2,0,P|385:244|440:196,1,150,0|0,0:0|0:0,0:0:0:0:
357,71,89933,5,2,0:0:0:0:
214,73,90521,1,2,0:0:0:0:
149,201,91110,1,2,0:0:0:0:
230,318,91698,1,2,0:0:0:0:
379,305,92287,6,0,P|402:239|392:134,1,150,0|8,0:0|0:3,0:0:0:0:
333,192,93170,1,0,0:0:0:0:
317,265,93464,2,0,P|243:268|172:244,1,150,2|8,0:0|0:3,0:0:0:0:
239,109,94641,2,0,L|160:68,1,75,2|0,0:0|0:0,0:0:0:0:
105,108,95230,1,8,0:3:0:0:
233,183,95818,2,0,P|289:165|304:74,1,150,2|8,0:0|0:3,0:0:0:0:
159,68,96995,6,0,P|90:97|53:161,1,150,2|8,0:0|0:3,0:0:0:0:
123,186,97878,1,0,0:0:0:0:
195,205,98173,2,0,P|157:268|89:297,1,150,2|8,0:0|0:3,0:0:0:0:
54,150,99350,2,0,L|71:60,1,75,2|0,0:0|0:0,0:0:0:0:
117,19,99938,1,8,0:3:0:0:
268,15,100527,2,0,B|325:82|265:81|319:151,1,150,2|8,0:0|0:3,0:0:0:0:
450,224,101704,6,0,L|314:330,1,150,2|8,0:0|0:3,0:0:0:0:
260,290,102587,1,0,0:0:0:0:
312,236,102881,2,0,L|430:143,1,150,2|8,0:0|0:3,0:0:0:0:
473,286,104058,2,0,P|458:337|436:374,1,75,2|0,0:0|0:0,0:0:0:0:
373,366,104647,1,8,0:3:0:0:
365,215,105235,2,0,P|348:141|263:128,1,150,2|8,0:0|0:3,0:0:0:0:
133,121,106412,6,0,P|65:97|51:26,1,150,2|8,0:0|0:3,0:0:0:0:
120,49,107295,1,0,0:0:0:0:
133,121,107589,2,0,L|156:293,1,150,2|8,0:0|0:3,0:0:0:0:
280,349,108767,2,0,L|300:252,1,75,2|0,0:0|0:0,0:0:0:0:
293,200,109355,1,8,0:3:0:0:
144,176,109944,2,0,P|117:105|174:25,1,150,2|8,0:0|0:3,0:0:0:0:
230,167,111121,6,0,L|276:323,1,150,2|0,0:0|0:0,0:0:0:0:
374,199,112298,2,0,L|328:43,1,150
240,176,113475,2,0,L|286:332,1,150,2|0,0:0|0:0,0:0:0:0:
384,208,114652,2,0,L|338:52,1,150
194,91,115829,6,0,P|121:110|50:79,1,150,2|0,0:0|0:0,0:0:0:0:
113,209,117006,2,0,P|186:190|257:221,1,150,0|0,0:0|0:0,0:0:0:0:
384,128,118184,2,0,P|311:147|240:116,1,150,2|0,0:0|0:0,0:0:0:0:
346,243,119361,2,0,P|419:224|490:255,1,150
363,319,120538,6,0,P|293:302|268:235,1,150,2|0,0:0|0:0,0:0:0:0:
270,88,121715,2,0,P|343:108|351:206,1,150,0|0,0:0|0:0,0:0:0:0:
236,250,122892,2,0,P|163:230|155:132,1,150,2|0,0:0|0:0,0:0:0:0:
153,20,124069,2,0,P|226:40|234:138,1,150,0|0,0:0|0:0,0:0:0:0:
104,152,125246,6,0,L|150:322,1,150,2|0,0:0|0:0,0:0:0:0:
286,249,126423,2,0,L|240:79,1,150,0|0,0:0|0:0,0:0:0:0:
167,231,127600,2,0,L|213:401,1,150,2|0,0:0|0:0,0:0:0:0:
349,328,128778,2,0,L|303:158,1,150,0|0,0:0|0:0,0:0:0:0:
160,193,129955,6,0,B|94:137|145:130|74:73,2,150,2|0|0,0:0|0:0|0:0,0:0:0:0:
297,251,131720,1,0,0:0:0:0:
214,125,132309,2,0,B|148:69|199:62|128:5,2,150,2|0|0,0:0|0:0|0:0,0:0:0:0:
315,13,134075,2,0,L|354:93,1,75
409,122,134663,6,0,L|376:189,1,75,2|0,0:0|0:0,0:0:0:0:
316,231,135252,2,0,L|348:298,1,75,0|0,0:0|0:0,0:0:0:0:
423,289,135840,2,0,P|448:220|506:174,1,150,0|0,0:0|0:0,0:0:0:0:
439,39,137017,2,0,P|384:31|283:73,2,150,2|0|0,0:0|0:0|0:0,0:0:0:0:
345,154,138783,1,0,0:0:0:0:
208,92,139372,6,0,B|117:85|159:48|69:43,2,150,2|0|0,0:0|0:0|0:0,0:0:0:0:
292,219,141137,1,0,0:0:0:0:
154,279,141726,2,0,B|63:272|105:235|15:230,2,150,2|0|0,0:0|0:0|0:0,0:0:0:0:
300,315,143492,2,0,L|390:284,1,75
416,230,144080,6,0,L|326:199,1,75,2|0,0:0|0:0,0:0:0:0:
300,145,144669,2,0,L|370:120,1,75,0|0,0:0|0:0,0:0:0:0:
365,45,145257,2,0,P|265:55|203:9,1,150,0|0,0:0|0:0,0:0:0:0:
86,91,146434,5,2,0:0:0:0:
132,233,147023,1,2,0:0:0:0:
256,316,147611,1,2,0:0:0:0:
404,333,148200,1,2,0:0:0:0:
435,264,148494,2,0,L|457:213,1,37.5,0|0,0:0|0:0,0:0:0:0:
481,196,148789,6,0,P|403:159|389:73,1,179.999994506836,2|8,0:0|0:3,0:0:0:0:
460,18,149671,1,0,0:0:0:0:
477,102,149966,2,0,B|389:117|432:192|342:206,1,179.999994506836,2|8,0:0|0:3,0:0:0:0:
174,150,151143,2,0,P|165:193|172:237,1,89.9999972534181,2|0,0:0|0:0,0:0:0:0:
235,302,151731,1,8,0:3:0:0:
409,257,152320,1,2,0:0:0:0:
415,167,152614,1,0,0:0:0:0:
487,220,152908,1,8,0:3:0:0:
307,210,153497,6,0,B|293:168|293:168|346:109|305:42,1,179.999994506836,2|8,0:0|0:3,0:0:0:0:
231,99,154380,1,0,0:0:0:0:
159,43,154674,2,0,B|118:109|171:169|171:169|157:210,1,179.999994506836,2|8,0:0|0:3,0:0:0:0:
35,339,155851,2,0,P|117:328|139:334,1,89.9999972534181,2|0,0:0|0:0,0:0:0:0:
209,354,156440,1,8,0:3:0:0:
381,303,157028,1,2,0:0:0:0:
351,217,157323,1,0,0:0:0:0:
385,134,157617,1,8,0:3:0:0:
228,45,158206,6,0,P|155:97|67:110,1,179.999994506836,2|8,0:0|0:3,0:0:0:0:
29,192,159088,1,0,0:0:0:0:
67,273,159383,2,0,P|155:286|228:338,1,179.999994506836,2|8,0:0|0:3,0:0:0:0:
397,276,160560,2,0,L|376:183,1,89.9999972534181,2|0,0:0|0:0,0:0:0:0:
354,100,161148,1,8,0:3:0:0:
192,180,161737,1,2,0:0:0:0:
134,110,162031,1,0,0:0:0:0:
222,95,162325,1,8,0:3:0:0:
281,264,162914,6,0,B|181:238|199:285|103:259,1,179.999994506836,2|8,0:0|0:3,0:0:0:0:
26,306,163797,1,0,0:0:0:0:
102,353,164091,2,0,B|202:379|184:332|279:357,1,179.999994506836,2|8,0:0|0:3,0:0:0:0:
377,206,165268,2,0,P|364:153|366:111,1,89.9999972534181,2|0,0:0|0:0,0:0:0:0:
379,29,165857,1,8,0:3:0:0:
205,77,166445,1,2,0:0:0:0:
118,101,166740,1,0,0:0:0:0:
33,70,167034,1,8,0:3:0:0:
40,249,167622,6,0,P|127:252|170:327,1,179.999994506836,2|8,0:0|0:3,0:0:0:0:
341,272,168800,2,0,P|254:268|211:193,1,179.999994506836,2|8,0:0|0:3,0:0:0:0:
303,195,169682,1,0,0:0:0:0:
303,195,169977,2,0,B|271:92|332:132|297:16,2,179.999994506836,2|8|2,0:0|0:3|0:0,0:0:0:0:
429,322,171742,1,8,0:2:0:0:
350,279,172037,2,0,P|342:326|356:374,1,89.9999972534181,0|2,0:0|0:0,0:0:0:0:
261,362,172625,1,0,0:0:0:0:
262,272,172919,1,0,0:0:0:0:
80,236,173508,2,0,P|70:192|78:148,1,89.9999972534181,2|0,0:0|0:0,0:0:0:0:
162,114,174097,2,0,P|206:121|249:112,1,89.9999972534181,8|0,0:3|0:0,0:0:0:0:
335,85,174685,1,2,0:0:0:0:
397,149,174979,2,0,L|411:247,1,89.9999972534181,0|8,0:0|0:3,0:0:0:0:
463,310,175568,2,0,P|386:266|297:293,1,179.999994506836,0|0,0:0|0:0,0:0:0:0:
232,346,176451,1,8,0:3:0:0:
69,268,177039,6,0,B|90:177|90:177|136:171|162:133,1,179.999994506836,2|8,0:0|0:3,0:0:0:0:
349,133,178217,2,0,B|376:171|421:177|421:177|443:268,1,179.999994506836,2|8,0:0|0:3,0:0:0:0:
353,256,179099,1,0,0:0:0:0:
353,256,179394,2,0,B|261:227|251:275|175:248,2,179.999994506836,2|8|2,0:0|0:3|0:0,0:0:0:0:
368,344,180865,1,0,0:0:0:0:
368,344,181159,2,0,P|300:350|270:336,1,89.9999972534181,8|0,0:3|0:0,0:0:0:0:
192,356,181748,1,2,0:0:0:0:
192,356,182042,2,0,P|211:304|198:259,1,89.9999972534181,0|8,0:0|0:3,0:0:0:0:
150,199,182631,2,0,P|143:118|189:27,1,179.999994506836,0|0,0:0|0:0,0:0:0:0:
274,22,183514,1,8,0:3:0:0:
362,38,183808,6,0,B|405:41|429:76|429:76|370:154|263:147|263:147|408:209|446:338|446:338|270:397|192:321,1,809.999975280763
131,161,187045,1,8,0:3:0:0:
278,58,187633,2,0,L|377:72,1,89.9999972534181,2|0,0:0|0:0,0:0:0:0:
424,140,188222,1,8,0:3:0:0:
391,223,188516,1,0,0:0:0:0:
305,247,188811,6,0,L|155:257,1,150,2|0,0:0|0:0,0:0:0:0:
144,107,189988,2,0,L|155:257,1,150,0|0,0:0|0:0,0:0:0:0:
144,107,191165,2,0,L|293:96,1,150,2|0,0:0|0:0,0:0:0:0:
304,246,192342,2,0,L|293:96,1,150,0|0,0:0|0:0,0:0:0:0:
143,92,193519,6,0,P|117:162|134:234,1,150,2|0,0:0|0:0,0:0:0:0:
275,242,194696,2,0,P|203:259|134:234,1,150,0|0,0:0|0:0,0:0:0:0:
275,242,195873,2,0,P|300:172|283:100,1,150,2|0,0:0|0:0,0:0:0:0:
142,92,197050,2,0,P|213:74|283:100,1,150,0|0,0:0|0:0,0:0:0:0:
373,220,198227,6,0,B|328:280|328:280|334:354,1,150,2|0,0:0|0:0,0:0:0:0:
199,316,199405,2,0,B|273:309|273:309|333:354,1,150,0|0,0:0|0:0,0:0:0:0:
199,316,200582,2,0,B|244:256|244:256|237:181,1,150,2|0,0:0|0:0,0:0:0:0:
372,220,201759,2,0,B|297:226|297:226|237:181,1,150
92,218,202936,6,0,B|85:304|143:275|136:358,1,150,2|0,0:0|0:0,0:0:0:0:
92,218,204113,2,0,B|172:224|143:166|229:174,1,150
273,311,205290,2,0,B|280:225|222:254|229:174,1,150,2|0,0:0|0:0,0:0:0:0:
273,311,206467,2,0,B|192:304|221:362|135:354,1,150
58,307,207350,1,0,0:0:0:0:
84,220,207644,6,0,P|97:138|55:47,2,179.999994506836,2|0|0,0:0|0:0|0:0,0:0:0:0:
212,346,209410,1,0,0:0:0:0:
341,220,209999,2,0,P|328:138|370:47,2,179.999994506836,2|0|0,0:0|0:0|0:0,0:0:0:0:
463,352,211764,2,0,L|366:346,1,89.9999972534181
284,331,212353,6,0,L|290:234,1,89.9999972534181,2|0,0:0|0:0,0:0:0:0:
295,151,212941,2,0,L|198:145,1,89.9999972534181,0|0,0:0|0:0,0:0:0:0:
124,104,213530,2,0,B|81:192|161:183|122:276,1,179.999994506836
294,323,214707,2,0,B|336:234|256:243|295:150,2,179.999994506836,2|0|0,0:0|0:0|0:0,0:0:0:0:
414,189,216473,1,0,0:0:0:0:
288,60,217061,6,0,B|221:71|221:71|174:43|174:43|117:51,2,179.999994506836,2|0|0,0:0|0:0|0:0,0:0:0:0:
409,192,218827,1,0,0:0:0:0:
288,324,219416,2,0,B|221:313|221:313|174:341|174:341|117:332,2,179.999994506836,2|0|0,0:0|0:0|0:0,0:0:0:0:
190,173,221181,2,0,P|149:190|104:190,1,89.9999972534181
51,116,221770,6,0,P|55:71|78:33,1,89.9999972534181,2|0,0:0|0:0,0:0:0:0:
167,19,222358,2,0,P|202:45|224:84,1,89.9999972534181
274,161,222947,2,0,P|359:186|443:159,1,179.999994506836
484,339,224124,5,2,0:0:0:0:
312,362,224713,1,2,0:0:0:0:
194,235,225301,1,2,0:0:0:0:
230,65,225890,1,2,0:0:0:0:
320,70,226184,2,0,L|369:73,1,44.999998626709,0|0,0:0|0:0,0:0:0:0:
402,48,226478,6,0,P|404:125|498:225,1,179.999994506836,2|8,0:0|0:3,0:0:0:0:
426,289,227361,1,0,0:0:0:0:
348,243,227655,2,0,P|271:245|171:339,1,179.999994506836,2|8,0:0|0:3,0:0:0:0:
30,219,228833,2,0,P|21:163|30:101,1,89.9999972534181,2|0,0:0|0:0,0:0:0:0:
68,52,229421,1,8,0:3:0:0:
192,181,230010,1,2,0:0:0:0:
277,207,230304,1,0,0:0:0:0:
212,268,230598,1,8,0:3:0:0:
272,98,231187,6,0,P|354:66|434:103,1,179.999994506836,2|8,0:0|0:3,0:0:0:0:
456,189,232070,1,0,0:0:0:0:
433,276,232364,2,0,P|351:308|271:271,1,179.999994506836,2|8,0:0|0:3,0:0:0:0:
143,144,233541,2,0,L|32:125,1,89.9999972534181,2|0,0:0|0:0,0:0:0:0:
10,49,234130,1,8,0:3:0:0:
189,52,234718,1,2,0:0:0:0:
267,20,235012,1,0,0:0:0:0:
352,37,235307,1,8,0:3:0:0:
264,194,235895,6,0,P|265:290|341:339,1,179.999994506836,2|8,0:0|0:3,0:0:0:0:
415,319,236778,1,0,0:0:0:0:
369,235,237072,2,0,P|280:265|192:196,1,179.999994506836,2|8,0:0|0:3,0:0:0:0:
319,83,238249,2,0,P|360:114|373:156,1,89.9999972534181,2|0,0:0|0:0,0:0:0:0:
292,163,238838,1,8,0:3:0:0:
129,194,239427,1,2,0:0:0:0:
66,265,239721,1,0,0:0:0:0:
57,360,240015,1,8,0:3:0:0:
206,262,240604,6,0,P|186:175|120:116,1,179.999994506836,2|8,0:0|0:3,0:0:0:0:
138,27,241487,1,0,0:0:0:0:
228,36,241781,2,0,P|248:122|314:181,1,179.999994506836,2|8,0:0|0:3,0:0:0:0:
447,65,242958,2,0,P|457:135|452:170,1,89.9999972534181,2|0,0:0|0:0,0:0:0:0:
419,236,243546,1,8,0:3:0:0:
271,339,244135,1,2,0:0:0:0:
228,259,244429,1,0,0:0:0:0:
142,286,244724,1,8,0:3:0:0:
321,269,245312,6,0,P|390:238|433:116,1,179.999994506836,2|8,0:0|0:3,0:0:0:0:
393,67,246195,1,0,0:0:0:0:
327,128,246489,2,0,P|258:97|215:-25,1,179.999994506836,2|8,0:0|0:3,0:0:0:0:
393,67,247666,2,0,L|440:157,1,89.9999972534181,2|0,0:0|0:0,0:0:0:0:
404,231,248255,1,8,0:3:0:0:
238,149,248844,1,2,0:0:0:0:
156,110,249138,1,0,0:0:0:0:
98,179,249432,1,8,0:3:0:0:
206,323,250021,6,0,B|260:318|296:332|296:332|320:294|361:273,1,179.999994506836,2|8,0:0|0:3,0:0:0:0:
389,194,250903,1,0,0:0:0:0:
299,203,251198,2,0,B|281:156|251:128|251:128|268:87|258:39,1,179.999994506836,2|8,0:0|0:3,0:0:0:0:
423,113,252375,2,0,P|450:167|453:205,1,89.9999972534181,2|0,0:0|0:0,0:0:0:0:
420,279,252963,1,8,0:3:0:0:
314,133,253552,1,2,0:0:0:0:
242,77,253846,1,0,0:0:0:0:
153,85,254141,1,8,0:3:0:0:
245,230,254729,6,0,P|238:297|153:382,1,179.999994506836,2|8,0:0|0:3,0:0:0:0:
76,359,255612,1,0,0:0:0:0:
15,292,255906,2,0,P|22:225|107:140,1,179.999994506836,2|8,0:0|0:3,0:0:0:0:
204,287,257083,2,0,P|265:303|307:308,1,89.9999972534181,2|0,0:0|0:0,0:0:0:0:
376,275,257672,1,8,0:3:0:0:
266,132,258260,1,2,0:0:0:0:
306,51,258555,1,0,0:0:0:0:
390,19,258849,1,8,0:3:0:0:
388,198,259438,6,0,P|379:271|471:343,1,179.999994506836,2|8,0:0|0:3,0:0:0:0:
471,246,260320,1,0,0:0:0:0:
388,198,260615,2,0,P|299:208|210:192,1,179.999994506836,2|8,0:0|0:3,0:0:0:0:
320,40,261792,2,0,L|411:61,1,89.9999972534181,2|0,0:0|0:0,0:0:0:0:
467,127,262380,1,8,0:3:0:0:
356,269,262969,1,2,0:0:0:0:
280,318,263263,1,0,0:0:0:0:
280,228,263557,1,8,0:3:0:0:
356,179,263852,1,0,0:0:0:0:
415,246,264146,6,0,P|355:332|281:365,1,179.999994506836,2|8,0:0|0:3,0:0:0:0:
212,316,265029,1,0,0:0:0:0:
262,241,265323,2,0,P|202:155|128:122,1,179.999994506836,2|8,0:0|0:3,0:0:0:0:
89,297,266500,2,0,L|184:327,1,89.9999972534181,2|0,0:0|0:0,0:0:0:0:
262,305,267089,1,8,0:3:0:0:
230,127,267677,1,2,0:0:0:0:
255,40,267972,1,0,0:0:0:0:
344,30,268266,1,8,0:3:0:0:
275,196,268855,6,0,P|220:218|97:174,1,179.999994506836,2|8,0:0|0:3,0:0:0:0:
99,95,269737,1,0,0:0:0:0:
175,133,270032,2,0,P|197:188|153:311,1,179.999994506836,2|8,0:0|0:3,0:0:0:0:
13,208,271209,2,0,L|4:107,1,89.9999972534181,2|0,0:0|0:0,0:0:0:0:
55,49,271797,1,8,0:3:0:0:
221,135,272386,1,2,0:0:0:0:
306,163,272680,1,0,0:0:0:0:
383,116,272974,1,8,0:3:0:0:
447,284,273563,6,0,P|385:294|262:267,1,179.999994506836,2|8,0:0|0:3,0:0:0:0:
206,208,274446,1,0,0:0:0:0:
292,182,274740,2,0,P|284:98|239:11,1,179.999994506836,2|8,0:0|0:3,0:0:0:0:
153,170,275917,2,0,P|157:249|175:297,1,89.9999972534181,2|0,0:0|0:0,0:0:0:0:
238,302,276506,1,8,0:3:0:0:
338,131,277094,1,2,0:0:0:0:
425,151,277389,1,0,0:0:0:0:
416,240,277683,1,8,0:3:0:0:
335,280,277977,2,0,L|264:285,1,44.999998626709,0|0,0:0|0:0,0:0:0:0:
257,300,278271,6,0,P|262:226|224:138,1,150,2|8,0:0|0:3,0:0:0:0:
170,191,279154,1,0,0:0:0:0:
189,263,279449,2,0,P|119:288|44:283,1,150,2|8,0:0|0:3,0:0:0:0:
60,134,280626,2,0,L|89:34,1,75,2|0,0:0|0:0,0:0:0:0:
151,36,281214,1,8,0:3:0:0:
279,113,281803,1,2,0:0:0:0:
343,152,282097,1,0,0:0:0:0:
347,77,282391,1,8,0:3:0:0:
265,202,282980,6,0,P|302:305|363:339,1,150,2|8,0:0|0:3,0:0:0:0:
396,289,283863,1,0,0:0:0:0:
379,216,284157,2,0,P|431:163|445:91,1,150,2|8,0:0|0:3,0:0:0:0:
316,167,285334,2,0,P|260:200|227:207,1,75,2|0,0:0|0:0,0:0:0:0:
183,169,285923,1,8,0:3:0:0:
136,26,286511,1,2,0:0:0:0:
86,82,286806,1,0,0:0:0:0:
98,155,287100,1,8,0:3:0:0:
244,187,287688,6,0,P|254:87|291:69,1,150,2|8,0:0|0:3,0:0:0:0:
306,144,288571,1,0,0:0:0:0:
349,205,288865,2,0,P|276:269|200:279,1,150,2|8,0:0|0:3,0:0:0:0:
91,214,290043,2,0,L|80:113,1,75,2|0,0:0|0:0,0:0:0:0:
108,69,290631,1,8,0:3:0:0:
259,81,291220,1,2,0:0:0:0:
247,154,291514,1,0,0:0:0:0:
316,126,291808,1,8,0:3:0:0:
329,52,292103,1,0,0:0:0:0:
259,81,292397,5,2,0:0:0:0:
