osu file format v14

[General]
AudioFilename: audio.mp3
AudioLeadIn: 0
PreviewTime: -1
Countdown: 0
SampleSet: None
StackLeniency: 0.7
Mode: 0
LetterboxInBreaks: 0
WidescreenStoryboard: 1

[Editor]
DistanceSpacing: 1.3
BeatDivisor: 4
GridSize: 4
TimelineZoom: 1

[Metadata]
Title:Sensi
TitleUnicode:Sensi
Artist:Phibes
ArtistUnicode:Phibes
Creator:Buzzy
Version:square
Source:
Tags:
BeatmapID:4576682
BeatmapSetID:2168897

[Difficulty]
HPDrainRate:5.8
CircleSize:5
OverallDifficulty:9
ApproachRate:9.5
SliderMultiplier:1.4
SliderTickRate:1

[Events]
//Background and Video events
//Break Periods
//Storyboard Layer 0 (Background)
//Storyboard Layer 1 (Fail)
//Storyboard Layer 2 (Pass)
//Storyboard Layer 3 (Foreground)
//Storyboard Layer 4 (Overlay)
//Storyboard Sound Samples

[TimingPoints]
0,348.837209302326,4,1,0,100,1,0
0,-20,4,1,0,100,0,0
8372,-40,4,1,0,100,0,0
50232,-100,4,1,0,100,0,0
54593,-30.3030303030303,4,1,0,100,0,0
57383,-40,4,1,0,100,0,0
58953,-13.5135135135135,4,1,0,100,0,0
60000,-106.382978723404,4,1,0,100,0,0
61744,-20,4,1,0,100,0,0
68899,-10,4,1,0,100,0,0

[HitObjects]
256,192,0,12,0,7936,0:0:0:0:
45,99,8372,6,0,P|77:170|187:189,1,175
203,68,8720,1,0,0:0:0:0:
361,92,8895,6,0,B|323:197|248:212|241:217,1,175
203,68,9244,1,0,0:0:0:0:
126,148,9418,5,0,0:0:0:0:
149,172,9505,1,0,0:0:0:0:
177,187,9593,1,0,0:0:0:0:
207,195,9680,1,0,0:0:0:0:
231,194,9767,2,0,P|347:250|371:197,1,175
331,112,10116,5,0,0:0:0:0:
221,142,10290,2,0,B|92:160|32:143|36:143,1,175
152,215,10639,1,0,0:0:0:0:
266,134,10814,1,0,0:0:0:0:
275,170,10901,1,0,0:0:0:0:
273,202,10988,1,0,0:0:0:0:
261,236,11076,1,0,0:0:0:0:
256,192,11162,12,0,43255,0:0:0:0:
219,173,44651,5,0,0:0:0:0:
229,143,44738,1,0,0:0:0:0:
243,115,44825,1,0,0:0:0:0:
259,88,44912,1,0,0:0:0:0:
279,63,44999,1,0,0:0:0:0:
303,43,45087,1,0,0:0:0:0:
331,29,45174,1,0,0:0:0:0:
362,27,45261,1,0,0:0:0:0:
391,39,45348,1,0,0:0:0:0:
410,64,45435,1,0,0:0:0:0:
417,95,45523,1,0,0:0:0:0:
412,126,45610,1,0,0:0:0:0:
394,152,45697,1,0,0:0:0:0:
368,169,45784,1,0,0:0:0:0:
338,178,45871,1,0,0:0:0:0:
307,180,45959,1,0,0:0:0:0:
275,178,46046,1,0,0:0:0:0:
244,173,46133,1,0,0:0:0:0:
213,167,46220,1,0,0:0:0:0:
182,160,46307,1,0,0:0:0:0:
151,154,46395,1,0,0:0:0:0:
120,150,46482,1,0,0:0:0:0:
89,149,46569,1,0,0:0:0:0:
58,156,46656,1,0,0:0:0:0:
36,177,46744,1,0,0:0:0:0:
32,208,46831,1,0,0:0:0:0:
42,237,46918,1,0,0:0:0:0:
61,263,47005,1,0,0:0:0:0:
86,281,47092,1,0,0:0:0:0:
116,290,47180,1,0,0:0:0:0:
147,285,47267,1,0,0:0:0:0:
173,268,47354,1,0,0:0:0:0:
193,182,47441,5,0,0:0:0:0:
203,152,47528,1,0,0:0:0:0:
217,124,47615,1,0,0:0:0:0:
233,97,47702,1,0,0:0:0:0:
253,72,47789,1,0,0:0:0:0:
277,52,47877,1,0,0:0:0:0:
305,38,47964,1,0,0:0:0:0:
336,36,48051,1,0,0:0:0:0:
365,48,48138,1,0,0:0:0:0:
384,73,48225,1,0,0:0:0:0:
391,104,48313,1,0,0:0:0:0:
386,135,48400,1,0,0:0:0:0:
368,161,48487,1,0,0:0:0:0:
342,178,48574,1,0,0:0:0:0:
312,187,48661,1,0,0:0:0:0:
281,189,48749,1,0,0:0:0:0:
249,187,48836,1,0,0:0:0:0:
218,182,48923,1,0,0:0:0:0:
187,176,49010,1,0,0:0:0:0:
156,169,49097,1,0,0:0:0:0:
125,163,49185,1,0,0:0:0:0:
94,159,49272,1,0,0:0:0:0:
63,158,49359,1,0,0:0:0:0:
32,165,49446,1,0,0:0:0:0:
10,186,49534,1,0,0:0:0:0:
6,217,49621,1,0,0:0:0:0:
16,246,49708,1,0,0:0:0:0:
35,272,49795,1,0,0:0:0:0:
60,290,49882,1,0,0:0:0:0:
90,299,49970,1,0,0:0:0:0:
121,294,50057,1,0,0:0:0:0:
147,277,50144,1,0,0:0:0:0:
153,261,50406,5,0,0:0:0:0:
325,267,50581,1,0,0:0:0:0:
320,115,50755,1,0,0:0:0:0:
126,72,50930,5,0,0:0:0:0:
122,283,51104,1,0,0:0:0:0:
351,295,51278,1,0,0:0:0:0:
351,81,51453,1,0,0:0:0:0:
375,315,51627,5,0,0:0:0:0:
96,308,51802,1,0,0:0:0:0:
108,54,51976,1,0,0:0:0:0:
372,57,52151,1,0,0:0:0:0:
81,35,52325,5,0,0:0:0:0:
65,323,52499,1,0,0:0:0:0:
386,322,52674,1,0,0:0:0:0:
397,43,52848,1,0,0:0:0:0:
179,122,53023,5,0,0:0:0:0:
293,180,53197,2,0,B|222:213|220:214|221:214,1,70
104,231,53546,1,0,0:0:0:0:
179,122,53720,1,0,0:0:0:0:
271,188,53895,6,0,L|201:225,1,70
104,231,54244,1,0,0:0:0:0:
179,122,54418,1,0,0:0:0:0:
264,189,54593,2,0,B|152:241|-23:59|258:11|310:233|-50:244|-7:69,1,455
256,192,55116,12,0,55813,0:0:0:0:
30,101,56162,6,0,B|55:228|128:299|128:311,1,231.000002202988
127,308,56337,2,0,B|145:142|230:32|202:48,1,231.000002202988
192,87,56511,2,0,B|241:210|251:345|255:336,1,231.000002202988
249,311,56686,2,0,B|349:187|387:32|285:83|355:95,1,231.000002202988
341,103,56860,2,0,P|451:187|511:335,1,231.000002202988
491,271,57034,2,0,B|340:317|169:281|170:281,1,231.000002202988
262,292,57209,2,0,P|237:129|162:54,1,231.000002202988
191,80,57383,2,0,B|265:282|26:298|0:117|115:39|115:46,1,346.500003304482
81,333,58081,2,0,L|438:63,1,437.5
30,273,58953,2,0,B|506:12|495:17,6,525
30,273,60000,2,0,L|494:17,1,525.000020027161
256,192,61482,12,0,61656,0:0:0:0:
25,21,61744,6,0,L|21:376,1,350
25,365,61918,2,0,L|391:367,1,350
374,366,62093,2,0,L|374:16,1,350
374,16,62267,2,0,L|17:23,1,350
27,27,62441,2,0,L|391:23,1,350
374,16,62616,2,0,L|378:372,1,350
377,366,62790,2,0,L|11:369,1,350
189,187,64186,1,0,0:0:0:0:
166,214,64273,1,0,0:0:0:0:
171,239,64360,1,0,0:0:0:0:
191,257,64447,1,0,0:0:0:0:
215,267,64534,1,0,0:0:0:0:
250,270,64622,1,0,0:0:0:0:
277,265,64709,1,0,0:0:0:0:
301,247,64796,1,0,0:0:0:0:
302,218,64883,1,0,0:0:0:0:
337,226,64970,1,0,0:0:0:0:
364,226,65058,1,0,0:0:0:0:
396,203,65145,1,0,0:0:0:0:
395,172,65232,1,0,0:0:0:0:
373,146,65319,1,0,0:0:0:0:
351,139,65406,1,0,0:0:0:0:
309,130,65494,1,0,0:0:0:0:
281,130,65581,1,0,0:0:0:0:
256,132,65668,1,0,0:0:0:0:
237,104,65755,1,0,0:0:0:0:
212,85,65843,1,0,0:0:0:0:
184,60,65930,1,0,0:0:0:0:
158,41,66017,1,0,0:0:0:0:
126,34,66104,1,0,0:0:0:0:
95,35,66191,1,0,0:0:0:0:
82,57,66279,1,0,0:0:0:0:
84,85,66366,1,0,0:0:0:0:
94,108,66453,1,0,0:0:0:0:
113,120,66540,1,0,0:0:0:0:
128,136,66627,1,0,0:0:0:0:
152,152,66715,1,0,0:0:0:0:
166,167,66802,1,0,0:0:0:0:
184,185,66889,1,0,0:0:0:0:
36,44,67325,1,0,0:0:0:0:
49,52,67345,1,0,0:0:0:0:
312,130,67500,1,0,0:0:0:0:
325,139,67528,1,0,0:0:0:0:
86,218,67674,1,0,0:0:0:0:
99,224,67702,1,0,0:0:0:0:
354,247,67848,1,0,0:0:0:0:
354,247,67886,1,0,0:0:0:0:
199,54,68023,1,0,0:0:0:0:
205,62,68056,1,0,0:0:0:0:
61,186,68197,1,0,0:0:0:0:
73,202,68225,1,0,0:0:0:0:
333,113,68372,1,0,0:0:0:0:
333,120,68400,1,0,0:0:0:0:
197,271,68546,1,0,0:0:0:0:
210,282,68579,1,0,0:0:0:0:
240,83,68895,1,0,0:0:0:0:
251,81,68911,1,0,0:0:0:0:
256,99,68922,1,0,0:0:0:0:
