osu file format v14

[General]
AudioFilename: audio.mp3
AudioLeadIn: 0
PreviewTime: 60014
Countdown: 0
SampleSet: None
StackLeniency: 0.7
Mode: 0
LetterboxInBreaks: 0
WidescreenStoryboard: 0

[Editor]
DistanceSpacing: 0.1
BeatDivisor: 2
GridSize: 32
TimelineZoom: 1

[Metadata]
Title:Slander & YOOKiE - After All (ft. Jinzo) (PhaseOne Edit)
TitleUnicode:Slander & YOOKiE - After All (ft. Jinzo) (PhaseOne Edit)
Artist:PhaseOne
ArtistUnicode:PhaseOne
Creator:Lone Pixel
Version:Originally Fast
Source:
Tags:Dubstep
BeatmapID:1228774
BeatmapSetID:580341

[Difficulty]
HPDrainRate:4
CircleSize:5
OverallDifficulty:5
ApproachRate:5
SliderMultiplier:1.4
SliderTickRate:2

[Events]
//Background and Video events
0,0,"bg.jpg",0,0
//Break Periods
2,87214,88814
//Storyboard Layer 0 (Background)
//Storyboard Layer 1 (Fail)
//Storyboard Layer 2 (Pass)
//Storyboard Layer 3 (Foreground)
//Storyboard Sound Samples

[TimingPoints]
1514,375,4,2,1,100,1,0

[Colours]
Combo1 : 0,0,0
Combo2 : 0,202,0
Combo3 : 18,124,255
Combo4 : 242,24,57
Combo5 : 255,192,0

[HitObjects]
256,192,1514,5,4,2:0:0:0:
448,64,2264,1,8,0:0:0:0:
448,64,3764,1,8,0:0:0:0:
288,96,4139,2,2,L|192:96,1,70
256,192,4514,5,4,0:0:0:0:
448,64,5264,1,8,0:0:0:0:
39,55,6764,2,4,P|103:55|263:247,1,280,8|4,0:0|0:0,0:0:0:0:
448,64,8264,5,8,0:0:0:0:
448,64,9764,1,8,0:0:0:0:
224,128,10139,2,2,L|320:128,1,70
256,192,10514,2,0,B|96:192|32:192|96:64|416:64|448:192|384:192,1,560,4|2,0:0|0:0,0:0:0:0:
192,128,12389,1,2,0:0:0:0:
384,64,12764,1,2,0:0:0:0:
96,32,13139,1,2,0:0:0:0:
256,192,13514,5,4,1:0:0:0:
150,157,13701,1,2,1:0:0:0:
144,145,13889,1,2,1:0:0:0:
149,135,14076,1,2,1:0:0:0:
256,96,14264,1,8,1:0:0:0:
371,64,14451,1,2,1:0:0:0:
384,64,14639,1,2,1:0:0:0:
395,71,14826,1,2,1:0:0:0:
427,132,15014,6,0,P|384:160|288:128,1,140,4|2,1:0|1:0,1:0:0:0:
213,141,15576,2,0,P|156:159|92:95,1,140,2|2,1:0|1:0,1:0:0:0:
165,83,16139,2,0,L|283:222,1,140,0|4,2:0|2:0,2:0:0:0:
256,96,17264,5,8,1:0:0:0:
320,96,17451,1,2,1:0:0:0:
192,96,17639,1,2,1:0:0:0:
256,192,17826,1,8,1:0:0:0:
320,256,18201,2,2,P|352:288|416:224,1,140,2|2,1:0|1:0,1:0:0:0:
432,164,18764,1,8,1:0:0:0:
351,114,19139,2,0,P|284:131|258:208,1,140,2|4,1:0|1:0,1:0:0:0:
256,96,20264,5,8,1:0:0:0:
134,121,20451,1,2,1:0:0:0:
126,134,20639,1,2,1:0:0:0:
132,145,20826,1,2,1:0:0:0:
256,192,21014,1,4,1:0:0:0:
287,268,21201,1,2,1:0:0:0:
288,285,21389,1,2,1:0:0:0:
280,297,21576,1,2,1:0:0:0:
203,334,21764,2,8,L|-18:334,1,210,8|2,1:0|1:0,1:0:0:0:
0,266,22514,6,0,L|221:266,1,210,4|2,1:0|1:0,1:0:0:0:
285,260,23264,2,0,B|349:228|349:228|317:164|317:164|253:196,1,210,8|4,1:0|1:0,1:0:0:0:
225,125,24014,2,0,B|128:32|32:224|32:224|128:352|224:256,1,490,2|2,1:0|1:0,1:0:0:0:
256,192,25514,5,4,1:0:0:0:
320,160,25701,2,2,B|320:96,4,35,2|2|2|2|2,1:0|1:0|1:0|1:0|1:0,1:0:0:0:
256,96,26264,1,8,1:0:0:0:
192,128,26451,2,2,B|192:192,4,35,2|2|2|2|2,1:0|1:0|1:0|1:0|1:0,1:0:0:0:
128,192,27014,1,4,1:0:0:0:
192,224,27201,2,2,B|192:288|192:288|256:352|256:352,1,140,2|2,1:0|1:0,1:0:0:0:
339,355,27764,2,0,B|458:253|358:152|194:205,1,280,8|4,1:0|1:0,1:0:0:0:
256,96,29264,5,8,1:0:0:0:
320,96,29451,1,2,1:0:0:0:
192,96,29639,1,2,1:0:0:0:
256,192,29826,2,0,P|384:256|256:320,1,350,8|8,1:0|1:0,1:0:0:0:
160,320,31514,6,0,B|160:175|160:175|0:175,2,280,4|8|4,1:0|1:0|1:0,1:0:0:0:
239,286,33201,1,2,1:0:0:0:
249,272,33389,1,2,1:0:0:0:
252,258,33576,1,2,1:0:0:0:
256,192,33764,2,0,B|256:128|256:128|384:64|384:64|416:128|416:128|287:291,1,420,8|2,1:0|1:0,1:0:0:0:
256,288,35264,6,8,L|128:288,2,70,8|0|8,1:0|1:0|1:0,1:0:0:0:
256,192,35826,1,4,1:0:0:0:
160,192,36201,1,2,1:0:0:0:
256,128,36576,1,2,1:0:0:0:
160,128,36764,2,2,B|224:96|224:32|160:0|96:32|96:64,1,210,2|2,1:0|1:0,1:0:0:0:
45,108,37514,5,4,2:0:0:0:
34,145,37701,1,4,2:0:0:0:
112,192,38264,1,8,2:0:0:0:
112,226,38826,1,8,2:0:0:0:
112,263,39201,1,8,2:0:0:0:
34,310,39389,1,4,2:0:0:0:
52,340,39576,1,4,2:0:0:0:
160,352,39764,2,8,B|224:352|224:352|352:288|352:288|320:224|320:224|153:305,1,420,8|2,2:0|2:0,2:0:0:0:
113,265,41264,1,8,2:0:0:0:
181,200,41639,1,2,2:0:0:0:
266,150,42014,2,2,B|161:98|45:201|45:201|82:76|203:25|320:64,1,560,2|4,2:0|2:0,2:0:0:0:
325,81,43701,5,4,2:0:0:0:
407,125,44264,1,8,2:0:0:0:
407,159,44826,1,8,2:0:0:0:
407,196,45201,1,8,2:0:0:0:
345,240,45389,1,4,2:0:0:0:
346,259,45576,1,4,2:0:0:0:
409,291,45764,1,8,2:0:0:0:
345,332,45951,1,4,2:0:0:0:
346,352,46139,1,4,2:0:0:0:
409,383,46326,1,8,2:0:0:0:
477,348,46514,5,4,2:0:0:0:
476,328,46701,1,4,2:0:0:0:
411,291,47264,1,8,2:0:0:0:
411,254,47826,1,8,2:0:0:0:
411,220,48201,1,8,2:0:0:0:
477,189,48389,1,4,2:0:0:0:
477,169,48576,1,4,2:0:0:0:
410,122,48764,1,8,2:0:0:0:
428,94,48951,2,8,L|364:94,2,35,8|8|8,2:0|2:0|2:0,2:0:0:0:
411,67,49326,1,8,2:0:0:0:
475,29,49514,5,4,1:0:0:0:
256,192,50264,12,0,52514,1:0:0:0:
32,320,53264,5,4,3:0:0:0:
480,224,54014,1,4,3:0:0:0:
32,128,54764,1,4,3:0:0:0:
477,6,55514,1,4,3:0:0:0:
466,17,55701,1,4,3:0:0:0:
454,29,55889,1,4,3:0:0:0:
443,39,56076,1,4,3:0:0:0:
433,50,56264,1,4,3:0:0:0:
420,65,56451,1,4,3:0:0:0:
405,86,56639,1,4,3:0:0:0:
391,106,56826,1,4,3:0:0:0:
378,130,57014,1,4,3:0:0:0:
367,159,57201,1,4,3:0:0:0:
357,189,57389,1,4,3:0:0:0:
349,227,57576,1,4,3:0:0:0:
346,259,57764,1,4,3:0:0:0:
344,298,57951,1,4,3:0:0:0:
343,331,58139,1,4,3:0:0:0:
342,377,58326,1,4,3:0:0:0:
288,352,58514,2,4,B|256:320|256:320|224:352|224:352|192:320|192:320|160:352|160:352|128:320|128:320|96:352|96:352|64:320|64:320|96:288|96:288|64:256|64:256|96:224|96:224|64:192|64:192|96:160|96:160|128:192,1,560,4|8,1:0|1:0,1:0:0:0:
146,211,60201,1,4,1:0:0:0:
176,145,60389,1,8,1:0:0:0:
205,227,60576,1,4,1:0:0:0:
237,132,60764,2,0,P|308:113|379:139,1,140,2|8,1:0|1:0,1:0:0:0:
256,384,61514,6,0,B|384:352|320:288|320:288|352:224|192:224,1,280,4|8,1:0|1:0,1:0:0:0:
236,307,62451,1,4,1:0:0:0:
160,320,62639,2,0,B|0:320|46:62|46:62,1,280,4|4,1:0|1:0,1:0:0:0:
128,192,63764,2,0,P|128:128|256:192,2,280,8|4|8,1:0|1:0|1:0,1:0:0:0:
203,248,65639,2,0,B|288:352|425:193|425:193|256:128,1,420,4|8,1:0|1:0,1:0:0:0:
289,63,67139,1,2,1:0:0:0:
223,95,67326,1,2,1:0:0:0:
208,19,67514,6,0,B|80:51|144:114|144:114|128:160|128:160|181:154|181:154|175:210|175:210,1,280,4|8,1:0|1:0,1:0:0:0:
255,170,68451,1,4,1:0:0:0:
319,170,68639,2,0,L|384:288,1,70,4|2,1:0|1:0,1:0:0:0:
424,232,69014,2,0,B|452:151|448:160,1,70,4|2,1:0|1:0,1:0:0:0:
384,110,69389,2,0,L|384:31,1,70,4|2,1:0|1:0,1:0:0:0:
311,40,69764,2,0,L|212:40,1,70,8|2,1:0|1:0,1:0:0:0:
170,42,70139,1,2,1:0:0:0:
135,44,70326,1,8,1:0:0:0:
101,47,70514,2,0,L|40:161,1,70,4|2,1:0|1:0,1:0:0:0:
67,188,70889,2,0,L|104:273,1,70,4|2,1:0|1:0,1:0:0:0:
158,307,71264,1,8,1:0:0:0:
192,323,71451,1,2,1:0:0:0:
237,332,71639,2,0,L|311:332,1,70,4|2,1:0|1:0,1:0:0:0:
375,298,72014,2,2,P|371:226|318:277,3,140,2|2|2|2,1:0|1:0|1:0|1:0,1:0:0:0:
256,192,73514,6,0,B|128:160|192:96|192:96|160:32|288:32,1,280,4|8,1:0|1:0,1:0:0:0:
274,113,74451,1,4,1:0:0:0:
355,116,74639,2,0,B|515:116|465:384|465:384,1,280,4|4,1:0|1:0,1:0:0:0:
387,318,75764,2,0,P|380:263|307:226,1,140,8|8,1:0|1:0,1:0:0:0:
255,329,76514,2,0,P|255:265|383:329,1,280,4|8,1:0|1:0,1:0:0:0:
480,320,77639,2,0,B|544:224|410:100|410:100|211:100,1,420,4|8,1:0|1:0,1:0:0:0:
177,136,79139,1,2,1:0:0:0:
176,72,79326,1,2,1:0:0:0:
170,0,79514,6,0,B|42:32|106:96|106:96|89:127|89:127|123:136|123:136|96:160|96:160|96:241|96:241,1,280,4|8,1:0|1:0,1:0:0:0:
167,243,80639,2,0,L|232:361,1,70,2|0,1:0|1:0,1:0:0:0:
286,300,81014,2,4,B|314:219|310:228,1,70,4|2,1:0|1:0,1:0:0:0:
365,179,81389,2,4,L|365:100,1,70,4|2,1:0|1:0,1:0:0:0:
287,107,81764,2,4,L|188:107,1,70,8|2,1:0|1:0,1:0:0:0:
170,42,82139,1,2,1:0:0:0:
135,44,82326,1,2,1:0:0:0:
101,47,82514,2,0,L|40:161,1,70,4|2,1:0|1:0,1:0:0:0:
67,188,82889,2,2,L|104:273,1,70,2|2,1:0|1:0,1:0:0:0:
158,307,83264,1,8,1:0:0:0:
192,323,83451,1,4,1:0:0:0:
237,332,83639,2,4,L|311:332,1,70,4|2,1:0|1:0,1:0:0:0:
375,298,84014,2,2,P|371:226|318:277,3,140,2|2|2|2,1:0|1:0|1:0|1:0,1:0:0:0:
256,192,85514,12,0,87014,1:0:0:0:
320,192,90014,5,2,0:0:0:0:
192,128,90389,1,2,0:0:0:0:
384,64,90764,1,2,0:0:0:0:
96,32,91139,1,2,0:0:0:0:
255,189,91514,2,2,P|282:55|475:216,1,490
430,243,93014,6,0,P|387:271|291:239,1,140,2|2,1:0|1:0,1:0:0:0:
216,252,93576,2,0,P|159:270|95:206,1,140,2|2,1:0|1:0,1:0:0:0:
123,140,94139,2,0,L|293:203,1,140,0|4,2:0|2:0,2:0:0:0:
256,96,95264,1,8,1:0:0:0:
192,96,95451,1,2,1:0:0:0:
320,96,95639,1,2,1:0:0:0:
256,192,95826,1,8,1:0:0:0:
192,256,96201,2,2,P|160:288|96:224,1,140,2|2,1:0|1:0,1:0:0:0:
80,164,96764,1,8,1:0:0:0:
161,114,97139,2,0,P|228:131|254:208,1,140,2|4,1:0|1:0,1:0:0:0:
256,96,98264,5,8,1:0:0:0:
378,121,98451,1,2,1:0:0:0:
386,134,98639,1,2,1:0:0:0:
380,145,98826,1,2,1:0:0:0:
256,192,99014,1,4,1:0:0:0:
225,268,99201,1,2,1:0:0:0:
224,285,99389,1,2,1:0:0:0:
232,297,99576,1,2,1:0:0:0:
309,334,99764,2,8,L|530:334,1,210,8|2,1:0|1:0,1:0:0:0:
512,266,100514,6,0,L|291:266,1,210,4|2,1:0|1:0,1:0:0:0:
227,260,101264,2,0,B|163:228|163:228|195:164|195:164|259:196,1,210,8|4,1:0|1:0,1:0:0:0:
287,125,102014,2,0,B|384:32|480:224|480:224|384:352|288:256,1,490,2|2,1:0|1:0,1:0:0:0:
256,192,103514,5,4,1:0:0:0:
192,160,103701,2,2,B|192:96,4,35,2|2|2|2|2,1:0|1:0|1:0|1:0|1:0,1:0:0:0:
256,96,104264,1,8,1:0:0:0:
320,128,104451,2,2,B|320:192,4,35,2|2|2|2|2,1:0|1:0|1:0|1:0|1:0,1:0:0:0:
384,192,105014,1,4,1:0:0:0:
320,224,105201,2,2,B|320:288|320:288|256:352|256:352,1,140,2|2,1:0|1:0,1:0:0:0:
173,355,105764,2,0,B|54:253|154:152|318:205,1,280,8|4,1:0|1:0,1:0:0:0:
256,96,107264,5,8,1:0:0:0:
192,96,107451,1,2,1:0:0:0:
320,96,107639,1,2,1:0:0:0:
256,192,107826,2,0,P|128:256|256:320,1,350,8|8,1:0|1:0,1:0:0:0:
352,320,109514,6,0,B|352:175|352:175|512:175,2,280,4|8|4,1:0|1:0|1:0,1:0:0:0:
273,286,111201,1,2,1:0:0:0:
263,272,111389,1,2,1:0:0:0:
260,258,111576,1,2,1:0:0:0:
256,192,111764,2,0,B|256:128|256:128|128:64|128:64|96:128|96:128|225:291,1,420,8|2,1:0|1:0,1:0:0:0:
256,288,113264,6,8,L|384:288,2,70,8|0|8,1:0|1:0|1:0,1:0:0:0:
256,192,113826,1,4,1:0:0:0:
352,192,114201,1,2,1:0:0:0:
256,128,114576,1,2,1:0:0:0:
352,128,114764,2,2,B|288:96|288:32|352:0|416:32|416:64,1,210,2|2,1:0|1:0,1:0:0:0:
467,108,115514,5,4,2:0:0:0:
478,145,115701,1,4,2:0:0:0:
400,192,116264,1,8,2:0:0:0:
400,226,116826,1,8,2:0:0:0:
400,263,117201,1,8,2:0:0:0:
478,310,117389,1,4,2:0:0:0:
460,340,117576,1,4,2:0:0:0:
352,352,117764,2,8,B|288:352|288:352|160:288|160:288|192:224|192:224|359:305,1,420,8|2,2:0|2:0,2:0:0:0:
399,265,119264,1,8,2:0:0:0:
331,200,119639,1,2,2:0:0:0:
246,150,120014,2,2,B|351:98|467:201|467:201|430:76|309:25|192:64,1,560,2|4,2:0|2:0,2:0:0:0:
187,81,121701,5,4,2:0:0:0:
105,125,122264,1,8,2:0:0:0:
105,159,122826,1,8,2:0:0:0:
105,196,123201,1,8,2:0:0:0:
167,240,123389,1,4,2:0:0:0:
166,259,123576,1,4,2:0:0:0:
103,291,123764,1,8,2:0:0:0:
167,332,123951,1,4,2:0:0:0:
166,352,124139,1,4,2:0:0:0:
103,383,124326,1,8,2:0:0:0:
35,348,124514,5,4,2:0:0:0:
36,328,124701,1,4,2:0:0:0:
101,291,125264,1,8,2:0:0:0:
101,254,125826,1,8,2:0:0:0:
101,220,126201,1,8,2:0:0:0:
35,189,126389,1,4,2:0:0:0:
35,169,126576,1,4,2:0:0:0:
102,122,126764,1,8,2:0:0:0:
84,94,126951,2,8,L|148:94,2,35,8|8|8,2:0|2:0|2:0,2:0:0:0:
101,67,127326,1,8,2:0:0:0:
37,29,127514,5,4,1:0:0:0:
256,192,128264,12,0,130514,1:0:0:0:
480,320,131264,5,4,3:0:0:0:
32,224,132014,1,4,3:0:0:0:
480,128,132764,1,4,3:0:0:0:
35,6,133514,1,4,3:0:0:0:
46,17,133701,1,4,3:0:0:0:
58,29,133889,1,4,3:0:0:0:
69,39,134076,1,4,3:0:0:0:
79,50,134264,1,4,3:0:0:0:
92,65,134451,1,4,3:0:0:0:
107,86,134639,1,4,3:0:0:0:
121,106,134826,1,4,3:0:0:0:
134,130,135014,1,4,3:0:0:0:
145,159,135201,1,4,3:0:0:0:
155,189,135389,1,4,3:0:0:0:
163,227,135576,1,4,3:0:0:0:
166,259,135764,1,4,3:0:0:0:
168,298,135951,1,4,3:0:0:0:
169,331,136139,1,4,3:0:0:0:
170,377,136326,1,4,3:0:0:0:
224,352,136514,2,4,B|256:320|256:320|288:352|288:352|320:320|320:320|352:352|352:352|384:320|384:320|416:352|416:352|448:320|448:320|416:288|416:288|448:256|448:256|416:224|416:224|448:192|448:192|416:160|416:160|384:192,1,560,4|8,1:0|1:0,1:0:0:0:
366,211,138201,1,4,1:0:0:0:
336,145,138389,1,8,1:0:0:0:
307,227,138576,1,4,1:0:0:0:
275,132,138764,2,0,P|204:113|133:139,1,140,2|8,1:0|1:0,1:0:0:0:
256,384,139514,5,4,1:0:0:0:
338,325,139701,2,2,B|312:302|312:302|338:265,1,70,2|2,1:0|1:0,1:0:0:0:
280,220,140076,1,2,1:0:0:0:
216,187,140264,1,8,1:0:0:0:
236,307,140451,1,4,1:0:0:0:
160,320,140639,2,0,B|0:320|46:62|46:62,1,280,4|4,1:0|1:0,1:0:0:0:
123,181,141764,2,0,P|134:117|200:89,1,140,8|4,1:0|2:0,1:0:0:0:
241,110,142264,1,4,2:0:0:0:
263,152,142389,1,4,2:0:0:0:
256,192,142514,2,0,P|256:128|128:192,1,280,4|8,1:0|1:0,0:0:0:0:
203,248,143639,2,0,B|288:352|425:193|425:193|256:128,1,420,4|8,1:0|1:0,1:0:0:0:
289,63,145139,1,2,1:0:0:0:
223,95,145326,1,2,1:0:0:0:
204,21,145514,5,4,1:0:0:0:
156,58,145701,1,2,1:0:0:0:
151,117,145889,1,2,1:0:0:0:
188,164,146076,1,2,1:0:0:0:
215,233,146264,1,8,1:0:0:0:
254,170,146451,1,4,1:0:0:0:
319,170,146639,2,0,L|384:288,1,70,4|2,1:0|1:0,1:0:0:0:
424,232,147014,2,0,B|452:151|448:160,1,70,4|2,1:0|1:0,1:0:0:0:
384,110,147389,2,0,L|384:31,1,70,4|2,1:0|1:0,1:0:0:0:
311,40,147764,2,0,L|212:40,1,70,8|2,1:0|1:0,1:0:0:0:
170,42,148139,1,2,1:0:0:0:
135,44,148326,1,8,1:0:0:0:
101,47,148514,2,0,L|40:161,1,70,4|2,1:0|1:0,1:0:0:0:
67,188,148889,2,0,L|104:273,1,70,4|2,1:0|1:0,1:0:0:0:
158,307,149264,1,8,1:0:0:0:
192,323,149451,1,2,1:0:0:0:
237,332,149639,2,0,L|311:332,1,70,4|2,1:0|1:0,1:0:0:0:
375,298,150014,2,2,P|371:226|318:277,3,140,2|2|2|2,1:0|1:0|1:0|1:0,1:0:0:0:
249,28,151514,5,4,1:0:0:0:
167,87,151701,2,2,B|193:110|193:110|167:147,1,70,2|2,1:0|1:0,1:0:0:0:
229,187,152076,1,2,1:0:0:0:
289,225,152264,1,8,1:0:0:0:
274,113,152451,1,4,1:0:0:0:
355,116,152639,2,0,B|515:116|465:384|465:384,1,280,4|4,1:0|1:0,1:0:0:0:
387,318,153764,2,0,P|380:263|307:226,1,140,8|4,1:0|2:0,1:0:0:0:
274,242,154264,1,4,2:0:0:0:
250,281,154389,1,4,2:0:0:0:
254,328,154514,2,0,P|254:264|382:328,1,280,4|8,1:0|1:0,1:0:0:0:
480,320,155639,2,0,B|544:224|410:100|410:100|211:100,1,420,4|8,1:0|1:0,1:0:0:0:
177,136,157139,1,2,1:0:0:0:
176,72,157326,1,2,1:0:0:0:
112,29,157514,5,4,1:0:0:0:
88,72,157701,1,2,1:0:0:0:
112,99,157889,1,2,1:0:0:0:
87,138,158076,1,2,1:0:0:0:
125,191,158264,1,8,1:0:0:0:
167,243,158639,2,0,L|232:361,1,70,2|0,1:0|1:0,1:0:0:0:
286,300,159014,2,4,B|314:219|310:228,1,70,4|2,1:0|1:0,1:0:0:0:
365,179,159389,2,4,L|365:100,1,70,4|2,1:0|1:0,1:0:0:0:
287,107,159764,2,4,L|188:107,1,70,8|2,1:0|1:0,1:0:0:0:
170,42,160139,1,2,1:0:0:0:
135,44,160326,1,2,1:0:0:0:
101,47,160514,2,0,L|40:161,1,70,4|2,1:0|1:0,1:0:0:0:
67,188,160889,2,2,L|104:273,1,70,2|2,1:0|1:0,1:0:0:0:
158,307,161264,1,8,1:0:0:0:
192,323,161451,1,4,1:0:0:0:
237,332,161639,2,4,L|311:332,1,70,4|2,1:0|1:0,1:0:0:0:
375,298,162014,2,2,P|371:226|318:277,3,140,2|2|2|2,1:0|1:0|1:0|1:0,1:0:0:0:
256,192,163514,12,0,167826,1:0:0:0:
256,192,169514,5,2,2:0:0:0:
128,0,171764,2,2,B|192:0|192:0|288:-64|320:64,1,210,2|2,2:0|2:0,2:0:0:0:
384,0,172514,1,2,2:0:0:0:
352,96,173826,1,2,2:0:0:0:
256,192,175514,5,2,2:0:0:0:
49,257,177764,2,2,B|113:257|113:257|209:193|241:321,1,210,2|2,2:0|2:0,2:0:0:0:
305,257,178514,1,2,2:0:0:0:
256,128,179826,1,2,2:0:0:0:
256,192,181514,5,2,2:0:0:0:
144,139,183764,2,2,B|208:139|208:139|304:75|336:203,1,210,2|2,2:0|2:0,2:0:0:0:
400,139,184514,1,2,2:0:0:0:
294,249,185826,1,2,2:0:0:0:
256,192,187514,5,10,2:0:0:0:
